<?xml version="1.0" standalone="no"?>
<!DOCTYPE svg PUBLIC "-//W3C//DTD SVG 1.1//EN" "http://www.w3.org/Graphics/SVG/1.1/DTD/svg11.dtd" >
<svg xmlns="http://www.w3.org/2000/svg">
<metadata></metadata>
<defs>
<font id="nb55ag" horiz-adv-x="1169" >
<font-face units-per-em="2048" ascent="1638" descent="-410" />
<missing-glyph horiz-adv-x="583" />
<glyph horiz-adv-x="2048" />
<glyph horiz-adv-x="2048" />
<glyph unicode="&#xd;" horiz-adv-x="2048" />
<glyph unicode=" "  horiz-adv-x="583" />
<glyph unicode="&#x09;" horiz-adv-x="583" />
<glyph unicode="&#xa0;" horiz-adv-x="583" />
<glyph unicode="!" horiz-adv-x="399" d="M0 4v307h205v-307h-205zM0 516v926h205v-926h-205z" />
<glyph unicode="&#x22;" horiz-adv-x="772" d="M0 946l100 184h-100v308h205v-308l-105 -184h-100zM373 946l100 184h-100v308h205v-308l-105 -184h-100z" />
<glyph unicode="#" d="M0 305v205h182v418h-182v205h182v305h205v-305h203v305h205v-305h180v-205h-180v-418h180v-205h-180v-305h-205v305h-203v-305h-205v305h-182zM387 510h203v418h-203v-418z" />
<glyph unicode="$" horiz-adv-x="1171" d="M0 356h207q0 -75 53 -116q46 -37 125 -37v448q-180 80 -262 156q-123 114 -123 268q0 161 111 260q110 101 274 101v102h205v-102q161 0 272 -97q113 -101 113 -264h-205q0 73 -50 113.5t-130 40.5v-447q179 -79 264 -157q123 -111 123 -267q0 -164 -113 -262 q-110 -98 -274 -98v-102h-205v102q-160 0 -270 96q-115 103 -115 262zM205 1075q0 -113 180 -201v355h-27q-63 0 -108 -45.5t-45 -108.5zM590 203h26q64 0 109 45t45 110q0 110 -180 201v-356z" />
<glyph unicode="%" horiz-adv-x="1953" d="M0 977v102q0 148 104 252q107 107 254 107q150 0 254 -107q105 -105 105 -252v-102q0 -148 -105 -256q-105 -105 -254 -105q-146 0 -254 105q-104 107 -104 256zM203 0v43q0 192 73 262l1078 989q12 12 12 144h207v-29q0 -192 -76 -262l-1081 -993q-8 -8 -8 -154h-205z M205 977q0 -63 45 -109.5t108 -46.5t108.5 46.5t45.5 109.5v102q0 63 -45.5 108.5t-108.5 45.5t-108 -45.5t-45 -108.5v-102zM1040 360v103q0 149 105 254q107 104 256 104q148 0 252 -104q106 -103 106 -254v-103q0 -150 -106 -256q-104 -104 -252 -104q-149 0 -256 104 q-105 108 -105 256zM1247 360q0 -63 45.5 -108t108.5 -45t108 45t45 108v103q0 63 -45 108t-108 45t-108.5 -45t-45.5 -108v-103z" />
<glyph unicode="&#x26;" horiz-adv-x="1488" d="M0 356v103q0 153 106 256q-72 69 -94 168q-12 55 -12 192q0 150 104 254q107 107 254 107q151 0 258 -107q109 -106 109 -254v-102q0 -101 -53.5 -188.5t-143.5 -131.5l242 -186v352h205v-463q0 -31 -2 -45q107 -82 145 -96q40 -12 176 -12v-205h-102q-116 0 -311 115 q-109 -115 -265 -115h-258q-147 0 -254 104q-104 107 -104 254zM205 356q0 -63 45 -108t108 -45h258q47 0 86 26q-196 143 -434 355q-63 -45 -63 -125v-103zM205 973q0 -56 31 -92q24 -21 73 -62h56q63 0 108 45.5t45 108.5v102q0 63 -47 109.5t-113 46.5q-63 0 -108 -46.5 t-45 -109.5v-102z" />
<glyph unicode="'" horiz-adv-x="399" d="M0 946v492h205v-308l-105 -184h-100z" />
<glyph unicode="(" horiz-adv-x="501" d="M0 307v821q0 128 90 218t217 90v-205q-41 0 -71.5 -31t-30.5 -72v-821q0 -41 30.5 -71.5t71.5 -30.5v-205q-127 0 -217 90t-90 217z" />
<glyph unicode=")" horiz-adv-x="501" d="M0 0v205q42 0 72 30t30 72v821q0 42 -30 72.5t-72 30.5v205q127 0 217 -90t90 -218v-821q0 -127 -90 -217t-217 -90z" />
<glyph unicode="*" horiz-adv-x="849" d="M0 721v45q0 126 31 154l157 159l-157 160q-31 28 -31 154v45h205q0 -97 16 -113l107 -106l106 106q17 17 17 113h204v-45q0 -126 -28 -154l-160 -160l160 -159q28 -28 28 -154v-45h-204q0 96 -17 113l-106 106l-107 -106q-16 -16 -16 -113h-205z" />
<glyph unicode="+" d="M0 616v205h385v617h205v-617h385v-205h-385v-616h-205v616h-385z" />
<glyph unicode="," horiz-adv-x="399" d="M0 0v307h205v-307l-105 -184h-100l100 184h-100z" />
<glyph unicode="." horiz-adv-x="399" d="M0 0v307h205v-307h-205z" />
<glyph unicode="/" horiz-adv-x="1173" d="M0 0v45q0 106 31 154l735 1134q5 10 8 105h205q0 -53 -4 -103q-6 -69 -27 -96l-735 -1135q-8 -11 -8 -104h-205z" />
<glyph unicode="0" horiz-adv-x="1167" d="M0 307v821q0 128 90 218t217 90h359q127 0 217 -90t90 -218v-821q0 -127 -90 -217t-217 -90h-359q-127 0 -217 90t-90 217zM205 567l557 594q-24 70 -96 70h-359q-41 0 -71.5 -31t-30.5 -72v-561zM211 274q23 -69 96 -69h359q42 0 72 30t30 72v561z" />
<glyph unicode="1" d="M0 0v205h385v1028h-385v205h590v-1233h385v-205h-975z" />
<glyph unicode="2" horiz-adv-x="1171" d="M0 0v360q0 193 201 326l370 180q199 99 199 211q0 63 -45.5 109.5t-108.5 46.5h-256q-63 0 -108 -45.5t-45 -108.5h-207q0 148 104 252q107 107 256 107h256q150 0 254 -107q107 -104 107 -254q0 -192 -201 -325l-370 -181q-201 -100 -201 -211v-155h772v-205h-977z" />
<glyph unicode="3" horiz-adv-x="1171" d="M0 307h205q0 -41 30.5 -71.5t71.5 -30.5h363q42 0 72 30t30 72v207q0 43 -29.5 73.5t-72.5 30.5h-367v205h367q43 0 72.5 30t29.5 73v207q0 43 -29.5 72.5t-72.5 29.5h-363q-42 0 -72 -30t-30 -72h-205q0 127 90 217q89 92 217 92h363q128 0 217 -92q90 -90 90 -217v-207 q0 -115 -78 -205q78 -90 78 -207v-207q0 -127 -90 -217t-217 -90h-363q-127 0 -217 90t-90 217z" />
<glyph unicode="4" d="M0 307v357q0 115 39 206q84 184 250 568h225l-283 -647q-26 -59 -26 -127v-152h356v309h207v-309h207v-205h-207v-307h-207v307h-561z" />
<glyph unicode="5" horiz-adv-x="1171" d="M0 307h205q0 -41 30.5 -71.5t71.5 -30.5h363q42 0 72 30t30 72v207q0 43 -29.5 73.5t-72.5 30.5h-668v824h975v-207h-770v-412h463q127 0 217 -90t90 -219v-207q0 -127 -90 -217t-217 -90h-363q-127 0 -217 90t-90 217z" />
<glyph unicode="6" horiz-adv-x="1171" d="M0 307v207q0 71 80 231l344 693h229l-305 -615h322q127 0 217 -90t90 -219v-207q0 -127 -90 -217t-217 -90h-363q-127 0 -217 90t-90 217zM205 307q0 -41 30.5 -71.5t71.5 -30.5h363q42 0 72 30t30 72v207q0 43 -29.5 73.5t-72.5 30.5h-363q-41 0 -71.5 -30.5 t-30.5 -73.5v-207z" />
<glyph unicode="7" d="M0 1233v205h975v-322q0 -87 -29 -143l-479 -864q-8 -13 -8 -109h-207v47q0 94 29 150l481 864q8 13 8 172h-770z" />
<glyph unicode="8" horiz-adv-x="1171" d="M0 307v207q0 117 78 207q-78 90 -78 205v207q0 127 90 217q89 92 217 92h363q128 0 217 -92q90 -90 90 -217v-207q0 -115 -78 -205q78 -90 78 -207v-207q0 -127 -90 -217t-217 -90h-363q-127 0 -217 90t-90 217zM205 307q0 -41 30.5 -71.5t71.5 -30.5h363q42 0 72 30 t30 72v207q0 43 -29.5 73.5t-72.5 30.5h-363q-41 0 -71.5 -30.5t-30.5 -73.5v-207zM205 926q0 -42 30.5 -72.5t71.5 -30.5h363q43 0 72.5 30t29.5 73v207q0 43 -29.5 72.5t-72.5 29.5h-363q-42 0 -72 -30t-30 -72v-207z" />
<glyph unicode="9" horiz-adv-x="1171" d="M0 924v206q0 128 90 218t217 90h363q127 0 217 -90t90 -218v-206q0 -70 -78 -232l-346 -692h-229l307 614h-324q-126 0 -217 91q-90 90 -90 219zM205 924q0 -43 30.5 -74t71.5 -31h363q42 0 72 31t30 74v206q0 42 -30 72.5t-72 30.5h-363q-41 0 -71.5 -31t-30.5 -72v-206 z" />
<glyph unicode=":" horiz-adv-x="399" d="M0 0v307h205v-307h-205zM0 1128v308h205v-308h-205z" />
<glyph unicode=";" horiz-adv-x="399" d="M0 0v307h205v-307l-105 -184h-100l100 184h-100zM0 514v307h205v-307h-205z" />
<glyph unicode="&#x3c;" horiz-adv-x="808" d="M0 592v254q0 39 25 67l407 471q48 54 182 54v-205h-16q-25 0 -33 -8l-344 -400q-15 -18 -18 -77l2 33v-115q0 -35 16 -54l344 -399q8 -8 49 -8v-205q-135 0 -182 53l-407 471q-25 28 -25 68z" />
<glyph unicode="=" d="M0 313v205h975v-205h-975zM0 936v205h975v-205h-975z" />
<glyph unicode="&#x3e;" horiz-adv-x="808" d="M0 0v205q44 0 49 8l344 399q17 20 17 54l1 109q0 -9 1 -27q-3 58 -19 77l-344 400q-8 8 -33 8h-16v205q134 0 182 -54l408 -471q24 -27 24 -67v-254q0 -41 -24 -68l-408 -471q-47 -53 -182 -53z" />
<glyph unicode="?" d="M0 1079q0 148 104 252q107 107 254 107h258q150 0 254 -107q105 -105 105 -254q0 -159 -98 -250q-7 -5 -187 -116q-98 -61 -98 -148v-90h-207v90q0 160 100 250q8 8 185 119q100 60 100 145q0 63 -45.5 109.5t-108.5 46.5h-258q-63 0 -108 -45.5t-45 -108.5h-205zM385 0 v307h207v-307h-207z" />
<glyph unicode="@" horiz-adv-x="1361" d="M0 309v205q0 127 90 217t217 90h283v-616h76q43 0 72.5 30.5t29.5 73.5v819q0 43 -29.5 73t-72.5 30h-359q-43 0 -72.5 -30t-29.5 -73v-104h-205v104q0 128 90 218t217 90h359q127 0 217 -90t90 -218v-819q0 -129 -90 -219t-217 -90h-359q-127 0 -217 90t-90 219z M205 309q0 -43 29.5 -73.5t72.5 -30.5h78v411h-78q-43 0 -72.5 -29.5t-29.5 -72.5v-205z" />
<glyph unicode="A" d="M0 0v692q0 49 20 99l242 585q8 20 40.5 42t55.5 22h260q21 0 54.5 -22t40.5 -42l241 -585q21 -53 21 -99v-692h-205v309h-565v-309h-205zM205 514h565v186l-221 533h-123l-221 -533v-186z" />
<glyph unicode="B" d="M0 0v1438h668q127 0 217 -90t90 -218v-206q0 -115 -78 -205q78 -87 78 -205v-207q0 -127 -90 -217t-217 -90h-668zM205 205h463q41 0 71.5 30.5t30.5 71.5v207q0 42 -30 72t-72 30h-463v-411zM205 823h463q43 0 72.5 29t29.5 72v206q0 42 -30 72.5t-72 30.5h-463v-410z " />
<glyph unicode="C" horiz-adv-x="1167" d="M0 307v819q0 130 90 220t217 90h359q127 0 217 -90t90 -220h-205q0 43 -30 74t-72 31h-359q-41 0 -71.5 -31t-30.5 -74v-819q0 -41 30.5 -71.5t71.5 -30.5h359q42 0 72 30t30 72h205q0 -127 -90 -217t-217 -90h-359q-127 0 -217 90t-90 217z" />
<glyph unicode="D" d="M0 0v1436h668q127 0 217 -90t90 -220v-819q0 -127 -90 -217t-217 -90h-668zM205 205h463q42 0 72 30t30 72v819q0 43 -30 74t-72 31h-463v-1026z" />
<glyph unicode="E" d="M0 0v1438h975v-205h-770v-412h770v-205h-770v-411h770v-205h-975z" />
<glyph unicode="F" d="M0 0v1438h975v-205h-770v-412h770v-205h-770v-616h-205z" />
<glyph unicode="G" horiz-adv-x="1167" d="M0 309v819q0 128 90 218q89 92 217 92h359q128 0 217 -92q90 -90 90 -218h-205q0 43 -29.5 73t-72.5 30h-359q-41 0 -71.5 -30.5t-30.5 -72.5v-819q0 -42 30 -72t72 -30h359q43 0 72.5 29.5t29.5 72.5v307h-266v205h471v-512q0 -127 -90 -217t-217 -90h-359 q-127 0 -217 90t-90 217z" />
<glyph unicode="H" d="M0 0v1438h205v-617h565v617h205v-1438h-205v616h-565v-616h-205z" />
<glyph unicode="I" d="M0 0v205h385v1028h-385v205h975v-205h-385v-1028h385v-205h-975z" />
<glyph unicode="J" d="M0 1231v205h975v-1129q0 -127 -90 -217t-217 -90h-357q-129 0 -219 90t-90 217h205q0 -41 30.5 -71.5t73.5 -30.5h357q42 0 72 30t30 72v924h-770z" />
<glyph unicode="K" d="M0 0v1438h205v-617h219l340 512q6 9 6 105h205v-47q0 -104 -29 -154l-344 -518l344 -518q29 -50 29 -156v-45h-205q0 92 -6 104l-340 512h-219v-616h-205z" />
<glyph unicode="L" d="M0 0v1438h205v-1233h770v-205h-975z" />
<glyph unicode="M" d="M0 0v1438h205l280 -439l285 439h205v-1438h-205v1057l-174 -266q-6 -12 -6 -105h-207q0 94 -8 105l-170 264v-1055h-205z" />
<glyph unicode="N" d="M0 0v1438l205 -2l565 -1049v1051h205v-1438h-205l-565 1049v-1049h-205z" />
<glyph unicode="O" horiz-adv-x="1167" d="M0 307v819q0 130 90 220t217 90h359q127 0 217 -90t90 -220v-819q0 -127 -90 -217t-217 -90h-359q-127 0 -217 90t-90 217zM205 307q0 -41 30.5 -71.5t71.5 -30.5h359q42 0 72 30t30 72v819q0 43 -30 74t-72 31h-359q-41 0 -71.5 -31t-30.5 -74v-819z" />
<glyph unicode="P" d="M0 0v1438h616q150 0 254 -107q105 -105 105 -254v-102q0 -146 -105 -254q-105 -105 -254 -105h-411v-616h-205zM205 821h411q63 0 108.5 45.5t45.5 108.5v102q0 63 -45.5 109.5t-108.5 46.5h-411v-412z" />
<glyph unicode="Q" horiz-adv-x="1167" d="M0 307v821q0 128 90 218t217 90h359q127 0 217 -90t90 -218v-821q0 -127 -90 -217t-217 -90h-359q-127 0 -217 90t-90 217zM205 307q0 -41 30.5 -71.5t71.5 -30.5h76v309h205v-309h78q42 0 72 30t30 72v821q0 42 -30 72.5t-72 30.5h-359q-41 0 -71.5 -31t-30.5 -72v-821z " />
<glyph unicode="R" d="M0 0v1438h616q150 0 254 -107q105 -105 105 -252v-104q0 -131 -86 -234q-83 -98 -215 -120l272 -420q29 -50 29 -201h-205q0 52 -8 104l-332 512h-225v-616h-205zM205 821h411q63 0 108.5 45.5t45.5 108.5v104q0 63 -45.5 108.5t-108.5 45.5h-411v-412z" />
<glyph unicode="S" horiz-adv-x="1171" d="M0 358h207q0 -62 45 -107.5t108 -45.5h256q63 0 108.5 46t45.5 109q0 112 -199 211l-370 181q-201 133 -201 325q0 150 104 254q107 107 254 107h258q150 0 254 -107q105 -105 105 -252h-205q0 63 -45.5 108.5t-108.5 45.5h-258q-63 0 -108 -46.5t-45 -109.5 q0 -111 201 -211l370 -180q201 -133 201 -326q0 -149 -107 -256q-104 -104 -254 -104h-256q-149 0 -256 104q-104 107 -104 254z" />
<glyph unicode="T" d="M0 1233v205h975v-205h-385v-1233h-205v1233h-385z" />
<glyph unicode="U" horiz-adv-x="1167" d="M0 307v1131h205v-1131q0 -41 30.5 -71.5t71.5 -30.5h359q42 0 72 30t30 72v1131h205v-1131q0 -127 -90 -217t-217 -90h-359q-127 0 -217 90t-90 217z" />
<glyph unicode="V" d="M0 745v695h205v-701l221 -534h123l221 534v701h205v-695q0 -47 -21 -96l-241 -586q-7 -20 -40.5 -41.5t-54.5 -21.5h-260q-23 0 -56 21.5t-40 41.5l-242 586q-20 47 -20 96z" />
<glyph unicode="W" d="M0 0v1438h205v-1059l174 268q8 8 8 105h205q0 -94 8 -105l170 -266v1057h205v-1438h-205l-281 438l-284 -438h-205z" />
<glyph unicode="X" horiz-adv-x="1173" d="M0 0v45q0 106 31 154l336 520l-336 520q-31 48 -31 154v45h205q0 -94 8 -105l276 -426l277 426q5 10 8 105h205q0 -53 -4 -103q-6 -69 -27 -96l-336 -520l336 -520q28 -48 31 -199h-205q0 52 -8 104l-277 426l-276 -426q-8 -11 -8 -104h-205z" />
<glyph unicode="Y" horiz-adv-x="1173" d="M0 1311v127h205q0 -176 8 -187l276 -426l277 426q8 11 8 187h205v-127q0 -106 -31 -154l-356 -549v-608h-205v606l-356 551q-31 48 -31 154z" />
<glyph unicode="Z" d="M0 1233v205h961v-205l-709 -1028h723v-205h-959v205l707 1028h-723z" />
<glyph unicode="[" horiz-adv-x="526" d="M0 0v1438h332v-205h-127v-1028h127v-205h-332z" />
<glyph unicode="\" horiz-adv-x="1173" d="M0 1438h205q0 -53 8 -105l735 -1134q31 -48 31 -154v-45h-205q0 93 -8 104l-735 1135q-28 45 -31 199z" />
<glyph unicode="]" horiz-adv-x="526" d="M0 0v205h127v1028h-127v205h332v-1438h-332z" />
<glyph unicode="^" horiz-adv-x="1073" d="M0 1540q0 135 53 182l221 189q27 24 68 24h195q40 0 67 -24l221 -189q54 -48 54 -182h-207q3 42 -8 49l-146 125q-24 17 -55 17h-47q-36 0 -56 -17l-147 -125q-8 -5 -8 -49h-205z" />
<glyph unicode="_" d="M0 0v205h975v-205h-975z" />
<glyph unicode="`" horiz-adv-x="755" d="M0 1763v205h45q112 0 154 -31l258 -184q7 -5 104 -8v-205q-66 0 -102 4q-70 6 -97 27l-258 184q-11 8 -104 8z" />
<glyph unicode="a" d="M0 0v692q0 49 20 99l242 585q8 20 40.5 42t55.5 22h260q21 0 54.5 -22t40.5 -42l241 -585q21 -53 21 -99v-692h-205v309h-565v-309h-205zM205 514h565v186l-221 533h-123l-221 -533v-186z" />
<glyph unicode="b" d="M0 0v1438h668q127 0 217 -90t90 -218v-206q0 -115 -78 -205q78 -87 78 -205v-207q0 -127 -90 -217t-217 -90h-668zM205 205h463q41 0 71.5 30.5t30.5 71.5v207q0 42 -30 72t-72 30h-463v-411zM205 823h463q43 0 72.5 29t29.5 72v206q0 42 -30 72.5t-72 30.5h-463v-410z " />
<glyph unicode="c" horiz-adv-x="1167" d="M0 307v819q0 130 90 220t217 90h359q127 0 217 -90t90 -220h-205q0 43 -30 74t-72 31h-359q-41 0 -71.5 -31t-30.5 -74v-819q0 -41 30.5 -71.5t71.5 -30.5h359q42 0 72 30t30 72h205q0 -127 -90 -217t-217 -90h-359q-127 0 -217 90t-90 217z" />
<glyph unicode="d" d="M0 0v1436h668q127 0 217 -90t90 -220v-819q0 -127 -90 -217t-217 -90h-668zM205 205h463q42 0 72 30t30 72v819q0 43 -30 74t-72 31h-463v-1026z" />
<glyph unicode="e" d="M0 0v1438h975v-205h-770v-412h770v-205h-770v-411h770v-205h-975z" />
<glyph unicode="f" d="M0 0v1438h975v-205h-770v-412h770v-205h-770v-616h-205z" />
<glyph unicode="g" horiz-adv-x="1167" d="M0 309v819q0 130 90 220t217 90h359q128 0 217 -92q90 -90 90 -218h-205q0 43 -29.5 73t-72.5 30h-359q-41 0 -71.5 -30.5t-30.5 -72.5v-819q0 -42 30 -72t72 -30h359q43 0 72.5 29.5t29.5 72.5v307h-266v205h471v-512q0 -127 -90 -217t-217 -90h-359q-127 0 -217 90 t-90 217z" />
<glyph unicode="h" d="M0 0v1438h205v-617h565v617h205v-1438h-205v616h-565v-616h-205z" />
<glyph unicode="i" d="M0 0v205h385v1028h-385v205h975v-205h-385v-1028h385v-205h-975z" />
<glyph unicode="j" d="M0 1231v205h975v-1129q0 -127 -90 -217t-217 -90h-357q-129 0 -219 90t-90 217h205q0 -41 30.5 -71.5t73.5 -30.5h357q42 0 72 30t30 72v924h-770z" />
<glyph unicode="k" d="M0 0v1438h205v-617h219l340 512q7 9 7 64q0 18 -1 41h205v-47q0 -104 -29 -154l-344 -518l344 -518q29 -50 29 -156v-45h-205q1 22 1 40q0 53 -7 64l-340 512h-219v-616h-205z" />
<glyph unicode="l" d="M0 0v1438h205v-1233h770v-205h-975z" />
<glyph unicode="m" d="M0 0v1438h205l280 -439l285 439h205v-1438h-205v1057l-174 -266q-6 -12 -6 -105h-207q0 94 -8 105l-170 264v-1055h-205z" />
<glyph unicode="n" d="M0 0v1438h205l565 -1051v1051h205v-1438h-205l-565 1049v-1049h-205z" />
<glyph unicode="o" horiz-adv-x="1167" d="M0 307v819q0 130 90 220t217 90h359q127 0 217 -90t90 -220v-819q0 -127 -90 -217t-217 -90h-359q-127 0 -217 90t-90 217zM205 307q0 -41 30.5 -71.5t71.5 -30.5h359q42 0 72 30t30 72v819q0 43 -30 74t-72 31h-359q-41 0 -71.5 -31t-30.5 -74v-819z" />
<glyph unicode="p" d="M0 0v1438h616q150 0 254 -107q105 -105 105 -254v-102q0 -146 -105 -254q-105 -105 -254 -105h-411v-616h-205zM205 821h411q63 0 108.5 45.5t45.5 108.5v102q0 63 -45.5 109.5t-108.5 46.5h-411v-412z" />
<glyph unicode="q" horiz-adv-x="1167" d="M0 307v821q0 128 90 218t217 90h359q127 0 217 -90t90 -218v-821q0 -127 -90 -217t-217 -90h-359q-127 0 -217 90t-90 217zM205 307q0 -41 30.5 -71.5t71.5 -30.5h76v309h205v-309h78q42 0 72 30t30 72v821q0 42 -30 72.5t-72 30.5h-359q-41 0 -71.5 -31t-30.5 -72v-821z " />
<glyph unicode="r" d="M0 0v1438h616q150 0 254 -107q105 -105 105 -252v-104q0 -131 -86 -234q-83 -98 -215 -120l272 -420q29 -50 29 -201h-205q0 52 -8 104l-332 512h-225v-616h-205zM205 821h411q63 0 108.5 45.5t45.5 108.5v104q0 63 -45.5 108.5t-108.5 45.5h-411v-412z" />
<glyph unicode="s" horiz-adv-x="1171" d="M0 358h207q0 -62 45 -107.5t108 -45.5h256q63 0 108.5 46t45.5 109q0 112 -199 211l-370 181q-201 133 -201 325q0 150 104 254q107 107 254 107h258q150 0 254 -107q105 -105 105 -252h-205q0 63 -45.5 108.5t-108.5 45.5h-258q-63 0 -108 -46.5t-45 -109.5 q0 -111 201 -211l370 -180q201 -133 201 -326q0 -149 -107 -256q-104 -104 -254 -104h-256q-149 0 -256 104q-104 107 -104 254z" />
<glyph unicode="t" d="M0 1233v205h975v-205h-385v-1233h-205v1233h-385z" />
<glyph unicode="u" horiz-adv-x="1167" d="M0 307v1131h205v-1131q0 -41 30.5 -71.5t71.5 -30.5h359q42 0 72 30t30 72v1131h205v-1131q0 -127 -90 -217t-217 -90h-359q-127 0 -217 90t-90 217z" />
<glyph unicode="v" d="M0 745v695h205v-701l221 -534h123l221 534v701h205v-695q0 -47 -21 -96l-241 -586q-7 -20 -40.5 -41.5t-54.5 -21.5h-260q-23 0 -56 21.5t-40 41.5l-242 586q-20 47 -20 96z" />
<glyph unicode="w" d="M0 0v1438h205v-1059l174 268q8 8 8 105h205q0 -94 8 -105l170 -266v1057h205v-1438h-205l-281 438l-284 -438h-205z" />
<glyph unicode="x" horiz-adv-x="1173" d="M0 0v45q0 106 31 154l336 520l-336 520q-31 48 -31 154v45h205q0 -94 8 -105l276 -426l277 426q5 10 8 105h205q0 -53 -4 -103q-6 -69 -27 -96l-336 -520l336 -520q28 -48 31 -199h-205q0 52 -8 104l-277 426l-276 -426q-8 -11 -8 -104h-205z" />
<glyph unicode="y" horiz-adv-x="1173" d="M0 1311v127h205q0 -176 8 -187l276 -426l277 426q8 11 8 187h205v-127q0 -106 -31 -154l-356 -549v-608h-205v606l-356 551q-31 48 -31 154z" />
<glyph unicode="z" d="M0 1233v205h961v-205l-709 -1028h723v-205h-959v205l707 1028h-723z" />
<glyph unicode="{" horiz-adv-x="636" d="M0 612v211q133 0 133 39v266q0 128 90 218q93 90 219 90v-205q-106 0 -106 -170q0 -39 2 -72t2 -76q0 -133 -43 -194q43 -64 43 -197q0 -43 -2 -76t-2 -71q0 -170 106 -170v-205q-126 0 -219 90q-90 90 -90 217v266q0 39 -133 39z" />
<glyph unicode="|" horiz-adv-x="399" d="M0 -96v1642h205v-1642h-205z" />
<glyph unicode="}" horiz-adv-x="636" d="M0 0v205q106 0 106 170q0 38 -2 71t-2 76q0 133 43 197q-43 61 -43 194q0 43 2 76t2 72q0 170 -106 170v205q127 0 217 -90t90 -218v-266q0 -39 135 -39v-211q-135 0 -135 -39v-266q0 -127 -90 -217t-217 -90z" />
<glyph unicode="~" d="M0 1651l37 26q89 68 141 68h584q10 0 90 57l121 -168q-134 -94 -180 -94h-584q-12 0 -88 -55z" />
<glyph unicode="&#xa1;" horiz-adv-x="399" d="M0 4v924h205v-924h-205zM0 1135v307h205v-307h-205z" />
<glyph unicode="&#xa2;" horiz-adv-x="1167" d="M0 307v819q0 130 90 220t217 90h72v110h205v-110h82q127 0 217 -90t90 -220h-205q0 43 -30 74t-72 31h-82v-1026h82q42 0 72 30t30 72h205q0 -127 -90 -217t-217 -90h-82v-96h-205v96h-72q-127 0 -217 90t-90 217zM205 307q0 -41 30.5 -71.5t71.5 -30.5h72v1026h-72 q-41 0 -71.5 -31t-30.5 -74v-819z" />
<glyph unicode="&#xa3;" horiz-adv-x="1376" d="M0 424v205h207v178h-207v205h207v116q0 128 90 218q93 90 219 90h356q130 0 220 -90t90 -218h-207q0 42 -30.5 72.5t-72.5 30.5h-356q-73 0 -94 -80q-8 -31 -8 -139h561v-205h-561v-178h561v-205h-561v-219h561v104h207v-309h-975v424h-207z" />
<glyph unicode="&#xa4;" horiz-adv-x="1376" d="M0 424v205h207v178h-207v205h207v116q0 128 90 218q93 90 219 90h356q130 0 220 -90t90 -218h-207q0 42 -30.5 72.5t-72.5 30.5h-356q-80 0 -98 -80q-4 -28 -4 -139h561v-205h-561v-178h561v-205h-561v-117q0 -42 30 -72t72 -30h356q42 0 72.5 30.5t30.5 71.5h207 q0 -127 -90 -217t-220 -90h-356q-126 0 -219 90q-90 90 -90 217v117h-207z" />
<glyph unicode="&#xa5;" horiz-adv-x="1173" d="M0 215v205h387v184h-387v205h254l-223 348q-31 48 -31 154v127h205q0 -176 8 -187l276 -426l277 426q8 11 8 187h205v-127q0 -106 -31 -154l-225 -348h252v-205h-383v-184h383v-205h-383v-215h-205v215h-387z" />
<glyph unicode="&#xa6;" horiz-adv-x="399" d="M0 0v307h205v-307h-205zM0 1128v308h205v-308h-205z" />
<glyph unicode="&#xa7;" horiz-adv-x="1171" d="M0 154h207q0 -62 45 -108t108 -46h256q63 0 108.5 46.5t45.5 109.5q0 112 -199 211l-370 180q-201 133 -201 325q0 113 66 207q-66 91 -66 203q0 150 104 254q106 106 254 106h258q151 0 254 -106q105 -105 105 -252h-205q0 63 -45.5 108.5t-108.5 45.5h-258 q-63 0 -108 -46.5t-45 -109.5q0 -111 201 -211l370 -180q201 -133 201 -326q0 -110 -66 -207q66 -91 66 -202q0 -150 -107 -254q-104 -107 -254 -107h-256q-149 0 -256 107q-104 104 -104 252zM205 872q0 -81 90 -147q62 -43 209 -109q169 -72 239 -114q27 34 27 63 q0 82 -90 148q-55 41 -215 110q-182 81 -244 119q-16 -37 -16 -70z" />
<glyph unicode="&#xa8;" horiz-adv-x="1165" d="M0 1542v307h205v-307h-205zM766 1542v307h205v-307h-205z" />
<glyph unicode="&#xa9;" horiz-adv-x="1167" d="M0 276v883q0 114 84 195q82 82 203 82h399q121 0 203 -82q84 -81 84 -195v-883q0 -112 -84 -196q-83 -80 -203 -80h-399q-120 0 -203 80q-84 84 -84 196zM115 276q0 -68 51 -116.5t121 -48.5h399q72 0 122 48t50 117v883q0 68 -50 117t-122 49h-399q-69 0 -120.5 -49.5 t-51.5 -116.5v-883zM244 512v410q0 63 45 109t108 46h178q63 0 108.5 -46t45.5 -109h-102q0 51 -52 51h-178q-51 0 -51 -51v-410q0 -51 51 -51h178q52 0 52 51h102q0 -63 -45.5 -108.5t-108.5 -45.5h-178q-63 0 -108 45.5t-45 108.5z" />
<glyph unicode="&#xaa;" horiz-adv-x="1720" d="M0 0v829h1061v324q112 0 164 -37l258 -180q43 -30 43 -84v-258q0 -54 -43 -84l-258 -180q-52 -37 -164 -37v332h-856v-625h-205z" />
<glyph unicode="&#xab;" horiz-adv-x="1320" d="M0 592v254q0 39 25 67l407 471q48 54 182 54v-205h-16q-25 0 -33 -8l-344 -400q-15 -18 -18 -77l2 33v-115q0 -35 16 -54l344 -399q8 -8 49 -8v-205q-135 0 -182 53l-407 471q-25 28 -25 68zM512 592v254q0 39 25 67l407 471q48 54 182 54v-205h-16q-25 0 -33 -8 l-344 -400q-15 -18 -18 -77l2 33v-115q0 -35 16 -54l344 -399q8 -8 49 -8v-205q-135 0 -182 53l-407 471q-25 28 -25 68z" />
<glyph unicode="&#xac;" d="M0 625v204h975v-829h-205v625h-770z" />
<glyph unicode="&#xad;" d="M0 625v204h975v-204h-975z" />
<glyph unicode="&#xae;" horiz-adv-x="1167" d="M0 276v883q0 114 84 195q82 82 203 82h399q121 0 203 -82q84 -81 84 -195v-883q0 -112 -84 -196q-83 -80 -203 -80h-399q-120 0 -203 80q-84 84 -84 196zM115 276q0 -68 51 -116.5t121 -48.5h399q72 0 122 48t50 117v883q0 68 -50 117t-122 49h-399q-69 0 -120.5 -49.5 t-51.5 -116.5v-883zM244 360v719h309q73 0 125.5 -53t52.5 -127v-51q0 -67 -42.5 -117t-108.5 -61l137 -211q14 -20 14 -99h-102q0 16 -4 52l-166 256h-113v-308h-102zM346 770h207q31 0 53.5 23t22.5 55v51q0 31 -22.5 53.5t-53.5 22.5h-207v-205z" />
<glyph unicode="&#xaf;" d="M0 625v204h975v-204h-975z" />
<glyph unicode="&#xb0;" horiz-adv-x="911" d="M0 977v102q0 148 104 252q107 107 254 107q150 0 254 -107q105 -105 105 -252v-102q0 -148 -105 -256q-105 -105 -254 -105q-146 0 -254 105q-104 107 -104 256zM205 977q0 -63 45 -109.5t108 -46.5t108.5 46.5t45.5 109.5v102q0 63 -45.5 108.5t-108.5 45.5t-108 -45.5 t-45 -108.5v-102z" />
<glyph unicode="&#xb1;" d="M0 0v205h385v411h-385v205h385v617h205v-617h385v-205h-385v-411h385v-205h-975z" />
<glyph unicode="&#xb2;" horiz-adv-x="681" d="M0 723v180q0 99 100 162q62 31 185 90q100 49 100 107q0 31 -22.5 53t-53.5 22h-129q-32 0 -55 -22t-23 -53h-102q0 74 53 127t127 53h129q73 0 125.5 -53t52.5 -127q0 -100 -98 -164q-1 0 -19.5 -9t-67 -32.5t-99.5 -48.5q-101 -49 -101 -105v-78h385v-102h-487z" />
<glyph unicode="&#xb3;" horiz-adv-x="684" d="M0 870h102q0 -51 52 -51h180q53 0 53 51v105q0 51 -53 51h-182v102h182q53 0 53 52v104q0 51 -53 51h-180q-52 0 -52 -51h-102q0 63 45.5 108.5t108.5 45.5h180q65 0 110 -45t45 -109v-104q0 -62 -38 -103q38 -44 38 -102v-105q0 -64 -44.5 -108.5t-110.5 -44.5h-180 q-63 0 -108.5 45t-45.5 108z" />
<glyph unicode="&#xb4;" horiz-adv-x="755" d="M0 1540v205q52 0 104 8l258 184q42 31 154 31h45v-205q-93 0 -104 -8l-258 -184q-42 -28 -199 -31z" />
<glyph unicode="&#xb6;" d="M0 975v102q0 150 104 254q107 107 254 107h617v-1438h-205v616h-170v-616h-205v616h-37q-146 0 -254 105q-104 107 -104 254zM205 975q0 -63 45 -108.5t108 -45.5h37v412h-37q-63 0 -108 -46.5t-45 -109.5v-102zM600 821h170v412h-170v-412z" />
<glyph unicode="&#xb7;" horiz-adv-x="399" d="M0 567v307h205v-307h-205z" />
<glyph unicode="&#xb8;" horiz-adv-x="780" d="M381 186h205v-182q-35 -102 -107 -307h-98v489z" />
<glyph unicode="&#xb9;" horiz-adv-x="589" d="M0 719v102h193v514h-193v103h295v-617h192v-102h-487z" />
<glyph unicode="&#xba;" horiz-adv-x="1720" d="M0 594v258q0 54 43 84l258 180q52 37 164 37v-324h1061v-829h-205v625h-856v-332q-112 0 -164 37l-258 180q-43 30 -43 84z" />
<glyph unicode="&#xbb;" horiz-adv-x="1320" d="M0 0v205q44 0 49 8l344 399q17 20 17 54l1 109q0 -9 1 -27q-3 58 -19 77l-344 400q-8 8 -33 8h-16v205q134 0 182 -54l408 -471q24 -27 24 -67v-254q0 -41 -24 -68l-408 -471q-47 -53 -182 -53zM512 0v205q44 0 49 8l344 399q17 20 17 54l1 109q0 -9 1 -27q-3 58 -19 77 l-344 400q-8 8 -33 8h-16v205q134 0 182 -54l408 -471q24 -27 24 -67v-254q0 -41 -24 -68l-408 -471q-47 -53 -182 -53z" />
<glyph unicode="&#xbc;" horiz-adv-x="589" d="M0 154v178q0 58 20 102q12 29 54 123t71 162h-145v102h193v514h-193v103h295v-617h192v-102h-231l-139 -324q-15 -30 -15 -63v-76h179v156h102v-156h104v-102h-104v-154h-102v154h-281z" />
<glyph unicode="&#xbd;" horiz-adv-x="589" d="M0 0v180q0 101 100 164q62 31 185 90q100 46 100 105q0 32 -22.5 54.5t-53.5 22.5h-129q-32 0 -55 -22.5t-23 -54.5h-102q0 72 50 123.5t122 56.5h-172v102h193v514h-193v103h295v-617h192v-102h-170q72 -5 121 -56.5t49 -123.5q0 -100 -98 -164q-1 0 -19.5 -9t-67 -32.5 t-99.5 -48.5q-101 -46 -101 -105v-78h385v-102h-487z" />
<glyph unicode="&#xbe;" horiz-adv-x="684" d="M0 154v178q0 58 20 102l123 283q-60 5 -101.5 48.5t-41.5 104.5h102q0 -51 52 -51h180q53 0 53 51v105q0 51 -53 51h-182v102h182q53 0 53 52v104q0 51 -53 51h-180q-52 0 -52 -51h-102q0 63 45.5 108.5t108.5 45.5h180q65 0 110 -45t45 -109v-104q0 -62 -38 -103 q38 -44 38 -102v-105q0 -64 -44.5 -108.5t-110.5 -44.5h-78l-139 -322q-15 -30 -15 -63v-76h179v156h102v-156h104v-102h-104v-154h-102v154h-281z" />
<glyph unicode="&#xbf;" d="M0 360q0 160 100 250l185 117q100 63 100 147v91h205v-91q0 -158 -101 -249q-31 -23 -184 -119q-100 -60 -100 -146q0 -63 45 -109t108 -46h258q63 0 108.5 45.5t45.5 107.5h205q0 -146 -105 -254q-104 -104 -254 -104h-258q-147 0 -254 104q-104 107 -104 256zM385 1130 v308h205v-308h-205z" />
<glyph unicode="&#xc0;" d="M0 0v692q0 49 20 99l242 585q8 20 40.5 42t55.5 22h260q21 0 54.5 -22t40.5 -42l241 -585q21 -53 21 -99v-692h-205v309h-565v-309h-205zM205 514h565v186l-221 533h-123l-221 -533v-186zM207 1763v205h45q112 0 154 -31l258 -184q7 -5 104 -8v-205q-66 0 -102 4 q-70 6 -97 27l-258 184q-11 8 -104 8z" />
<glyph unicode="&#xc1;" d="M0 0v692q0 49 20 99l242 585q8 20 40.5 42t55.5 22h260q21 0 54.5 -22t40.5 -42l241 -585q21 -53 21 -99v-692h-205v309h-565v-309h-205zM205 514h565v186l-221 533h-123l-221 -533v-186zM207 1540v205q52 0 104 8l258 184q42 31 154 31h45v-205q-93 0 -104 -8l-258 -184 q-42 -28 -199 -31z" />
<glyph unicode="&#xc2;" d="M0 0v692q0 49 20 99l242 585q8 20 40.5 42t55.5 22h260q21 0 54.5 -22t40.5 -42l241 -585q21 -53 21 -99v-692h-205v309h-565v-309h-205zM0 1540q0 135 53 182l221 189q27 24 68 24h291q40 0 67 -24l222 -189q53 -47 53 -182h-205q0 44 -8 49l-148 125q-20 17 -55 17 h-143q-36 0 -56 -17l-147 -125q-8 -5 -8 -49h-205zM205 514h565v186l-221 533h-123l-221 -533v-186z" />
<glyph unicode="&#xc3;" d="M0 0v692q0 49 20 99l242 585q8 20 40.5 42t55.5 22h260q21 0 54.5 -22t40.5 -42l241 -585q21 -53 21 -99v-692h-205v309h-565v-309h-205zM0 1651l37 26q89 68 141 68h584q10 0 90 57l121 -168q-134 -94 -180 -94h-584q-12 0 -88 -55zM205 514h565v186l-221 533h-123 l-221 -533v-186z" />
<glyph unicode="&#xc4;" d="M0 0v692q0 49 20 99l242 585q8 20 40.5 42t55.5 22h260q21 0 54.5 -22t40.5 -42l241 -585q21 -53 21 -99v-692h-205v309h-565v-309h-205zM0 1128v308h205v-62l-99 -246h-106zM205 514h565v186l-221 533h-123l-221 -533v-186zM768 1374v62h205v-308h-107z" />
<glyph unicode="&#xc5;" d="M0 0v692q0 49 20 99l242 585q8 20 40.5 42t55.5 22h260q21 0 54.5 -22t40.5 -42l241 -585q21 -53 21 -99v-692h-205v309h-565v-309h-205zM205 514h565v186l-221 533h-123l-221 -533v-186zM309 1688v51q0 73 53.5 126.5t126.5 53.5q74 0 127.5 -53.5t53.5 -126.5v-51 q0 -75 -53.5 -128t-127.5 -53t-127 53t-53 128zM414 1688q0 -32 22 -55t53 -23t53.5 23t22.5 55v51q0 31 -22.5 53.5t-53.5 22.5t-53 -22.5t-22 -53.5v-51z" />
<glyph unicode="&#xc6;" horiz-adv-x="1941" d="M0 0v692q0 55 20 99l263 585q12 22 46.5 43t69.5 21l576 -2v-205h-297l-2 -412h299v-205h-299v-411h299v-205h-504v309h-266v-309h-205zM205 514h266v719h-45l-221 -533v-186z" />
<glyph unicode="&#xc7;" horiz-adv-x="1167" d="M0 307v819q0 130 90 220t217 90h359q127 0 217 -90t90 -220h-205q0 43 -30 74t-72 31h-359q-41 0 -71.5 -31t-30.5 -74v-819q0 -41 30.5 -71.5t71.5 -30.5h359q42 0 72 30t30 72h205q0 -127 -90 -217t-217 -90h-82q-40 -122 -105 -303h-98v303h-74q-127 0 -217 90 t-90 217z" />
<glyph unicode="&#xc8;" d="M0 0v1438h975v-205h-770v-412h770v-205h-770v-411h770v-205h-975z" />
<glyph unicode="&#xc9;" d="M0 0v1438h975v-205h-770v-412h770v-205h-770v-411h770v-205h-975zM207 1540v205q52 0 104 8l258 184q42 31 154 31h45v-205q-93 0 -104 -8l-258 -184q-42 -28 -199 -31z" />
<glyph unicode="&#xca;" d="M0 0v1438h975v-205h-770v-412h770v-205h-770v-411h770v-205h-975zM0 1540q0 135 53 182l221 189q27 24 68 24h291q40 0 67 -24l222 -189q53 -47 53 -182h-205q0 44 -8 49l-148 125q-20 17 -55 17h-143q-36 0 -56 -17l-147 -125q-8 -5 -8 -49h-205z" />
<glyph unicode="&#xcb;" d="M0 0v1438h975v-205h-770v-412h770v-205h-770v-411h770v-205h-975zM0 1542v307h205v-307h-205zM766 1542v307h205v-307h-205z" />
<glyph unicode="&#xcc;" horiz-adv-x="657" d="M-43 1763v205h45q112 0 154 -31l264 -184q7 -5 104 -8v-205q-62 0 -102 4q-69 6 -96 27l-265 184q-8 8 -104 8zM0 0v205h131v1028h-131v205h463v-205h-127v-1028h127v-205h-463z" />
<glyph unicode="&#xcd;" horiz-adv-x="657" d="M-43 1540v205q52 0 104 8l265 184q45 31 153 31h45v-205q-93 0 -104 -8l-262 -184q-42 -28 -201 -31zM0 0v205h131v1028h-131v205h463v-205h-127v-1028h127v-205h-463z" />
<glyph unicode="&#xce;" horiz-adv-x="657" d="M-256 1540q0 135 53 182l219 189q30 24 68 24h293q40 0 67 -24l220 -189q55 -46 55 -182h-207q0 44 -8 49l-146 125q-24 17 -55 17h-145q-34 0 -54 -17l-147 -125q-8 -5 -8 -49h-205zM0 0v205h131v1028h-131v205h463v-205h-127v-1028h127v-205h-463z" />
<glyph unicode="&#xcf;" horiz-adv-x="657" d="M-82 1542v307h205v-307h-205zM0 0v205h131v1028h-131v205h463v-205h-127v-1028h127v-205h-463zM336 1542v307h205v-307h-205z" />
<glyph unicode="&#xd0;" horiz-adv-x="1374" d="M0 625v204h205v607h667q128 0 218 -90t90 -220v-819q0 -127 -90 -217t-218 -90h-667v625h-205zM410 205h462q42 0 72.5 30.5t30.5 71.5v819q0 43 -30 74t-73 31h-462v-402h360v-204h-360v-420z" />
<glyph unicode="&#xd1;" d="M0 0v1438l205 -2l565 -1049v1051h205v-1438h-205l-565 1049v-1049h-205zM0 1651l37 26q89 68 141 68h584q10 0 90 57l121 -168q-134 -94 -180 -94h-584q-12 0 -88 -55z" />
<glyph unicode="&#xd2;" horiz-adv-x="1167" d="M0 307v819q0 130 90 220t217 90h359q127 0 217 -90t90 -220v-819q0 -127 -90 -217t-217 -90h-359q-127 0 -217 90t-90 217zM205 307q0 -41 30.5 -71.5t71.5 -30.5h359q42 0 72 30t30 72v819q0 43 -30 74t-72 31h-359q-41 0 -71.5 -31t-30.5 -74v-819zM207 1763v205h45 q112 0 154 -31l258 -184q7 -5 104 -8v-205q-66 0 -102 4q-70 6 -97 27l-258 184q-11 8 -104 8z" />
<glyph unicode="&#xd3;" horiz-adv-x="1167" d="M0 307v819q0 130 90 220t217 90h359q127 0 217 -90t90 -220v-819q0 -127 -90 -217t-217 -90h-359q-127 0 -217 90t-90 217zM205 307q0 -41 30.5 -71.5t71.5 -30.5h359q42 0 72 30t30 72v819q0 43 -30 74t-72 31h-359q-41 0 -71.5 -31t-30.5 -74v-819zM207 1540v205 q52 0 104 8l258 184q42 31 154 31h45v-205q-93 0 -104 -8l-258 -184q-42 -28 -199 -31z" />
<glyph unicode="&#xd4;" horiz-adv-x="1167" d="M0 307v819q0 130 90 220t217 90h359q127 0 217 -90t90 -220v-819q0 -127 -90 -217t-217 -90h-359q-127 0 -217 90t-90 217zM0 1540q0 135 53 182l221 189q27 24 68 24h291q40 0 67 -24l222 -189q53 -47 53 -182h-205q0 44 -8 49l-148 125q-20 17 -55 17h-143 q-36 0 -56 -17l-147 -125q-8 -5 -8 -49h-205zM205 307q0 -41 30.5 -71.5t71.5 -30.5h359q42 0 72 30t30 72v819q0 43 -30 74t-72 31h-359q-41 0 -71.5 -31t-30.5 -74v-819z" />
<glyph unicode="&#xd5;" horiz-adv-x="1167" d="M0 307v819q0 130 90 220t217 90h359q127 0 217 -90t90 -220v-819q0 -127 -90 -217t-217 -90h-359q-127 0 -217 90t-90 217zM0 1651l37 26q89 68 141 68h584q10 0 90 57l121 -168q-134 -94 -180 -94h-584q-12 0 -88 -55zM205 307q0 -41 30.5 -71.5t71.5 -30.5h359 q42 0 72 30t30 72v819q0 43 -30 74t-72 31h-359q-41 0 -71.5 -31t-30.5 -74v-819z" />
<glyph unicode="&#xd6;" horiz-adv-x="1167" d="M0 307v819q0 130 90 220t217 90h359q127 0 217 -90t90 -220v-819q0 -127 -90 -217t-217 -90h-359q-127 0 -217 90t-90 217zM205 307q0 -41 30.5 -71.5t71.5 -30.5h359q42 0 72 30t30 72v819q0 43 -30 74t-72 31h-359q-41 0 -71.5 -31t-30.5 -74v-819zM256 868v310h205 v-310h-205zM512 868v310h205v-310h-205z" />
<glyph unicode="&#xd8;" horiz-adv-x="1167" d="M0 307v821q0 128 90 218t217 90h359q127 0 217 -90t90 -218v-821q0 -127 -90 -217t-217 -90h-359q-127 0 -217 90t-90 217zM205 567l557 594q-24 70 -96 70h-359q-41 0 -71.5 -31t-30.5 -72v-561zM211 274q23 -69 96 -69h359q42 0 72 30t30 72v561z" />
<glyph unicode="&#xd9;" horiz-adv-x="1167" d="M0 307v1131h205v-1131q0 -41 30.5 -71.5t71.5 -30.5h359q42 0 72 30t30 72v1131h205v-1131q0 -127 -90 -217t-217 -90h-359q-127 0 -217 90t-90 217zM207 1763v205h45q112 0 154 -31l258 -184q7 -5 104 -8v-205q-66 0 -102 4q-70 6 -97 27l-258 184q-11 8 -104 8z" />
<glyph unicode="&#xda;" horiz-adv-x="1167" d="M0 307v1131h205v-1131q0 -41 30.5 -71.5t71.5 -30.5h359q42 0 72 30t30 72v1131h205v-1131q0 -127 -90 -217t-217 -90h-359q-127 0 -217 90t-90 217zM207 1540v205q52 0 104 8l258 184q42 31 154 31h45v-205q-93 0 -104 -8l-258 -184q-42 -28 -199 -31z" />
<glyph unicode="&#xdb;" horiz-adv-x="1167" d="M0 307v1131h205v-1131q0 -41 30.5 -71.5t71.5 -30.5h359q42 0 72 30t30 72v1131h205v-1131q0 -127 -90 -217t-217 -90h-359q-127 0 -217 90t-90 217zM0 1540q0 135 53 182l221 189q27 24 68 24h291q40 0 67 -24l222 -189q53 -47 53 -182h-205q0 44 -8 49l-148 125 q-20 17 -55 17h-143q-36 0 -56 -17l-147 -125q-8 -5 -8 -49h-205z" />
<glyph unicode="&#xdc;" horiz-adv-x="1167" d="M0 307v1131h205v-1131q0 -41 30.5 -71.5t71.5 -30.5h359q42 0 72 30t30 72v1131h205v-1131q0 -127 -90 -217t-217 -90h-359q-127 0 -217 90t-90 217zM256 1130v308h205v-308h-205zM512 1130v308h205v-308h-205z" />
<glyph unicode="&#xdd;" horiz-adv-x="1173" d="M0 1311v127h205q0 -176 8 -187l276 -426l277 426q8 11 8 187h205v-127q0 -106 -31 -154l-356 -549v-608h-205v606l-356 551q-31 48 -31 154zM207 1540v205q52 0 104 8l258 184q42 31 154 31h45v-205q-93 0 -104 -8l-258 -184q-42 -28 -199 -31z" />
<glyph unicode="&#xde;" horiz-adv-x="1167" d="M0 0v1438h205v-226q55 19 102 19h359q127 0 217 -90t90 -219v-410q0 -127 -90 -217t-217 -90h-359q-46 0 -102 16v-221h-205zM205 512q0 -41 30.5 -71.5t71.5 -30.5h359q42 0 72 30t30 72v410q0 43 -29.5 73.5t-72.5 30.5h-359q-41 0 -71.5 -30.5t-30.5 -73.5v-410z" />
<glyph unicode="&#xdf;" horiz-adv-x="1171" d="M0 0v1133q0 127 90 217q89 92 217 92h363q128 0 217 -92q90 -90 90 -217v-207q0 -115 -78 -205q78 -90 78 -207v-207q0 -127 -90 -217t-217 -90h-162v205h162q42 0 72 30t30 72v207q0 43 -29.5 73.5t-72.5 30.5h-162v205h162q43 0 72.5 30t29.5 73v207q0 43 -29.5 72.5 t-72.5 29.5h-363q-42 0 -72 -30t-30 -72v-1133h-205z" />
<glyph unicode="&#xe0;" d="M0 0v692q0 49 20 99l242 585q8 20 40.5 42t55.5 22h260q21 0 54.5 -22t40.5 -42l241 -585q21 -53 21 -99v-692h-205v309h-565v-309h-205zM205 514h565v186l-221 533h-123l-221 -533v-186zM207 1763v205h45q112 0 154 -31l258 -184q7 -5 104 -8v-205q-66 0 -102 4 q-70 6 -97 27l-258 184q-11 8 -104 8z" />
<glyph unicode="&#xe1;" d="M0 0v692q0 49 20 99l242 585q8 20 40.5 42t55.5 22h260q21 0 54.5 -22t40.5 -42l241 -585q21 -53 21 -99v-692h-205v309h-565v-309h-205zM205 514h565v186l-221 533h-123l-221 -533v-186zM207 1540v205q52 0 104 8l258 184q42 31 154 31h45v-205q-93 0 -104 -8l-258 -184 q-42 -28 -199 -31z" />
<glyph unicode="&#xe2;" d="M0 0v692q0 49 20 99l242 585q8 20 40.5 42t55.5 22h260q21 0 54.5 -22t40.5 -42l241 -585q21 -53 21 -99v-692h-205v309h-565v-309h-205zM0 1540q0 135 53 182l221 189q27 24 68 24h291q40 0 67 -24l222 -189q53 -47 53 -182h-205q0 44 -8 49l-148 125q-20 17 -55 17 h-143q-36 0 -56 -17l-147 -125q-8 -5 -8 -49h-205zM205 514h565v186l-221 533h-123l-221 -533v-186z" />
<glyph unicode="&#xe3;" d="M0 0v692q0 49 20 99l242 585q8 20 40.5 42t55.5 22h260q21 0 54.5 -22t40.5 -42l241 -585q21 -53 21 -99v-692h-205v309h-565v-309h-205zM0 1651l37 26q89 68 141 68h584q10 0 90 57l121 -168q-134 -94 -180 -94h-584q-12 0 -88 -55zM205 514h565v186l-221 533h-123 l-221 -533v-186z" />
<glyph unicode="&#xe4;" d="M0 0v692q0 49 20 99l242 585q8 20 40.5 42t55.5 22h260q21 0 54.5 -22t40.5 -42l241 -585q21 -53 21 -99v-692h-205v309h-565v-309h-205zM0 1128v308h205v-62l-99 -246h-106zM205 514h565v186l-221 533h-123l-221 -533v-186zM768 1374v62h205v-308h-107z" />
<glyph unicode="&#xe5;" d="M0 0v692q0 49 20 99l242 585q8 20 40.5 42t55.5 22h260q21 0 54.5 -22t40.5 -42l241 -585q21 -53 21 -99v-692h-205v309h-565v-309h-205zM205 514h565v186l-221 533h-123l-221 -533v-186zM309 1688v51q0 73 53.5 126.5t126.5 53.5q74 0 127.5 -53.5t53.5 -126.5v-51 q0 -75 -53.5 -128t-127.5 -53t-127 53t-53 128zM414 1688q0 -32 22 -55t53 -23t53.5 23t22.5 55v51q0 31 -22.5 53.5t-53.5 22.5t-53 -22.5t-22 -53.5v-51z" />
<glyph unicode="&#xe6;" horiz-adv-x="1941" d="M0 0v692q0 55 20 99l263 585q12 22 46.5 43t69.5 21l576 -2v-205h-297l-2 -412h299v-205h-299v-411h299v-205h-504v309h-266v-309h-205zM205 514h266v719h-45l-221 -533v-186z" />
<glyph unicode="&#xe7;" horiz-adv-x="1167" d="M0 307v819q0 130 90 220t217 90h359q127 0 217 -90t90 -220h-205q0 43 -30 74t-72 31h-359q-41 0 -71.5 -31t-30.5 -74v-819q0 -41 30.5 -71.5t71.5 -30.5h359q42 0 72 30t30 72h205q0 -127 -90 -217t-217 -90h-82q-40 -122 -105 -303h-98v303h-74q-127 0 -217 90 t-90 217z" />
<glyph unicode="&#xe8;" d="M0 0v1438h975v-205h-770v-412h770v-205h-770v-411h770v-205h-975zM207 1763v205h45q112 0 154 -31l258 -184q7 -5 104 -8v-205q-66 0 -102 4q-70 6 -97 27l-258 184q-11 8 -104 8z" />
<glyph unicode="&#xe9;" d="M0 0v1438h975v-205h-770v-412h770v-205h-770v-411h770v-205h-975zM207 1540v205q52 0 104 8l258 184q42 31 154 31h45v-205q-93 0 -104 -8l-258 -184q-42 -28 -199 -31z" />
<glyph unicode="&#xea;" d="M0 0v1438h975v-205h-770v-412h770v-205h-770v-411h770v-205h-975zM0 1540q0 135 53 182l221 189q27 24 68 24h291q40 0 67 -24l222 -189q53 -47 53 -182h-205q0 44 -8 49l-148 125q-20 17 -55 17h-143q-36 0 -56 -17l-147 -125q-8 -5 -8 -49h-205z" />
<glyph unicode="&#xeb;" d="M0 0v1438h975v-205h-770v-412h770v-205h-770v-411h770v-205h-975zM0 1542v307h205v-307h-205zM766 1542v307h205v-307h-205z" />
<glyph unicode="&#xec;" horiz-adv-x="657" d="M-43 1763v205h45q112 0 154 -31l264 -184q7 -5 104 -8v-205q-62 0 -102 4q-69 6 -96 27l-265 184q-8 8 -104 8zM0 0v205h131v1028h-131v205h463v-205h-127v-1028h127v-205h-463z" />
<glyph unicode="&#xed;" horiz-adv-x="657" d="M-43 1540v205q52 0 104 8l265 184q45 31 153 31h45v-205q-93 0 -104 -8l-262 -184q-42 -28 -201 -31zM0 0v205h131v1028h-131v205h463v-205h-127v-1028h127v-205h-463z" />
<glyph unicode="&#xee;" horiz-adv-x="657" d="M-266 1540q0 135 53 182l221 189q27 24 68 24h291q40 0 67 -24l221 -189q54 -48 54 -182h-205q0 44 -8 49l-148 125q-20 17 -55 17h-143q-36 0 -56 -17l-147 -125q-8 -5 -8 -49h-205zM-10 0v205h131v1028h-131v205h463v-205h-127v-1028h127v-205h-463z" />
<glyph unicode="&#xef;" horiz-adv-x="657" d="M-82 1542v307h205v-307h-205zM0 0v205h131v1028h-131v205h463v-205h-127v-1028h127v-205h-463zM336 1542v307h205v-307h-205z" />
<glyph unicode="&#xf0;" horiz-adv-x="1374" d="M0 625v204h205v607h667q128 0 218 -90t90 -220v-819q0 -127 -90 -217t-218 -90h-667v625h-205zM410 205h462q42 0 72.5 30.5t30.5 71.5v819q0 43 -30 74t-73 31h-462v-402h360v-204h-360v-420z" />
<glyph unicode="&#xf1;" d="M0 0v1438l205 -2l565 -1049v1051h205v-1438h-205l-565 1049v-1049h-205zM0 1651l37 26q89 68 141 68h584q10 0 90 57l121 -168q-134 -94 -180 -94h-584q-12 0 -88 -55z" />
<glyph unicode="&#xf2;" horiz-adv-x="1167" d="M0 307v819q0 130 90 220t217 90h359q127 0 217 -90t90 -220v-819q0 -127 -90 -217t-217 -90h-359q-127 0 -217 90t-90 217zM205 307q0 -41 30.5 -71.5t71.5 -30.5h359q42 0 72 30t30 72v819q0 43 -30 74t-72 31h-359q-41 0 -71.5 -31t-30.5 -74v-819zM207 1763v205h45 q112 0 154 -31l258 -184q7 -5 104 -8v-205q-66 0 -102 4q-70 6 -97 27l-258 184q-11 8 -104 8z" />
<glyph unicode="&#xf3;" horiz-adv-x="1167" d="M0 307v819q0 130 90 220t217 90h359q127 0 217 -90t90 -220v-819q0 -127 -90 -217t-217 -90h-359q-127 0 -217 90t-90 217zM205 307q0 -41 30.5 -71.5t71.5 -30.5h359q42 0 72 30t30 72v819q0 43 -30 74t-72 31h-359q-41 0 -71.5 -31t-30.5 -74v-819zM207 1540v205 q52 0 104 8l258 184q42 31 154 31h45v-205q-93 0 -104 -8l-258 -184q-42 -28 -199 -31z" />
<glyph unicode="&#xf4;" horiz-adv-x="1167" d="M0 307v819q0 130 90 220t217 90h359q127 0 217 -90t90 -220v-819q0 -127 -90 -217t-217 -90h-359q-127 0 -217 90t-90 217zM0 1540q0 135 53 182l221 189q27 24 68 24h291q40 0 67 -24l222 -189q53 -47 53 -182h-205q0 44 -8 49l-148 125q-20 17 -55 17h-143 q-36 0 -56 -17l-147 -125q-8 -5 -8 -49h-205zM205 307q0 -41 30.5 -71.5t71.5 -30.5h359q42 0 72 30t30 72v819q0 43 -30 74t-72 31h-359q-41 0 -71.5 -31t-30.5 -74v-819z" />
<glyph unicode="&#xf5;" horiz-adv-x="1167" d="M0 307v819q0 130 90 220t217 90h359q127 0 217 -90t90 -220v-819q0 -127 -90 -217t-217 -90h-359q-127 0 -217 90t-90 217zM0 1651l37 26q89 68 141 68h584q10 0 90 57l121 -168q-134 -94 -180 -94h-584q-12 0 -88 -55zM205 307q0 -41 30.5 -71.5t71.5 -30.5h359 q42 0 72 30t30 72v819q0 43 -30 74t-72 31h-359q-41 0 -71.5 -31t-30.5 -74v-819z" />
<glyph unicode="&#xf6;" horiz-adv-x="1167" d="M0 307v819q0 130 90 220t217 90h359q127 0 217 -90t90 -220v-819q0 -127 -90 -217t-217 -90h-359q-127 0 -217 90t-90 217zM205 307q0 -41 30.5 -71.5t71.5 -30.5h359q42 0 72 30t30 72v819q0 43 -30 74t-72 31h-359q-41 0 -71.5 -31t-30.5 -74v-819zM256 868v310h205 v-310h-205zM512 868v310h205v-310h-205z" />
<glyph unicode="&#xf7;" d="M0 625v204h975v-204h-975zM379 0v307h205v-307h-205zM379 1128v308h205v-308h-205z" />
<glyph unicode="&#xf8;" horiz-adv-x="1167" d="M0 307v821q0 128 90 218t217 90h359q127 0 217 -90t90 -218v-821q0 -127 -90 -217t-217 -90h-359q-127 0 -217 90t-90 217zM205 567l557 594q-24 70 -96 70h-359q-41 0 -71.5 -31t-30.5 -72v-561zM211 274q23 -69 96 -69h359q42 0 72 30t30 72v561z" />
<glyph unicode="&#xf9;" horiz-adv-x="1167" d="M0 307v1131h205v-1131q0 -41 30.5 -71.5t71.5 -30.5h359q42 0 72 30t30 72v1131h205v-1131q0 -127 -90 -217t-217 -90h-359q-127 0 -217 90t-90 217zM207 1763v205h45q112 0 154 -31l258 -184q7 -5 104 -8v-205q-66 0 -102 4q-70 6 -97 27l-258 184q-11 8 -104 8z" />
<glyph unicode="&#xfa;" horiz-adv-x="1167" d="M0 307v1131h205v-1131q0 -41 30.5 -71.5t71.5 -30.5h359q42 0 72 30t30 72v1131h205v-1131q0 -127 -90 -217t-217 -90h-359q-127 0 -217 90t-90 217zM207 1540v205q52 0 104 8l258 184q42 31 154 31h45v-205q-93 0 -104 -8l-258 -184q-42 -28 -199 -31z" />
<glyph unicode="&#xfb;" horiz-adv-x="1167" d="M0 307v1131h205v-1131q0 -41 30.5 -71.5t71.5 -30.5h359q42 0 72 30t30 72v1131h205v-1131q0 -127 -90 -217t-217 -90h-359q-127 0 -217 90t-90 217zM0 1540q0 135 53 182l221 189q27 24 68 24h291q40 0 67 -24l222 -189q53 -47 53 -182h-205q0 44 -8 49l-148 125 q-20 17 -55 17h-143q-36 0 -56 -17l-147 -125q-8 -5 -8 -49h-205z" />
<glyph unicode="&#xfc;" horiz-adv-x="1167" d="M0 307v1131h205v-1131q0 -41 30.5 -71.5t71.5 -30.5h359q42 0 72 30t30 72v1131h205v-1131q0 -127 -90 -217t-217 -90h-359q-127 0 -217 90t-90 217zM256 1130v308h205v-308h-205zM512 1130v308h205v-308h-205z" />
<glyph unicode="&#xfe;" horiz-adv-x="1167" d="M0 0v1438h205v-226q55 19 102 19h359q127 0 217 -90t90 -219v-410q0 -127 -90 -217t-217 -90h-359q-46 0 -102 16v-221h-205zM205 512q0 -41 30.5 -71.5t71.5 -30.5h359q42 0 72 30t30 72v410q0 43 -29.5 73.5t-72.5 30.5h-359q-41 0 -71.5 -30.5t-30.5 -73.5v-410z" />
<glyph unicode="&#xff;" horiz-adv-x="1167" d="M0 1393v45h205q0 -94 8 -105l276 -426l277 428q8 8 8 103h205q0 -151 -31 -199l-356 -549v-690h-205v688l-356 551q-31 48 -31 154zM0 1542v307h205v-307h-205zM766 1542v307h205v-307h-205z" />
<glyph unicode="&#x152;" horiz-adv-x="1937" d="M0 307v819q0 130 90 220t217 90h668v-203h-299v-412h299v-205h-299v-411h299v-205h-668q-127 0 -217 90t-90 217zM205 307q0 -41 30.5 -71.5t71.5 -30.5h62q42 0 72 30t30 72v819q0 43 -30 74t-72 31h-62q-41 0 -71.5 -31t-30.5 -74v-819z" />
<glyph unicode="&#x153;" horiz-adv-x="1937" d="M0 307v819q0 130 90 220t217 90h668v-203h-299v-412h299v-205h-299v-411h299v-205h-668q-127 0 -217 90t-90 217zM205 307q0 -41 30.5 -71.5t71.5 -30.5h62q42 0 72 30t30 72v819q0 43 -30 74t-72 31h-62q-41 0 -71.5 -31t-30.5 -74v-819z" />
<glyph unicode="&#x178;" horiz-adv-x="1167" d="M0 1393v45h205q0 -94 8 -105l276 -426l277 428q8 8 8 103h205q0 -151 -31 -199l-356 -549v-690h-205v688l-356 551q-31 48 -31 154zM0 1542v307h205v-307h-205zM766 1542v307h205v-307h-205z" />
<glyph unicode="&#x2c6;" d="M0 1540q0 135 53 182l221 189q27 24 68 24h291q40 0 67 -24l222 -189q53 -47 53 -182h-205q0 44 -8 49l-148 125q-20 17 -55 17h-143q-36 0 -56 -17l-147 -125q-8 -5 -8 -49h-205z" />
<glyph unicode="&#x2dc;" horiz-adv-x="1167" d="M0 1651l37 26q89 68 141 68h584q10 0 90 57l121 -168q-134 -94 -180 -94h-584q-12 0 -88 -55z" />
<glyph unicode="&#x2000;" horiz-adv-x="984" />
<glyph unicode="&#x2001;" horiz-adv-x="1968" />
<glyph unicode="&#x2002;" horiz-adv-x="984" />
<glyph unicode="&#x2003;" horiz-adv-x="1968" />
<glyph unicode="&#x2004;" horiz-adv-x="656" />
<glyph unicode="&#x2005;" horiz-adv-x="492" />
<glyph unicode="&#x2006;" horiz-adv-x="328" />
<glyph unicode="&#x2007;" horiz-adv-x="328" />
<glyph unicode="&#x2008;" horiz-adv-x="246" />
<glyph unicode="&#x2009;" horiz-adv-x="393" />
<glyph unicode="&#x200a;" horiz-adv-x="109" />
<glyph unicode="&#x2013;" d="M0 625v204h975v-204h-975z" />
<glyph unicode="&#x2014;" horiz-adv-x="1363" d="M0 625v204h1169v-204h-1169z" />
<glyph unicode="&#x2018;" horiz-adv-x="399" d="M0 946v307l106 185h99l-99 -185h99v-307h-205z" />
<glyph unicode="&#x2019;" horiz-adv-x="399" d="M0 946l100 184h-100v308h205v-308l-105 -184h-100z" />
<glyph unicode="&#x201a;" horiz-adv-x="399" d="M0 -303v614h205v-307l-105 -307h-100z" />
<glyph unicode="&#x201c;" horiz-adv-x="772" d="M0 946v307l106 185h99l-99 -185h99v-307h-205zM373 946v307l106 185h99l-99 -185h99v-307h-205z" />
<glyph unicode="&#x201d;" horiz-adv-x="772" d="M0 946l100 184h-100v308h205v-308l-105 -184h-100zM373 946l100 184h-100v308h205v-308l-105 -184h-100z" />
<glyph unicode="&#x201e;" horiz-adv-x="772" d="M0 0v307h205v-307l-105 -184h-100l100 184h-100zM373 0v307h205v-307l-105 -184h-100l100 184h-100z" />
<glyph unicode="&#x2022;" horiz-adv-x="911" d="M0 668v104q0 148 104 252q106 106 254 106q151 0 254 -106q105 -105 105 -252v-104q0 -146 -105 -254q-105 -105 -254 -105q-146 0 -254 105q-104 107 -104 254z" />
<glyph unicode="&#x2026;" horiz-adv-x="1218" d="M0 0v307h205v-307h-205zM410 0v307h204v-307h-204zM819 0v307h205v-307h-205z" />
<glyph unicode="&#x202f;" horiz-adv-x="393" />
<glyph unicode="&#x2039;" horiz-adv-x="808" d="M0 592v254q0 39 25 67l407 471q48 54 182 54v-205h-16q-25 0 -33 -8l-344 -400q-15 -18 -18 -77l2 33v-115q0 -35 16 -54l344 -399q8 -8 49 -8v-205q-135 0 -182 53l-407 471q-25 28 -25 68z" />
<glyph unicode="&#x203a;" horiz-adv-x="808" d="M0 0v205q44 0 49 8l344 399q17 20 17 54l1 109q0 -9 1 -27q-3 58 -19 77l-344 400q-8 8 -33 8h-16v205q134 0 182 -54l408 -471q24 -27 24 -67v-254q0 -41 -24 -68l-408 -471q-47 -53 -182 -53z" />
<glyph unicode="&#x205f;" horiz-adv-x="492" />
<glyph unicode="&#x2122;" horiz-adv-x="1370" d="M0 1331v105h487v-105h-192v-614h-102v614h-193zM528 719v719h103l221 -344l221 344h103v-719h-103v524l-166 -254q-4 -8 -4 -53h-102q0 13 -4 53l-166 254v-524h-103z" />
<glyph unicode="&#x25fc;" horiz-adv-x="1433" d="M0 0v1434h1434v-1434h-1434z" />
<glyph unicode="&#xfb01;" horiz-adv-x="1720" d="M0 0v829h1061v324q112 0 164 -37l258 -180q43 -30 43 -84v-258q0 -54 -43 -84l-258 -180q-52 -37 -164 -37v332h-856v-625h-205z" />
<glyph unicode="&#xfb02;" horiz-adv-x="1720" d="M0 594v258q0 54 43 84l258 180q52 37 164 37v-324h1061v-829h-205v625h-856v-332q-112 0 -164 37l-258 180q-43 30 -43 84z" />
</font>
</defs>
</svg>
