<?xml version="1.0" standalone="no"?>
<!DOCTYPE svg PUBLIC "-//W3C//DTD SVG 1.1//EN" "http://www.w3.org/Graphics/SVG/1.1/DTD/svg11.dtd" >
<svg xmlns="http://www.w3.org/2000/svg">
<metadata>Generated by IcoMoon</metadata>
<defs>
<font id="logi-gaming-icons" horiz-adv-x="1024">
<font-face units-per-em="1024" ascent="960" descent="-64" />
<missing-glyph horiz-adv-x="1024" />
<glyph unicode="&#x20;" horiz-adv-x="512" d="" />
<glyph unicode="&#xe900;" glyph-name="logo-logi-g-china-horizontal" horiz-adv-x="5689" d="M5074.474 960v-206.515c-162.969 0-291.629-130.639-291.629-290.969s129.32-290.969 291.629-290.969v-206.515c-276.454 0-500.784 223.010-500.784 497.485s224.99 497.485 500.784 497.485zM5081.732 551.588v-205.196h240.825v-240.825h205.196v446.021zM839.918 267.876c-65.32 0-117.443 52.124-117.443 118.763 0 65.979 52.124 117.443 117.443 117.443 65.979 0 118.103-50.804 118.103-118.103s-51.464-118.103-118.103-118.103zM1056.99 508.701v81.155h-143.835c-23.093 7.918-48.165 12.536-73.237 12.536-123.381 0-221.031-94.351-221.031-217.072s97.649-217.072 221.031-217.072c123.381 0 221.031 94.351 221.031 217.072 0 41.567-11.216 81.814-33.649 112.165l29.691 11.216zM362.887 267.876c-65.32 0-117.443 52.124-117.443 118.763 0 65.979 52.124 117.443 117.443 117.443 65.979 0 118.103-50.804 118.103-118.103s-51.464-118.103-118.103-118.103zM362.887 602.392c-123.381 0-221.031-94.351-221.031-217.072s97.649-217.072 221.031-217.072c123.381 0 221.031 94.351 221.031 217.072 0 123.381-96.99 217.072-221.031 217.072zM0 180.784h102.268v581.938h-102.268v-581.938zM1101.856 180.784h102.268v409.072h-102.268v-409.072zM839.918 35.629c-65.32 0-117.443 50.804-117.443 117.443h-103.588c0-122.722 97.649-217.072 221.031-217.072s221.031 94.351 221.031 217.072h-103.588c0-66.639-52.124-117.443-117.443-117.443zM1579.546 428.206c13.856 54.103 54.763 84.454 108.206 84.454s93.031-29.691 106.227-84.454h-214.433zM1690.392 602.392c-122.722 0-216.412-94.351-216.412-219.052 0-123.381 85.113-214.433 217.732-214.433 73.237 0 138.557 27.052 186.722 77.856l-68.619 67.959c-33.649-31.67-69.278-54.763-115.464-54.763-56.082 0-98.309 31.67-112.165 85.113h318.021v24.412c0 139.876-85.773 232.907-209.814 232.907zM2594.309 602.392c-50.144 0-93.031-19.134-123.381-52.124v212.454h-102.268v-581.938h102.268v222.351c0 58.722 37.608 99.629 99.629 99.629 58.062 0 90.392-35.629 90.392-99.629v-222.351h102.268v240.825c-0.66 113.485-71.258 180.784-168.907 180.784zM2154.227 503.423c42.887 0 77.856-22.433 105.567-53.443l71.258 69.938c-39.588 50.144-102.928 81.814-174.845 81.814-123.381 0-221.031-94.351-221.031-217.072s97.649-217.072 221.031-217.072c71.918 0 134.598 31.67 174.845 81.814l-71.258 69.938c-26.392-30.351-62.021-53.443-106.227-53.443-65.32 0-115.464 50.804-115.464 118.103-0.66 68.619 49.485 119.423 116.124 119.423zM1404.701 715.876h-102.268v-126.021h-54.763v-91.052h54.763v-318.021h102.268v318.021h56.082v91.052h-56.082v126.021zM1152 773.938c-37.608 0-67.299-29.691-67.299-67.959 0-37.608 29.691-67.299 67.299-67.299 38.928 0 68.619 29.691 68.619 67.299 0 38.268-29.691 67.959-68.619 67.959zM3786.557 182.103c-15.835 0-27.052 0.66-46.845 5.278l-14.515 4.619v79.175l13.196-3.959c11.216-3.299 23.093-5.278 36.289-5.278 14.515 0 25.072 2.639 28.371 3.299 0.66 1.32 2.639 5.938 2.639 19.794v78.515l-79.835-29.031v85.773l79.835 29.031v129.32h-86.433v81.155h86.433v118.763h79.175v-118.763h55.423v-80.495h-55.423v-101.608l55.423 19.794v-85.773l-55.423-19.794v-106.887c0-24.412-3.299-60.041-33.649-83.794-17.814-12.536-38.268-19.134-64.66-19.134zM3609.072 564.784h-559.505v213.773h559.505v-213.773zM3445.443 643.299h84.454v56.742h-84.454v-56.742zM3286.433 643.299h80.495v56.742h-80.495v-56.742zM3128.082 643.299h80.495v56.742h-80.495v-56.742zM3977.237 174.845l-68.619 62.68 15.175 5.938c60.701 21.773 116.124 50.804 150.433 77.856-81.155 89.732-105.567 179.464-106.887 183.423 0 0 0 0 0 0s-3.299 8.577-5.938 21.113c-2.639 11.216-3.959 20.454-3.959 20.454l-1.979 11.216h139.216v56.742h-137.237v81.155h137.237v83.134h79.175v-83.134h155.052v-80.495h-155.052v-56.742h141.196l-1.979-11.876c0 0-1.979-9.237-4.619-21.113s-5.938-21.113-5.938-21.113c-0.66-3.299-25.072-92.371-106.887-182.763 34.969-27.052 90.392-55.423 151.753-77.856l15.175-5.938-68.619-62.68-5.938 2.639c-65.32 27.052-112.165 53.443-153.072 87.093-57.402-44.206-102.928-65.979-151.753-87.093l-5.938-2.639zM4066.309 477.031c18.474-37.608 41.567-71.258 67.959-100.289 27.052 29.031 49.485 62.68 68.619 100.289h-136.577zM3116.206 181.443l-81.155 71.918 23.093 1.979c89.732 6.598 149.773 19.134 209.155 43.546-47.505 33.649-75.216 48.165-75.876 48.165l-13.856 7.258 12.536 9.237c15.835 11.876 31.010 25.072 46.845 40.247l5.278 5.278 6.598-3.299c29.691-17.155 58.722-36.948 96.99-66.639 50.804 31.67 97.649 69.278 124.701 96.99h-256c-30.351-29.691-65.32-54.763-103.588-75.876l-5.938-3.299-63.34 56.082 13.196 6.598c75.876 36.948 122.722 87.093 148.454 122.722l2.639 3.959h92.371l-8.577-14.515c-3.299-5.278-6.598-11.216-9.897-16.495h332.536l-28.371-56.742c-4.619-9.237-119.423-229.608-463.175-275.134l-4.619-1.979zM5527.753 53.443h61.361v-11.876h-24.412v-77.196h-12.536v77.196h-24.412zM5650.474-16.495h-9.237l-25.732 40.907v-60.041h-13.196v89.072h9.237l34.309-54.103 34.309 54.103h9.237v-89.072h-12.536v60.041z" />
<glyph unicode="&#xe901;" glyph-name="logo-logi-g-china-vertical" horiz-adv-x="1352" d="M555.012 298.876c-183.403 0-333.182 148.469-333.182 330.562 0 182.53 149.342 330.562 333.182 330.562v-137.116c-108.295 0-193.883-86.898-193.883-193.446s85.588-193.446 193.883-193.446v-137.116zM717.455 392.324h136.679v296.501h-296.501v-136.679h160.259v-159.823zM241.044 31.195c-18.777 0-33.624 14.847-33.624 34.061 0 18.777 14.847 33.624 33.624 33.624s34.061-14.847 34.061-34.061c-0.437-18.777-15.284-33.624-34.061-33.624zM303.052 100.189v23.144h-41.047c-6.55 2.183-13.537 3.493-20.96 3.493-35.371 0-63.318-27.074-63.318-62.008 0-35.371 27.947-62.008 63.318-62.008s63.318 27.074 63.318 62.008c0 11.79-3.057 23.58-9.607 32.314l8.297 3.057zM103.928 31.195c-18.777 0-33.624 14.847-33.624 34.061 0 18.777 14.847 33.624 33.624 33.624s34.061-14.847 34.061-34.061c0-18.777-14.847-33.624-34.061-33.624zM103.928 127.263c-35.371 0-63.318-27.074-63.318-62.008 0-35.371 27.947-62.008 63.318-62.008s63.318 27.074 63.318 62.008c0.437 34.934-27.51 62.008-63.318 62.008zM0 6.304h29.257v166.809h-29.257v-166.809zM316.152 6.304h29.257v117.465h-29.257v-117.465zM241.044-35.18c-18.777 0-33.624 14.847-33.624 33.624h-29.694c0-35.371 27.947-62.008 63.318-62.008s63.318 27.074 63.318 62.008h-29.694c0-19.214-14.847-33.624-33.624-33.624zM453.267 77.046c3.93 15.72 15.72 24.454 31.004 24.454s26.637-8.297 30.567-24.454h-61.571zM484.708 127.263c-35.371 0-62.008-27.074-62.008-62.881 0-35.371 24.454-61.571 62.444-61.571 20.96 0 39.737 7.86 53.711 22.27l-19.65 19.65c-9.607-9.17-20.087-15.72-33.187-15.72-16.157 0-27.947 9.17-32.314 24.454h91.265v6.987c0 40.174-24.454 66.811-60.261 66.811zM744.092 127.263c-14.41 0-26.637-5.677-35.371-14.847v60.698h-29.257v-166.809h29.257v63.754c0 17.030 10.917 28.384 28.82 28.384 16.594 0 25.764-10.48 25.764-28.384v-63.754h29.257v68.994c0 32.314-20.524 51.964-48.471 51.964zM617.893 98.879c12.227 0 22.27-6.55 30.13-15.284l20.524 20.087c-11.354 14.41-29.694 23.58-50.217 23.58-35.371 0-63.318-27.074-63.318-62.008 0-35.371 27.947-62.008 63.318-62.008 20.524 0 38.864 9.17 50.217 23.58l-20.524 20.087c-7.423-8.733-17.904-15.284-30.567-15.284-18.777 0-33.187 14.847-33.187 34.061 0 18.777 14.41 33.187 33.624 33.187zM403.050 159.577h-29.257v-36.244h-15.72v-26.2h15.72v-91.265h29.257v91.265h16.157v26.2h-16.157v36.244zM330.562 176.607c-10.917 0-19.214-8.297-19.214-19.65 0-10.917 8.297-19.214 19.214-19.214 11.354 0 19.65 8.297 19.65 19.214s-8.733 19.65-19.65 19.65zM1086.008 6.741c-4.803 0-7.86 0.437-13.537 1.747l-4.367 1.31v22.707l3.93-1.31c3.057-0.873 6.55-1.747 10.48-1.747s6.987 0.873 8.297 0.873c0 0.437 0.873 1.747 0.873 5.677v22.27l-22.707-8.297v24.454l22.707 8.297v37.117h-24.89v23.58h24.89v34.061h22.707v-34.061h15.72v-23.144h-15.72v-29.257l15.72 5.677v-24.454l-15.72-5.677v-30.567c0-6.987-0.873-17.467-9.607-24.017-5.24-3.493-11.354-5.24-18.777-5.24zM1034.917 116.346h-160.696v61.571h160.696v-61.571zM988.193 139.053h24.454v16.157h-24.454v-16.157zM942.779 139.053h23.144v16.157h-23.144v-16.157zM897.365 139.053h23.144v16.157h-23.144v-16.157zM1141.029 4.558l-19.65 17.904 4.367 1.747c17.467 6.113 33.187 14.41 43.231 22.27-23.144 25.764-30.13 51.528-30.567 52.401v0c0 0-0.873 2.62-1.747 6.113s-1.31 5.677-1.31 5.677l-0.437 3.057h39.737v16.157h-39.301v23.144h39.301v24.017h22.707v-24.017h44.541v-23.144h-44.541v-16.157h40.174l-0.437-3.493c0 0-0.437-2.62-1.31-6.113s-1.747-6.113-1.747-6.113c-0.437-0.873-6.987-26.637-30.567-52.401 10.043-7.86 25.764-16.157 43.667-22.27l4.367-1.747-19.65-17.904-1.747 0.873c-18.777 7.86-31.877 15.284-43.667 24.89-16.594-12.664-29.257-18.777-43.667-24.89h-1.747zM1166.356 91.019c5.24-10.917 11.79-20.524 19.65-28.82 7.86 8.297 14.41 17.904 19.65 28.82h-39.301zM893.871 6.741l-23.144 20.524 6.55 0.437c25.764 1.747 43.231 5.24 59.824 12.664-13.537 9.607-21.834 13.974-21.834 13.974l-3.93 2.183 3.493 2.62c4.367 3.493 8.733 7.423 13.537 11.79l1.31 1.31 1.747-0.873c8.733-4.803 17.030-10.48 27.947-19.214 14.41 9.17 27.947 20.087 35.807 27.947h-73.361c-8.733-8.297-18.777-15.72-29.694-21.834l-1.747-0.873-17.904 16.157 3.93 1.747c21.834 10.48 34.934 24.89 42.357 34.934l0.873 1.31h26.637l-2.62-4.367c-0.873-1.747-1.747-3.057-3.057-4.803h95.195l-8.297-16.157c-1.31-2.62-34.061-65.938-132.749-79.038l-0.873-0.437zM1245.394 177.917h40.611v-8.297h-16.157v-51.091h-8.297v51.091h-16.157zM1326.615 131.193h-6.113l-17.030 27.074v-39.737h-8.733v59.388h6.113l22.707-36.244 22.707 36.244h6.113v-59.388h-8.733v39.737z" />
<glyph unicode="&#xe902;" glyph-name="logo-logi-g-japan-horizontal" horiz-adv-x="4154" d="M0 762.951h101.809v-581.953h-101.809v581.953zM1100.849 180.998h101.809v408.549h-101.809v-408.549zM1151.425 774.117c-37.439 0-66.997-29.557-66.997-67.654 0-37.439 29.557-66.997 66.997-66.997 38.753 0 68.31 29.557 68.31 66.997 0 38.096-29.557 67.654-68.31 67.654zM839.43 35.838c-65.683 0-116.916 51.233-116.916 116.916h-103.779c0-122.827 97.211-216.754 220.695-216.754s220.695 93.927 220.695 216.754h-103.779c0-66.34-51.233-116.916-116.916-116.916zM1462.106 503.502c43.351 0 78.163-22.332 105.093-53.203l70.938 70.281c-40.067 49.919-103.123 82.104-174.717 82.104-123.484 0-220.695-93.927-220.695-216.754s97.211-216.754 220.695-216.754c71.595 0 134.65 32.185 174.717 82.104l-70.938 70.281c-26.273-30.214-62.399-53.203-105.75-53.203-65.683 0-115.602 51.233-115.602 118.23 0 65.683 49.919 116.916 116.259 116.916zM1060.126 385.273c0-122.827-97.211-216.754-220.695-216.754s-220.695 93.927-220.695 216.754c0 122.827 97.211 216.754 220.695 216.754 25.616 0 49.919-4.598 73.565-12.48h143.189v-81.447l-29.557-10.509c22.332-30.214 33.498-70.281 33.498-112.318zM957.66 385.273c0 66.997-51.89 118.23-118.23 118.23-65.683 0-116.916-51.233-116.916-116.916 0-66.997 51.89-118.886 116.916-118.886 66.34 0 118.23 51.233 118.23 117.573zM583.266 385.273c0-122.827-97.211-216.754-220.695-216.754s-220.695 93.927-220.695 216.754c0 122.827 97.211 216.754 220.695 216.754 123.484 0.657 220.695-93.927 220.695-216.754zM480.801 385.273c0 66.997-51.89 118.23-118.23 118.23-65.683 0-116.916-51.233-116.916-116.916 0-66.997 51.89-118.886 116.916-118.886 66.34 0 118.23 51.233 118.23 117.573zM2082.812 385.273c0-122.827-97.211-216.754-220.695-216.754s-220.695 93.927-220.695 216.754c0 122.827 97.211 216.754 220.695 216.754 123.484 0.657 220.695-93.927 220.695-216.754zM1980.346 385.273c0 66.997-51.89 118.23-118.23 118.23-65.683 0-116.916-51.233-116.916-116.916 0-66.997 51.89-118.886 116.916-118.886 66.34 0 118.23 51.233 118.23 117.573zM2559.672 385.273c0-122.827-97.211-216.754-220.695-216.754s-220.695 93.927-220.695 216.754c0 122.827 97.211 216.754 220.695 216.754 123.484 0.657 220.695-93.927 220.695-216.754zM2457.206 385.273c0 66.997-51.89 118.23-118.23 118.23-65.683 0-116.916-51.233-116.916-116.916 0-66.997 51.89-118.886 116.916-118.886 66.34 0 118.23 51.233 118.23 117.573zM2599.738 180.998h101.809v581.953h-101.809v-581.953zM3539.664 960v-206.902c-162.894 0-292.29-130.709-292.29-290.976s129.396-290.976 292.29-290.976v-206.902c-276.526 0-501.162 223.323-501.162 497.878s225.293 497.878 501.162 497.878zM3993.534 551.451v-446.645h-205.588v241.057h-241.057v205.588h446.645zM3993.534 53.573h61.085v-12.48h-24.303v-76.849h-12.48v76.849h-24.303zM4115.705-16.708h-9.196l-26.273 40.724v-59.772h-12.48v89.329h9.196l34.155-54.517 34.155 54.517h9.196v-89.329h-13.137v59.772z" />
<glyph unicode="&#xe903;" glyph-name="logo-logi-g-japan-vertical" horiz-adv-x="834" d="M404.36 298.876c-183.403 0-333.182 148.469-333.182 330.562 0.437 182.53 149.779 330.562 333.182 330.562v-137.116c-108.295 0-193.883-86.898-193.883-193.446s85.588-193.446 193.883-193.446v-137.116zM566.803 392.324h136.679v296.501h-296.501v-136.679h160.259v-159.823zM0 6.304h29.257v166.809h-29.257v-166.809zM316.152 6.304h29.257v117.465h-29.257v-117.465zM330.562 176.607c-10.917 0-19.214-8.297-19.214-19.65 0-10.917 8.297-19.214 19.214-19.214 11.354 0 19.65 8.297 19.65 19.214s-8.733 19.65-19.65 19.65zM241.044-35.18c-18.777 0-33.624 14.847-33.624 33.624h-29.694c0-35.371 27.947-62.444 63.318-62.444s63.318 27.074 63.318 62.444h-29.694c0-19.214-14.847-33.624-33.624-33.624zM419.643 98.879c12.227 0 22.27-6.55 30.13-15.284l20.524 20.087c-11.354 14.41-29.694 23.58-50.217 23.58-35.371 0-63.318-27.074-63.318-62.444s27.947-62.444 63.318-62.444c20.524 0 38.864 9.17 50.217 23.58l-20.524 20.087c-7.423-8.733-17.904-15.284-30.567-15.284-18.777 0-33.187 14.847-33.187 34.061 0.437 19.65 14.847 34.061 33.624 34.061zM304.362 65.255c0-35.371-27.947-62.444-63.318-62.444s-63.318 27.074-63.318 62.444c0 35.371 27.947 62.444 63.318 62.444 7.423 0 14.41-1.31 20.96-3.493h41.047v-23.144l-8.297-3.057c6.55-9.17 9.607-20.96 9.607-32.751zM274.668 65.255c0 19.214-14.847 34.061-34.061 34.061-18.777 0-33.624-14.847-33.624-33.624 0-19.214 14.847-34.061 33.624-34.061 19.214-0.437 34.061 14.41 34.061 33.624zM167.683 65.255c0-35.371-27.947-62.444-63.318-62.444s-63.318 27.074-63.318 62.444c0 35.371 27.947 62.444 63.318 62.444 35.371-0.437 63.318-27.51 63.318-62.444zM137.989 65.255c0 19.214-14.847 34.061-34.061 34.061-18.777 0-33.624-14.847-33.624-33.624 0-19.214 14.847-34.061 33.624-34.061 19.214-0.437 34.061 14.41 34.061 33.624zM597.806 65.255c0-35.371-27.947-62.444-63.318-62.444s-63.318 27.074-63.318 62.444c0 35.371 27.947 62.444 63.318 62.444 35.371-0.437 63.318-27.51 63.318-62.444zM568.549 65.255c0 19.214-14.847 34.061-34.061 34.061-18.777 0-33.624-14.847-33.624-33.624 0-19.214 14.847-34.061 33.624-34.061 19.214-0.437 34.061 14.41 34.061 33.624zM734.922 65.255c0-35.371-27.947-62.444-63.318-62.444s-63.318 27.074-63.318 62.444c0 35.371 27.947 62.444 63.318 62.444 35.371-0.437 63.318-27.51 63.318-62.444zM705.228 65.255c0 19.214-14.847 34.061-34.061 34.061-18.777 0-33.624-14.847-33.624-33.624 0-19.214 14.847-34.061 33.624-34.061 19.214-0.437 34.061 14.41 34.061 33.624zM746.275 6.304h29.257v166.809h-29.257v-166.809zM787.759 32.068h17.467v-3.493h-6.987v-22.27h-3.93v22.27h-6.55zM822.693 11.981h-2.62l-7.423 11.354v-17.030h-3.493v25.764h2.183l10.043-15.72 10.043 15.72h2.62v-25.764h-3.93v17.030z" />
<glyph unicode="&#xe904;" glyph-name="cart" horiz-adv-x="1337" d="M1061.333 293.333h-570.667l-256 533.333h-234.667v133.333h314.667l261.333-533.333h394.667l144 352 122.667-53.333zM645.333 37.333c0-58.91-47.756-106.667-106.667-106.667s-106.667 47.756-106.667 106.667c0 58.91 47.756 106.667 106.667 106.667s106.667-47.756 106.667-106.667zM1072 37.333c0-58.91-47.756-106.667-106.667-106.667s-106.667 47.756-106.667 106.667c0 58.91 47.756 106.667 106.667 106.667s106.667-47.756 106.667-106.667z" />
<glyph unicode="&#xe905;" glyph-name="triangle-right" horiz-adv-x="876" d="M876.089 448l-876.089-512v1024l876.089-512z" />
<glyph unicode="&#xe906;" glyph-name="facebook" d="M967.942 960h-911.883c-29.898 0-56.058-26.161-56.058-56.058v-911.883c0-29.898 26.161-56.058 56.058-56.058h489.577v396.146h-134.54v153.226h134.54v115.854c0 130.803 82.219 205.547 198.073 205.547 56.058 0 104.642-3.737 119.591-7.474v-138.277h-78.482c-63.533 0-78.482-29.898-78.482-74.745v-97.168h153.226l-18.686-153.226h-134.54v-396.146h261.606c29.898 0 56.058 26.161 56.058 56.058v908.146c0 29.898-26.161 56.058-56.058 56.058z" />
<glyph unicode="&#xe907;" glyph-name="logo-astro" horiz-adv-x="4710" d="M1097.143 682.057l-117.029-73.143 35.109 131.657-108.251 84.846 140.434 8.777 49.737 125.806 49.737-125.806 140.434-8.777-108.251-84.846 35.109-131.657zM1506.743 386.56l-119.954-140.434c-76.069-87.771-175.543-137.509-280.869-137.509h-52.663v-175.543h49.737c152.137 0 295.497 70.217 403.749 193.097l119.954 140.434c76.069 87.771 175.543 137.509 280.869 137.509h52.663v175.543h-49.737c-152.137 0-298.423-70.217-403.749-193.097zM310.126 579.657c-172.617 0-310.126-143.36-310.126-321.829v-321.829h310.126c81.92 0 160.914 32.183 219.429 93.623 0 0 149.211 155.063 239.909 251.611 0-128.731 0-345.234 0-345.234h166.766v643.657h-626.103zM406.674 155.429c-26.331-26.331-61.44-43.886-99.474-43.886 0 0-67.291 0-140.434 0 0 70.217 0 146.286 0 146.286 0 81.92 64.366 146.286 140.434 146.286 0 0 172.617 0 342.309 0-87.771-90.697-242.834-248.686-242.834-248.686zM2246.949 535.771v160.914h-169.691v-459.337c0-166.766 140.434-301.349 315.977-301.349h473.966v163.84h-473.966c-78.994 0-146.286 61.44-146.286 137.509v137.509h620.251v163.84h-620.251zM3297.28 579.657c-172.617 0-313.051-143.36-313.051-321.829v-321.829h169.691v321.829c0 81.92 64.366 146.286 143.36 146.286h447.634v175.543h-447.634zM4107.703 579.657c-166.766 0-304.274-143.36-304.274-321.829 0-175.543 134.583-321.829 304.274-321.829h298.423c166.766 0 304.274 143.36 304.274 321.829v321.829h-602.697zM4546.56 257.829c0-81.92-64.366-146.286-140.434-146.286h-298.423c-76.069 0-140.434 64.366-140.434 146.286s64.366 146.286 140.434 146.286c0 0 318.903 0 438.857 0 0-64.366 0-146.286 0-146.286z" />
<glyph unicode="&#xe908;" glyph-name="logo-gaming" horiz-adv-x="979" d="M767.186 80.691h211.686v459.195h-459.66v-211.22h247.975zM515.489-64c-284.264 0-515.489 229.365-515.489 511.767 0 282.868 231.226 512.233 515.489 512.233v-212.616c-167.488 0-300.547-134.455-300.547-299.617s132.594-299.617 300.547-299.617v-212.151z" />
<glyph unicode="&#xe909;" glyph-name="logo-jaybird" horiz-adv-x="4773" d="M1740.836 717.771c-33.197-28.090-48.519-74.055-48.519-120.020v-201.736c0-71.501 43.411-168.539 168.539-168.539h97.037v109.805h-97.037c-48.519 0-58.733 33.197-58.733 58.733v201.736c0 22.983 7.661 33.197 15.322 40.858 17.875 17.875 53.626 22.983 66.394 22.983h211.95v-434.115h109.805v543.92h-316.648c-10.214 0-91.93 0-148.11-53.626zM1482.921 853.113v-707.352c0-10.214-5.107-43.411-22.983-63.84-15.322-15.322-33.197-17.875-58.733-17.875v-109.805c74.055 0 117.466 28.090 140.449 53.626 53.626 53.626 51.072 130.234 51.072 140.449v-5.107 709.905h-109.805zM2856.767 773.951h-109.805v-360.060c0-15.322-5.107-48.519-22.983-66.394-7.661-7.661-15.322-15.322-40.858-15.322h-201.736c-25.536 0-58.733 10.214-58.733 58.733v383.042h-109.805v-383.042c0-125.127 102.145-168.539 168.539-168.539h201.736c22.983 0 40.858 5.107 63.84 10.214v-91.93c0-10.214-5.107-43.411-22.983-63.84-15.322-15.322-33.197-17.875-58.733-17.875v-109.805c74.055 0 117.466 28.090 140.449 53.626 51.072 53.626 51.072 125.127 51.072 140.449 0 2.554 0 630.743 0 630.743zM2974.963 937.017v-709.905h354.953c7.661 0 91.93 0 148.11 51.072 33.197 28.090 48.519 74.055 48.519 120.020v201.736c0 71.501-43.411 168.539-168.539 168.539h-130.234v-109.805h130.234c48.519 0 58.733-33.197 58.733-58.733v-201.736c0-22.983-7.661-33.197-15.322-40.858-17.875-17.875-53.626-22.983-66.394-22.983h-250.254v602.653h-109.805zM4772.708 937.017v-709.905h-354.953c-7.661 0-91.93 0-148.11 51.072-33.197 28.090-48.519 74.055-48.519 120.020v201.736c0 71.501 43.411 168.539 168.539 168.539h130.234v-109.805h-130.234c-48.519 0-58.733-33.197-58.733-58.733v-201.736c0-22.983 7.661-33.197 15.322-40.858 17.875-17.875 53.626-22.983 66.394-22.983h250.254v602.653h109.805zM3636.349 771.032h109.805v-549.027h-109.805v549.027zM4034.713 771.032c-125.127 0-168.539-102.145-168.539-168.539v-380.489h109.805v380.489c0 25.536 10.214 58.733 58.733 58.733h130.234v109.805h-130.234zM201.371 952.339l-22.983 5.107 7.661-22.983c0-5.107 28.090-102.145 114.913-163.431 58.733-40.858 86.823-91.93 86.823-168.539l5.107-211.95c0-10.214-10.214-242.594-260.469-293.666-5.107 15.322-7.661 33.197-7.661 58.733 0 63.84 40.858 150.663 130.234 240.040 48.519 48.519 71.501 117.466 71.501 120.020l7.661 22.983-22.983-7.661c-423.9-158.324-291.112-584.778-291.112-587.332l5.107-7.661h7.661c5.107 0 485.187 40.858 485.187 472.419v178.753c-2.554 163.431-112.359 288.559-316.648 365.167zM890.847 952.339l22.983 7.661-7.661-22.983c0-5.107-28.090-102.145-114.913-163.431-58.733-40.858-86.823-91.93-86.823-168.539l-5.107-211.95c0-10.214 10.214-242.594 260.469-293.666 5.107 15.322 7.661 33.197 7.661 58.733 0 63.84-40.858 150.663-130.234 240.040-48.519 48.519-71.501 117.466-71.501 120.020l-7.661 22.983 17.875-7.661c426.454-158.324 291.112-584.778 291.112-587.332l-5.107-7.661h-5.107c-5.107 0-485.187 40.858-485.187 472.419v178.753c10.214 160.878 120.020 286.005 319.202 362.613z" />
<glyph unicode="&#xe90a;" glyph-name="logo-logitech" horiz-adv-x="3300" d="M11.093 913.465h119.751v-664.007h-119.751v664.007zM695.751 483.157c0-140.004-114.119-247.353-259.072-247.353s-259.072 107.349-259.072 247.353c0 140.174 114.119 247.524 259.072 247.524s259.072-107.349 259.072-247.524zM299.179 484.181c0-76.402 60.814-135.566 137.5-135.566 77.653 0 138.411 58.254 138.411 134.542 0 76.516-60.757 134.713-138.411 134.713-76.686 0-137.5-58.197-137.5-133.689zM736.939 483.157c0 140.174 114.119 247.524 259.072 247.524 29.924 0 58.937-5.461 86.016-14.507h168.391v-92.843l-34.645-11.776c26.226-34.645 39.31-80.953 39.31-128.398 0-140.004-114.119-247.353-259.072-247.353s-259.072 107.349-259.072 247.353zM996.011 83.911c76.686 0 137.5 58.197 137.5 133.632h121.572c0-140.117-114.119-247.41-259.072-247.41s-259.072 107.292-259.072 247.41h121.572c0-75.435 60.814-133.632 137.5-133.632zM858.51 484.181c0-76.402 60.814-135.566 137.5-135.566 77.596 0 138.411 58.254 138.411 134.542 0 76.516-60.814 134.713-138.411 134.713-76.686 0-137.5-58.197-137.5-133.689zM1361.692 926.265c45.852 0 80.441-33.621 80.441-77.255 0-42.78-34.588-76.459-80.441-76.459-43.918 0-78.564 33.678-78.564 76.459 0 43.634 34.645 77.255 78.564 77.255zM1302.812 716.174h119.694v-466.773h-119.694v466.773zM1538.503 612.352h-64.569v103.822h64.569v143.701h119.694v-143.701h65.479v-103.822h-65.479v-362.894h-119.694v362.894zM1994.923 235.804c-155.25 0-255.374 103.652-255.374 244.736 0 142.791 109.454 250.14 253.497 250.14 144.953 0 245.988-106.439 245.988-265.557v-28.274h-373.191c16.839-60.928 66.389-97.394 131.868-97.394 54.272 0 96.37 26.396 135.623 62.862l80.441-77.369c-56.149-58.254-132.836-89.145-218.852-89.145zM1863.054 531.456h251.563c-14.962 62.748-61.724 96.427-124.359 96.427-62.692 0-111.332-34.532-127.204-96.427zM2743.125 329.5c-46.706-57.344-120.604-93.696-204.8-93.696-144.953 0-259.072 107.349-259.072 247.353 0 140.174 114.119 247.524 259.072 247.524 84.196 0 158.094-36.409 204.8-93.696l-83.228-80.043c-31.801 35.442-72.932 60.928-123.449 60.928-77.653 0-136.533-58.197-136.533-134.713 0-76.288 58.88-134.542 135.623-134.542 51.428 0 93.525 26.34 124.359 60.928l83.228-80.043zM2788.068 249.458v664.007h119.694v-241.892c35.556 37.262 86.073 59.108 145.010 59.108 114.062 0 197.348-77.255 197.348-206.507v-274.716h-119.751v253.838c0 72.761-37.433 113.721-105.7 113.721-72.932 0-116.907-46.421-116.907-113.721v-253.838h-119.694zM3247.275 802.588c22.471 0 41.188-18.148 41.188-40.050 0-22.756-18.716-40.903-41.188-40.903-23.381 0-42.098 18.148-42.098 40.903 0 21.902 18.716 40.050 42.098 40.050zM3247.275 797.070c-20.537 0-36.466-15.36-36.466-34.532 0-20.082 15.929-35.442 36.466-35.442 19.627 0 35.556 15.36 35.556 35.442 0 19.172-15.929 34.532-35.556 34.532zM3247.275 757.988h-9.33v-16.441h-5.632v41.927h14.962c9.387 0 15.929-3.584 15.929-12.743 0-7.282-3.755-10.923-10.297-11.776l11.207-17.408h-6.542l-10.297 16.441zM3237.945 778.012v-14.564h9.33c7.509 0 10.297 2.731 10.297 7.282 0 4.494-2.788 7.282-10.297 7.282h-9.33z" />
<glyph unicode="&#xe90b;" glyph-name="logo-ue" horiz-adv-x="2192" d="M1212.677 344.228h-42.881v-58.318h42.881c12.007 0 20.583 1.715 25.729 6.861s8.576 12.007 8.576 22.298c0 8.576-3.43 17.152-8.576 22.298s-13.722 6.861-25.729 6.861zM1418.506 668.409l-34.305-102.915h72.040l-34.305 102.915zM996.556 344.228l-29.159-87.477h61.749l-30.874 87.477zM0 960v-1024h2192.080v1024h-2192.080zM454.539 572.355c0-10.291 0-18.868 0-27.444 0-6.861-1.715-13.722-1.715-20.583-1.715-5.146-3.43-12.007-5.146-15.437-1.715-5.146-5.146-8.576-8.576-13.722-17.152-25.729-46.312-37.735-87.477-37.735s-70.325 12.007-87.477 37.735c-3.43 5.146-5.146 8.576-8.576 13.722-1.715 5.146-3.43 10.291-5.146 15.437s-1.715 12.007-1.715 20.583c0 6.861 0 17.152 0 27.444v145.796h54.888v-147.511c0-13.722 1.715-24.013 3.43-32.59s6.861-15.437 15.437-20.583c8.576-5.146 17.152-8.576 30.874-8.576 12.007 0 22.298 3.43 30.874 8.576s13.722 13.722 15.437 20.583c1.715 8.576 3.43 18.868 3.43 32.59v147.511h54.888v-145.796zM670.66 462.58h-169.809v255.571h54.888v-204.114h114.921v-51.457zM644.931 671.839v46.312h204.114v-46.312h-75.471v-209.26h-53.173v209.26h-75.471zM866.198 170.988h-145.796v216.121h144.080v-39.451h-97.769v-46.312h89.193v-41.166h-89.193v-46.312h101.199v-42.881zM885.065 718.151h54.888v-255.571h-54.888v255.571zM1054.874 170.988l-17.152 49.742h-78.901l-17.152-49.742h-46.312l75.471 217.836h56.603l75.471-217.836h-48.027zM1046.298 671.839h-3.43v-209.26h-48.027v255.571h87.477l48.027-181.816h3.43l48.027 181.816h87.477v-255.571h-48.027v209.26h-3.43l-60.034-209.26h-49.742l-61.749 209.26zM1245.266 170.988l-39.451 77.186h-36.020v-77.186h-46.312v216.121h84.047c12.007 0 24.013-1.715 34.305-3.43 10.291-3.43 18.868-6.861 25.729-12.007s12.007-12.007 17.152-20.583c3.43-8.576 5.146-18.868 5.146-30.874 0-17.152-3.43-30.874-10.291-42.881-6.861-10.291-17.152-18.868-29.159-24.013l49.742-82.332h-54.888zM1481.97 203.578c-3.43-8.576-10.291-13.722-17.152-20.583-6.861-5.146-15.437-10.291-25.729-12.007-10.291-3.43-22.298-3.43-34.305-3.43-13.722 0-25.729 1.715-36.020 5.146-12.007 3.43-20.583 8.576-27.444 15.437s-13.722 15.437-17.152 25.729c-3.43 10.291-5.146 22.298-5.146 36.020h46.312c0-13.722 3.43-24.013 10.291-29.159 6.861-6.861 17.152-10.291 32.59-12.007 12.007 0 22.298 1.715 27.444 5.146 6.861 3.43 10.291 8.576 12.007 13.722s0 10.291-1.715 15.437c-3.43 5.146-8.576 8.576-18.868 12.007s-27.444 10.291-51.457 18.868c-34.305 13.722-49.742 32.59-49.742 58.318 0 8.576 1.715 17.152 6.861 24.013 3.43 6.861 10.291 13.722 17.152 18.868s15.437 8.576 25.729 12.007c10.291 3.43 20.583 5.146 34.305 5.146s24.013-1.715 34.305-5.146c10.291-3.43 18.868-8.576 25.729-13.722s12.007-12.007 17.152-20.583c3.43-8.576 5.146-17.152 5.146-27.444h-51.457c0 10.291-3.43 17.152-8.576 22.298-6.861 5.146-15.437 6.861-27.444 6.861-10.291 0-18.868-1.715-25.729-5.146-5.146-3.43-10.291-8.576-10.291-15.437s1.715-12.007 8.576-15.437c5.146-3.43 15.437-8.576 27.444-12.007l29.159-10.291c24.013-8.576 39.451-17.152 46.312-25.729s10.291-20.583 10.291-36.020c-1.715-13.722-5.146-22.298-8.576-30.874zM1488.831 462.58l-20.583 58.318h-92.623l-24.013-58.318h-54.888l89.193 255.571h66.894l90.908-255.571h-54.888zM1740.972 671.839h-75.471v-209.26h-54.888v209.26h-75.471v46.312h204.114v-46.312zM1945.085 462.58h-173.24v255.571h169.809v-46.312h-114.921v-54.888h106.345v-48.027h-106.345v-53.173h118.352v-53.173z" />
<glyph unicode="&#xe90c;" glyph-name="search" d="M408.481 148.634c-106.317 0-207.038 39.169-285.377 117.508-162.273 156.678-162.273 414.077-5.596 576.35 156.678 156.678 419.672 156.678 576.35 0v0c156.678-156.678 156.678-419.672 0-576.35-78.339-78.339-184.656-117.508-285.377-117.508zM408.481 820.109c-72.743 0-139.891-27.978-190.251-78.339-106.317-106.317-106.317-274.186 0-374.907 106.317-106.317 274.186-106.317 380.503 0s106.317 274.186 0 380.503c-55.956 44.765-123.104 72.743-190.251 72.743zM594.572 264.586l98.917 98.917 328.404-328.404-98.917-98.917-328.404 328.404z" />
<glyph unicode="&#xe90d;" glyph-name="tribe" horiz-adv-x="1262" d="M301.912 959.5c-73.674-3.43-129.554-15.221-174.43-36.658-25.368-12.076-44.947-26.011-63.527-45.090-37.944-38.945-58.382-92.181-63.241-164.64-0.929-14.649-1-515.644 0-529.865 4.359-63.098 19.794-110.118 48.592-147.919 22.724-29.798 54.88-53.237 95.040-69.172 44.304-17.579 96.397-26.94 163.997-29.441 12.219-0.429 190.365-0.715 486.489-0.715h467.124l-0.214 301.055c-0.143 286.834-0.214 301.269-1.429 306.342-4.859 20.151-13.22 36.015-26.368 49.664-14.292 15.006-30.584 24.367-51.236 29.512l-7.575 1.929-795.69 0.357v-187.221h681.714v-300.126h-369.941c-248.676 0-373.299 0.214-380.016 0.715-55.952 4.145-88.966 22.438-100.256 55.38-0.786 2.43-2.072 7.074-2.787 10.361-1.215 5.788-1.286 16.578-1.286 244.388v238.314l1.501 6.789c3.144 14.22 9.075 25.225 18.508 34.729 18.15 18.293 46.448 27.797 90.395 30.298 8.075 0.429 177.003 0.715 478.629 0.715h466.052v200.798l-477.843-0.143c-262.896-0.071-479.844-0.214-482.202-0.357z" />
<glyph unicode="&#xe90e;" glyph-name="twitter" horiz-adv-x="1251" d="M375.312 153.774c-115.837-83.403-236.308-115.837-375.312-106.57 9.267-4.633 9.267-9.267 13.9-9.267 4.633-4.633 13.9-9.267 18.534-9.267 189.973-106.57 393.846-120.471 597.719-55.602 296.543 92.67 500.416 384.579 495.783 704.29 0 18.534 4.633 32.434 18.534 41.701 37.068 32.434 74.136 69.502 106.57 106.57 0 4.633-4.633 4.633-4.633 4.633-23.167-9.267-41.701-13.9-64.869-18.534s-41.701-9.267-64.869-13.9c55.602 50.968 92.67 97.303 92.67 134.371-41.701-13.9-83.403-32.434-129.738-46.335-18.534-9.267-32.434-4.633-50.968 9.267-115.837 101.937-287.276 78.769-379.946-41.701-46.335-60.235-60.235-134.371-46.335-213.14-203.873 13.9-379.946 106.57-523.584 273.376-60.235-139.005-37.068-250.208 74.136-342.878l-4.633-4.633c-32.434 9.267-69.502 18.534-106.57 27.801 9.267-129.738 78.769-213.14 199.24-259.475-32.434 0-69.502 0-106.57 0 41.701-106.57 120.471-166.805 240.941-180.706z" />
<glyph unicode="&#xe90f;" glyph-name="user" horiz-adv-x="922" d="M460.8 448c-143.36 0-256 112.64-256 256s112.64 256 256 256 256-112.64 256-256-112.64-256-256-256zM460.8 857.6c-87.040 0-153.6-66.56-153.6-153.6s66.56-153.6 153.6-153.6 153.6 66.56 153.6 153.6-66.56 153.6-153.6 153.6zM921.6-64h-102.4c0 199.68-158.72 358.4-358.4 358.4s-358.4-158.72-358.4-358.4h-102.4c0 256 204.8 460.8 460.8 460.8s460.8-204.8 460.8-460.8z" />
<glyph unicode="&#xe910;" glyph-name="youtube" horiz-adv-x="1463" d="M1462.857 740.571c0 121.905-97.524 219.429-217.803 219.429h-1025.625c-121.905 0-219.429-97.524-219.429-219.429v-586.768c0-120.279 97.524-217.803 219.429-217.803h1025.625c120.279 0 217.803 97.524 217.803 219.429v585.143zM585.143 200.94v551.010l417.727-274.692-417.727-276.317z" />
<glyph unicode="&#xe911;" glyph-name="quote" horiz-adv-x="1245" d="M732.596 960v-512h292.766c0-162.043-130.723-292.766-292.766-292.766v-219.234c283.234 0 512 228.766 512 512v512h-512zM0 448h292.766c0-162.043-130.723-292.766-292.766-292.766v-219.234c283.234 0 512 228.766 512 512v512h-512v-512z" />
<glyph unicode="&#xe912;" glyph-name="download" horiz-adv-x="853" d="M341.333 960h170.667v-426.667h-170.667v426.667zM0 106.667h853.333v-170.667h-853.333v170.667zM853.333 789.333l-426.667-597.333-426.667 597.333z" />
<glyph unicode="&#xe913;" glyph-name="chevron-down" horiz-adv-x="1609" d="M1609.143 784.457l-789.943-848.457-9.752 9.752-9.752-9.752-799.695 848.457 175.543 175.543 633.905-682.667 633.905 682.667 165.79-175.543z" />
<glyph unicode="&#xe914;" glyph-name="chevron-left" horiz-adv-x="663" d="M536.094-45.929l-518.024 487.906 6.024 6.024-6.024 6.024 524.047 487.906 102.4-102.4-421.647-391.529 421.647-391.529-108.424-102.4z" />
<glyph unicode="&#xe915;" glyph-name="chevron-right" horiz-adv-x="663" d="M124.205 944.58l522.903-488.388-8.252-8.192 8.252-8.132-522.903-488.388-108.725 107.942 422.37 388.578-422.37 388.638 108.725 107.942z" />
<glyph unicode="&#xe916;" glyph-name="chevron-up" horiz-adv-x="1609" d="M0 111.543l789.943 848.457 9.752-9.752 19.505 9.752 789.943-848.457-175.543-175.543-633.905 682.667-633.905-682.667-165.79 175.543z" />
<glyph unicode="&#xe917;" glyph-name="plus-circled" d="M512-64c-283.106 0-512 228.894-512 512s228.894 512 512 512 512-228.894 512-512-228.894-512-512-512zM512 899.765c-249.976 0-451.765-201.788-451.765-451.765s201.788-451.765 451.765-451.765c249.976 0 451.765 201.788 451.765 451.765s-201.788 451.765-451.765 451.765zM481.882 628.706h60.235v-361.412h-60.235v361.412zM331.294 478.118h361.412v-60.235h-361.412v60.235z" />
<glyph unicode="&#xe918;" glyph-name="triangle-down" horiz-adv-x="1506" d="M752.941-64l-752.941 1024h1505.882l-752.941-1024z" />
<glyph unicode="&#xe919;" glyph-name="triangle-up" horiz-adv-x="1506" d="M752.941 960l752.941-1024h-1505.882l752.941 1024z" />
<glyph unicode="&#xe91a;" glyph-name="play-circled" d="M512-64c-281.6 0-512 230.4-512 512s230.4 512 512 512 512-230.4 512-512-230.4-512-512-512zM512 899.2c-249.6 0-451.2-201.6-451.2-451.2s201.6-451.2 451.2-451.2 451.2 201.6 451.2 451.2-201.6 451.2-451.2 451.2zM768 448l-384-227.2v454.4l384-227.2z" />
<glyph unicode="&#xe91b;" glyph-name="x" d="M0.035 82.334l877.661 877.661 146.277-146.277-877.661-877.661-146.277 146.277zM0.035 813.718l146.277 146.277 877.661-877.661-146.277-146.277-877.661 877.661z" />
<glyph unicode="&#xe91c;" glyph-name="instagram" d="M512.343 710.456c-145.339 0-262.57-117.231-262.57-262.57s117.231-262.57 262.57-262.57 262.57 117.231 262.57 262.57-117.231 262.57-262.57 262.57zM512.343 277.181c-93.922 0-170.705 76.554-170.705 170.705s76.554 170.705 170.705 170.705 170.705-76.554 170.705-170.705-76.783-170.705-170.705-170.705v0zM846.897 721.196c0-34.050-27.422-61.243-61.243-61.243-34.050 0-61.243 27.422-61.243 61.243s27.422 61.243 61.243 61.243 61.243-27.422 61.243-61.243zM1020.801 659.039c-3.885 82.039-22.624 154.708-82.724 214.581-59.872 59.872-132.542 78.611-214.581 82.724-84.553 4.799-337.982 4.799-422.534 0-81.81-3.885-154.48-22.624-214.581-82.496s-78.611-132.542-82.724-214.581c-4.799-84.553-4.799-337.982 0-422.534 3.885-82.039 22.624-154.708 82.724-214.581s132.542-78.611 214.581-82.724c84.553-4.799 337.982-4.799 422.534 0 82.039 3.885 154.708 22.624 214.581 82.724 59.872 59.872 78.611 132.542 82.724 214.581 4.799 84.553 4.799 337.753 0 422.306v0zM911.568 146.010c-17.825-44.79-52.331-79.297-97.35-97.35-67.414-26.737-227.378-20.567-301.875-20.567s-234.69-5.942-301.875 20.567c-44.79 17.825-79.297 52.331-97.35 97.35-26.737 67.414-20.567 227.378-20.567 301.875s-5.942 234.69 20.567 301.875c17.825 44.79 52.331 79.297 97.35 97.35 67.414 26.737 227.378 20.567 301.875 20.567s234.69 5.942 301.875-20.567c44.79-17.825 79.297-52.331 97.35-97.35 26.737-67.414 20.567-227.378 20.567-301.875s6.17-234.69-20.567-301.875z" />
<glyph unicode="&#xe91d;" glyph-name="logo-logi-g-horizontal" horiz-adv-x="4054" d="M839.739 267.67c-65.351 0-117.436 51.593-117.436 118.91 0 66.334 51.593 117.436 117.436 117.436 66.334 0 117.927-51.102 117.927-117.927 0-67.317-51.593-118.418-117.927-118.418zM1056.43 508.438v81.566h-143.478c-23.094 7.862-47.662 12.775-73.213 12.775-123.823 0-221.113-93.85-221.113-216.691s97.29-216.691 221.113-216.691c123.823 0 221.113 94.342 221.113 216.691 0 41.274-11.301 82.058-33.413 112.522l28.99 9.827zM362.626 267.67c-65.351 0-117.436 51.593-117.436 118.91 0 66.334 51.593 117.436 117.436 117.436 66.334 0 117.927-51.102 117.927-117.927 0.491-67.317-51.593-118.418-117.927-118.418zM362.626 602.779c-123.823 0-221.113-93.85-221.113-216.691s97.29-216.691 221.113-216.691c123.823 0 221.113 94.342 221.113 216.691s-97.29 216.691-221.113 216.691zM0 180.699h102.203v582.265h-102.203v-582.265zM1101.144 180.699h102.203v409.305h-102.203v-409.305zM839.739 35.747c-65.351 0-117.436 51.102-117.436 117.436h-103.678c0-122.841 97.29-216.691 221.113-216.691s221.113 93.85 221.113 216.691h-103.678c-0.491-66.334-52.084-117.436-117.436-117.436zM1578.749 427.854c13.758 54.050 55.033 84.514 108.591 84.514s93.359-29.482 106.134-84.514h-214.726zM1689.797 602.779c-122.841 0-216.2-93.85-216.2-219.148 0-123.823 85.497-214.726 217.674-214.726 73.213 0 138.564 27.025 186.718 78.127l-68.791 67.808c-33.413-31.939-69.282-55.033-115.47-55.033-56.015 0-98.273 31.939-112.522 85.497h317.912v24.568c0.491 139.547-85.988 232.906-209.321 232.906zM2766.372 631.278v12.775h7.862c6.388 0 8.845-2.457 8.845-6.388s-2.457-6.388-8.845-6.388h-7.862zM2787.501 637.666c0 7.862-5.405 11.301-13.758 11.301h-12.284v-36.852h4.914v14.25h7.862l8.845-14.25h5.405l-9.336 15.232c5.405 0.983 8.353 3.931 8.353 10.319zM2592.921 602.779c-50.119 0-93.359-19.163-123.823-51.593v211.777h-102.203v-582.265h102.203v222.587c0 58.964 37.344 99.747 99.747 99.747 57.981 0 89.919-35.869 89.919-99.747v-222.587h102.695v240.768c0 113.505-71.248 181.313-168.537 181.313zM2774.234 599.34c-17.689 0-30.956 13.758-30.956 30.956 0 16.706 13.758 30.464 30.956 30.464 16.706 0 30.464-13.758 30.464-30.464 0-17.198-13.758-30.956-30.464-30.956zM2774.234 665.674c-20.146 0-35.869-15.724-35.869-34.887 0-20.146 15.724-35.869 35.869-35.869 19.163 0 34.887 15.724 34.887 35.869 0 19.163-15.724 34.887-34.887 34.887zM2153.152 504.015c43.24 0 78.127-22.111 105.152-53.559l70.756 70.265c-39.8 50.119-102.695 82.058-174.434 82.058-123.823 0-221.113-93.85-221.113-216.691s97.29-216.691 221.113-216.691c71.739 0 134.633 31.939 174.434 82.058l-70.756 69.774c-26.534-30.464-62.403-53.559-106.134-53.559-65.351 0-115.47 51.102-115.47 117.927 0 67.317 50.119 118.418 116.453 118.418zM1404.315 715.793h-102.203v-125.789h-55.033v-90.902h55.033v-318.403h102.203v318.403h56.015v90.902h-56.015v125.789zM1151.263 774.265c-37.344 0-66.825-29.482-66.825-67.808 0-37.344 29.482-66.825 66.825-66.825 39.309 0 68.791 29.482 68.791 66.825 0 38.326-29.482 67.808-68.791 67.808zM3537.321 960v-206.372c-162.641 0-291.869-130.702-291.869-290.887s129.228-290.887 291.869-290.887v-206.372c-276.146 0-500.699 223.079-500.699 497.259-0.491 274.18 224.553 497.259 500.699 497.259zM3544.2 552.169v-205.39h240.768v-240.768h205.39v446.157h-446.157z" />
<glyph unicode="&#xe91e;" glyph-name="equals" horiz-adv-x="1980" d="M0 618.667v341.333h1979.733v-341.333h-1979.733zM0-64v341.333h1979.733v-341.333h-1979.733z" />
<glyph unicode="&#xe91f;" glyph-name="plus" d="M423.724 960h176.552v-1024h-176.552v1024zM0 359.724v176.552h1024v-176.552h-1024z" />
<glyph unicode="&#xe920;" glyph-name="twitch-no-status" horiz-adv-x="978" d="M68.8 960l-68.8-175.771v-718.4h244.571v-129.829h137.6l129.829 129.829h198.857l267.429 267.429v626.743h-909.486zM886.629 379.2l-152.914-152.914h-244.571l-129.829-129.829v129.829h-206.4v642.057h733.714v-489.143zM733.714 692.571v-267.2h-91.657v267.2h91.657zM489.143 692.571v-267.2h-91.657v267.2h91.657z" />
<glyph unicode="&#xe921;" glyph-name="link" d="M628.444 564.44c102.182-102.182 108.754-264.574 19.5-374.32-12.484-15.46-5.568-7.73-169.88-172.040-109.392-109.392-286.532-109.49-395.98 0-109.422 109.38-109.468 286.51 0 395.98 65.546 65.546 103.67 103.798 126.818 126.914 14.926 14.904 40.662 4.708 40.972-16.384 0.406-27.035 3.844-53.067 9.987-78.034l-0.495 2.378c1.932-8.058-0.544-16.538-6.404-22.396l-91.698-91.678c-65.51-65.55-65.774-171.784 0-237.6 65.55-65.51 171.784-65.774 237.6 0l150.38 150.4c65.436 65.45 65.554 172.026 0 237.58-12.954 12.977-28.022 23.837-44.645 32.021l-0.983 0.437c-9.246 4.466-14.364 14.5-13.122 24.692 2.712 22.244 12.592 43.77 29.63 60.81l8.75 8.75c7.25 7.252 18.354 9.188 27.52 4.588 25.998-13.048 50.374-30.422 72.050-52.098zM941.916 877.92c-109.448 109.49-286.588 109.392-395.98 0-164.312-164.312-157.396-156.58-169.88-172.040-89.254-109.746-82.682-272.138 19.5-374.32 21.676-21.676 46.052-39.050 72.050-52.098 9.164-4.6 20.268-2.662 27.52 4.588l8.75 8.75c17.040 17.038 26.918 38.566 29.63 60.81 1.242 10.192-3.876 20.226-13.122 24.692-17.606 8.621-32.675 19.481-45.626 32.456l-0.002 0.002c-65.554 65.554-65.436 172.13 0 237.58l150.38 150.4c65.816 65.774 172.050 65.51 237.6 0 65.774-65.816 65.51-172.050 0-237.6l-91.696-91.68c-5.86-5.858-8.336-14.338-6.404-22.396 5.648-22.589 9.086-48.621 9.489-75.388l0.003-0.268c0.31-21.092 26.046-31.288 40.972-16.384 23.148 23.116 61.272 61.368 126.818 126.914 109.466 109.47 109.42 286.6-0.002 395.982z" />
<glyph unicode="&#xe922;" glyph-name="logo-logi-g-vertical" horiz-adv-x="802" d="M303.441 95.934v23.457h-41.201c-6.616 2.406-13.834 3.609-21.051 3.609-35.487 0-63.455-27.066-63.455-62.252s27.968-62.252 63.455-62.252c35.487 0 63.455 27.066 63.455 62.252 0 12.029-3.308 23.457-9.623 32.179l8.421 3.007zM241.189 26.765c-18.646 0-33.682 14.736-33.682 33.983 0 18.946 14.736 33.682 33.682 33.682s33.983-14.736 33.983-33.983c-0.301-18.946-15.037-33.682-33.983-33.682zM104.054 123c-35.487 0-63.455-27.066-63.455-62.252s27.968-62.252 63.455-62.252c35.487 0 63.455 27.066 63.455 62.252s-27.968 62.252-63.455 62.252zM104.054 26.765c-18.646 0-33.682 14.736-33.682 33.983 0 18.946 14.736 33.682 33.682 33.682s33.983-14.736 33.983-33.983c0-18.946-14.736-33.682-33.983-33.682zM0 2.105h29.171v167.208h-29.171v-167.208zM316.072 2.105h29.171v117.587h-29.171v-117.587zM241.189-39.697c-18.646 0-33.682 14.736-33.682 33.682h-29.773c0-35.186 27.968-62.252 63.455-62.252s63.455 27.066 63.455 62.252h-29.773c-0.301-18.946-15.037-33.682-33.682-33.682zM485.084 123c-35.186 0-61.951-27.066-61.951-62.853 0-35.487 24.359-61.651 62.553-61.651 21.051 0 39.697 7.819 53.531 22.555l-19.548 19.548c-9.623-9.022-19.848-15.939-33.081-15.939-15.939 0-28.269 9.022-32.179 24.359h91.423v7.218c-0.601 39.998-25.262 66.763-60.748 66.763zM453.206 72.777c3.91 15.638 15.939 24.359 31.276 24.359s26.765-8.421 30.374-24.359h-61.651zM800.254 133.225c0 2.406-1.504 3.308-3.91 3.308h-3.609v-10.526h1.504v4.21h2.406l2.406-4.21h1.504l-2.707 4.21c1.504 0.301 2.406 1.203 2.406 3.007zM794.239 131.421v3.609h2.406c1.804 0 2.406-0.601 2.406-1.804s-0.601-1.804-2.406-1.804h-2.406zM744.618 123c-14.435 0-26.765-5.413-35.487-14.736v60.748h-29.472v-167.208h29.171v63.756c0 16.841 10.826 28.57 28.57 28.57 16.841 0 25.863-10.225 25.863-28.57v-63.756h29.171v69.169c0.301 32.479-20.149 52.027-47.817 52.027zM796.344 141.044c-5.714 0-10.225-4.511-10.225-9.924 0-5.714 4.511-10.225 10.225-10.225 5.413 0 9.924 4.511 9.924 10.225 0.301 5.413-4.21 9.924-9.924 9.924zM796.344 122.098c-5.112 0-9.022 3.91-9.022 9.022 0 4.812 3.91 8.721 9.022 8.721 4.812 0 8.721-3.91 8.721-8.721 0-5.112-3.91-9.022-8.721-9.022zM618.009 94.731c12.33 0 22.555-6.315 30.073-15.337l20.45 20.149c-11.428 14.435-29.472 23.457-50.223 23.457-35.487 0-63.455-27.066-63.455-62.252s27.968-62.252 63.455-62.252c20.751 0 38.795 9.022 50.223 23.457l-20.45 20.149c-7.518-8.721-17.743-15.337-30.374-15.337-18.646 0-33.081 14.736-33.081 33.983s14.435 33.983 33.381 33.983zM403.285 155.479h-29.171v-36.088h-15.939v-26.164h15.939v-91.423h29.171v91.423h15.939v26.164h-15.939v36.088zM330.507 172.32c-10.826 0-19.247-8.421-19.247-19.548 0-10.826 8.421-19.247 19.247-19.247 11.127 0 19.548 8.421 19.548 19.247 0.301 11.127-8.12 19.548-19.548 19.548zM404.488 294.418c-183.448 0-332.913 148.262-332.913 330.808 0 182.245 149.465 330.507 332.913 330.507v-137.135c-108.264 0-193.974-86.912-193.974-193.372s85.709-193.372 193.974-193.372v-137.436zM566.884 387.947h136.533v296.524h-296.524v-136.533h159.991v-159.991z" />
<glyph unicode="&#xe923;" glyph-name="youku" horiz-adv-x="3291" d="M3101.987 820.061c-2.221 114.395 195.471 113.284 188.807-4.443 0-115.505 0-232.121 0-347.627-12.217-165.484-114.395-239.896-275.436-255.445-27.766 0-54.421 0-82.187 0-164.373 15.549-267.662 93.293-275.436 265.44 0 83.297 0 167.705 0 251.002 0 11.106 0 22.213 0 33.319 0 15.549 0 32.208 0 47.757-1.111 4.443 2.221 4.443 4.443 4.443-12.217 113.284 188.807 124.39 183.254 9.996 3.332-117.727-6.664-247.67 4.443-357.623-4.443-142.161 246.56-144.382 246.56-4.443 12.217 109.952 3.332 241.007 5.553 357.623zM2648.85 361.371c38.872-72.191-7.774-172.148-111.063-149.935-51.089 11.106-96.625 82.187-144.382 125.501-49.978 45.536-105.51 86.629-144.382 125.501-26.655 39.983-18.881-27.766-18.881-67.748 0-44.425 0-95.514 0-115.505-5.553-41.093-27.766-65.527-67.748-72.191-18.881 0-38.872 0-57.753 0-42.204 4.443-58.863 34.43-67.748 72.191 0 178.811 0 357.623 0 536.434 1.111 102.178 192.139 102.178 193.249 0 0-63.306 0-125.501 0-188.807 31.098 15.549 49.978 43.315 72.191 67.748 19.991 15.549 37.761 33.319 53.31 53.31 32.208 28.876 63.306 58.863 92.182 92.182 35.54 78.855 184.364 73.302 195.471-24.434 15.549-135.497-168.816-183.254-203.245-260.998 51.089-67.748 167.705-116.616 208.798-193.249zM1822.542 820.061c-13.328 121.059 198.803 111.063 188.807 0 0-118.837 0-237.675 0-357.623-16.659-161.041-118.837-234.343-285.432-246.56-21.102 0-42.204 0-62.195 0-169.926 11.106-273.215 87.74-279.879 260.998-3.332 17.77 6.664 47.757-4.443 57.753-1.111 0-3.332 0-4.443 0-22.213-199.913-125.501-314.308-314.308-328.746-286.542-22.213-458.69 275.436-323.193 540.876 48.868 99.957 152.156 168.816 278.768 175.479 207.688 9.996 332.078-138.829 362.065-347.627 11.106 68.859 1.111 159.931 4.443 236.564-14.438 126.612 203.245 127.722 188.807 0 3.332-118.837-6.664-251.002 4.443-362.065 14.438-117.727 242.117-113.284 241.007 14.438 12.217 108.842 2.221 239.896 5.553 356.512zM1180.599 531.297c7.774 9.996 7.774 53.31 0 63.306-3.332 141.050-157.709 203.245-246.56 119.948-108.842-101.067-56.642-355.401 106.62-347.627 85.518 3.332 128.833 73.302 139.939 164.373zM750.785 883.367c16.659-79.965-59.974-185.475-92.182-255.445-75.523-171.037-138.829-313.197-212.13-478.681-35.54-81.076-64.416-169.926-129.944-212.13-274.325-16.659-69.97 284.321-28.876 390.941-63.306 117.727-144.382 254.334-217.683 380.946-33.319 57.753-116.616 168.816-33.319 232.121 29.987 23.323 98.846 24.434 129.944 0 96.625-74.412 151.046-275.436 232.121-366.508 29.987 49.978 56.642 119.948 86.629 188.807 27.766 62.195 51.089 149.935 92.182 178.811 62.195 42.204 159.931 4.443 173.258-58.863z" />
<glyph unicode="&#xe924;" glyph-name="ff" horiz-adv-x="1536" d="M597.376 276.928l-0.768-341.44 682.176 512-682.176 512.512v-341.696zM0.512 276.928l-0.512-341.44 682.176 512-682.176 512.512v-341.696zM1278.016 960h257.984v-1024h-257.984v1024z" />
</font>
</defs>
</svg>
