<?xml version="1.0" standalone="no"?>
<!DOCTYPE svg PUBLIC "-//W3C//DTD SVG 1.1//EN" "http://www.w3.org/Graphics/SVG/1.1/DTD/svg11.dtd" >
<svg xmlns="http://www.w3.org/2000/svg" xmlns:xlink="http://www.w3.org/1999/xlink" version="1.1">
<metadata>
Created by FontForge 20170731 at Wed Jul 22 00:37:12 2020
 By Aleksey,,,
(c) 2015 MCKL. All Rights Reserved.
</metadata>
<defs>
<font id="HoneywellSans-Book" horiz-adv-x="1236" >
  <font-face 
    font-family="Honeywell Sans"
    font-weight="400"
    font-stretch="normal"
    units-per-em="2048"
    panose-1="2 1 5 3 4 1 1 6 2 3"
    ascent="1585"
    descent="-463"
    x-height="987"
    cap-height="1434"
    bbox="-199 -522 2849 1929"
    underline-thickness="102"
    underline-position="-307"
    unicode-range="U+0020-FB02"
  />
<missing-glyph horiz-adv-x="1871" 
d="M225 0v1434h1422v-1434h-1422zM397 1356l539 -584l541 584h-1080zM989 715l565 -611v1221zM883 715l-566 610v-1221zM934 657l-535 -579h1074z" />
    <glyph glyph-name="fi" unicode="fi" horiz-adv-x="1241" 
d="M887 1276q0 41 24 63.5t66 22.5q41 0 64.5 -22.5t23.5 -63.5t-23.5 -64.5t-64.5 -23.5t-65.5 23.5t-24.5 64.5zM258 0v897h-192v90h192v152q0 321 283 321q94 0 164 -33l-19 -96q-69 29 -135 29q-91 0 -136.5 -53.5t-45.5 -178.5v-141h319v-90h-319v-897h-111zM920 987
h114v-987h-114v987z" />
    <glyph glyph-name="fl" unicode="fl" 
d="M258 0v897h-192v90h192v152q0 321 283 321q94 0 164 -33l-19 -96q-69 29 -135 29q-91 0 -136.5 -53.5t-45.5 -178.5v-141h319v-90h-319v-897h-111zM1120 0q-213 0 -213 209v1225h115v-1211q0 -73 27 -101t98 -28h70v-94h-97z" />
    <glyph glyph-name=".notdef" horiz-adv-x="1871" 
d="M225 0v1434h1422v-1434h-1422zM397 1356l539 -584l541 584h-1080zM989 715l565 -611v1221zM883 715l-566 610v-1221zM934 657l-535 -579h1074z" />
    <glyph glyph-name=".null" horiz-adv-x="0" 
 />
    <glyph glyph-name="nonmarkingreturn" horiz-adv-x="682" 
 />
    <glyph glyph-name="space" unicode=" " horiz-adv-x="471" 
 />
    <glyph glyph-name="exclam" unicode="!" horiz-adv-x="432" 
d="M281 1434l-17 -1063h-96l-16 1063h129zM127 76q0 41 24 63.5t66 22.5q40 0 64 -22.5t24 -63.5q0 -40 -24 -64t-64 -24q-41 0 -65.5 24t-24.5 64z" />
    <glyph glyph-name="quotedbl" unicode="&#x22;" horiz-adv-x="563" 
d="M344 1077l-10 379h112l-10 -379h-92zM225 1077h-94l-8 379h110z" />
    <glyph glyph-name="numbersign" unicode="#" horiz-adv-x="1468" 
d="M586 920l-121 -379h430l119 379h-428zM223 920l29 88h244l135 426h119l-138 -426h430l138 426h116l-137 -426h236l-27 -88h-235l-121 -379h252l-27 -90h-254l-143 -451h-117l141 451h-428l-141 -451h-119l143 451h-225l29 90h223l121 379h-244z" />
    <glyph glyph-name="dollar" unicode="$" horiz-adv-x="1179" 
d="M551 788v508q-295 -12 -295 -233q0 -206 279 -270zM647 131q309 15 309 262q0 106 -67 165.5t-242 103.5v-531zM647 -127h-96v160q-154 8 -266.5 69t-192.5 187l86 55q76 -107 162 -157.5t211 -57.5v555l-35 8q-366 87 -366 365q0 150 99 238.5t302 95.5v178h96v-178
q141 -9 233 -60.5t154 -152.5l-88 -58q-52 83 -122 125t-177 51v-530l10 -2q225 -56 318.5 -138t93.5 -227q0 -174 -108 -265.5t-314 -100.5v-160z" />
    <glyph glyph-name="percent" unicode="%" horiz-adv-x="2093" 
d="M1323 418q0 227 82.5 330.5t253.5 103.5q170 0 251 -103.5t81 -330.5q0 -226 -82 -330t-250 -104q-172 0 -254 103t-82 331zM1892 418q0 190 -58.5 271t-174.5 81q-120 0 -179 -80t-59 -272t59 -272t177 -80t176.5 80t58.5 272zM94 1018q0 227 82.5 330.5t253.5 103.5
q170 0 251 -103.5t81 -330.5q0 -226 -82 -330t-250 -104q-172 0 -254 103t-82 331zM664 1018q0 190 -59 271t-175 81q-119 0 -178 -80t-59 -272t58.5 -272t176.5 -80t177 80t59 272zM1434 1436l-684 -1436h-111l688 1436h107z" />
    <glyph glyph-name="ampersand" unicode="&#x26;" horiz-adv-x="1433" 
d="M1190 971h110q0 -454 -184 -715q122 -85 299 -197l-55 -82q-196 122 -307 201q-189 -201 -492 -201q-137 0 -242.5 40t-170 126.5t-64.5 210.5q0 59 15.5 111t40.5 91t66 78t82 67.5t99 64.5q-154 208 -154 379q0 147 94 229t275 82q159 0 237.5 -67.5t78.5 -190.5
q0 -57 -16.5 -106.5t-44 -89.5t-79 -84t-104 -80t-135.5 -88q173 -205 493 -433q164 237 158 654zM344 1141q0 -146 133 -320q97 60 150.5 97.5t99 81.5t63 86.5t17.5 95.5q0 89 -54 135.5t-157 46.5q-126 0 -189 -58.5t-63 -164.5zM569 72q243 0 400 164q-332 238 -520 456
q-131 -82 -190.5 -156t-59.5 -176q0 -135 101 -211.5t269 -76.5z" />
    <glyph glyph-name="quotesingle" unicode="'" horiz-adv-x="348" 
d="M131 1077l-8 379h110l-8 -379h-94z" />
    <glyph glyph-name="parenleft" unicode="(" horiz-adv-x="704" 
d="M590 -68l-8 -86q-229 31 -347 237t-118 576t118 576.5t347 237.5l8 -87q-367 -68 -367 -727t367 -727z" />
    <glyph glyph-name="parenright" unicode=")" horiz-adv-x="704" 
d="M115 -68l8 -86q229 31 347 237t118 576t-118 576.5t-347 237.5l-8 -87q366 -68 366 -727t-366 -727z" />
    <glyph glyph-name="asterisk" unicode="*" horiz-adv-x="813" 
d="M219 741l-78 62l197 246l-283 79l27 95l278 -95l-10 328h107l-13 -328l281 95l27 -93l-281 -81l195 -246l-76 -62l-187 256z" />
    <glyph glyph-name="plus" unicode="+" horiz-adv-x="1015" 
d="M559 227h-100v355h-357v94h357v364h100v-364h354v-94h-354v-355z" />
    <glyph glyph-name="comma" unicode="," horiz-adv-x="436" 
d="M150 -236l-25 54q49 21 77 69t31 109q-48 -11 -76 14t-28 68q0 40 23.5 62t62.5 22q92 0 92 -127q0 -97 -39.5 -171t-117.5 -100z" />
    <glyph glyph-name="hyphen" unicode="-" horiz-adv-x="847" 
d="M748 559v-94h-646v94h646z" />
    <glyph glyph-name="period" unicode="." horiz-adv-x="436" 
d="M129 76q0 41 24 63.5t66 22.5q40 0 64 -22.5t24 -63.5q0 -40 -24 -64t-64 -24q-41 0 -65.5 24t-24.5 64z" />
    <glyph glyph-name="slash" unicode="/" horiz-adv-x="976" 
d="M956 1436l-813 -1436h-123l811 1436h125z" />
    <glyph glyph-name="zero" unicode="0" horiz-adv-x="1280" 
d="M86 717q0 391 135.5 565t417.5 174t417.5 -174t135.5 -565q0 -387 -136 -563.5t-417 -176.5q-282 0 -417.5 174.5t-135.5 565.5zM1073 717q0 178 -28.5 303t-85.5 199t-135 107.5t-185 33.5t-185 -32.5t-135 -106.5t-85.5 -199.5t-28.5 -304.5q0 -181 28.5 -306.5
t85.5 -199t135 -105.5t185 -32t185 32t135 105.5t85.5 199t28.5 306.5z" />
    <glyph glyph-name="one" unicode="1" horiz-adv-x="1280" 
d="M199 0v104h370v1180l-204 -158l-54 91l299 217h74v-1330h395v-104h-880z" />
    <glyph glyph-name="two" unicode="2" horiz-adv-x="1280" 
d="M133 0v111l539 520q160 154 222 259.5t62 201.5q1 131 -82 199.5t-241 68.5q-154 0 -248 -61t-162 -193l-86 61q79 149 197 219t307 70q213 0 322.5 -95t109.5 -263q0 -120 -74.5 -242.5t-257.5 -300.5l-465 -459l875 2v-98h-1018z" />
    <glyph glyph-name="three" unicode="3" horiz-adv-x="1280" 
d="M629 -23q-179 0 -298 58t-194 184l84 66q66 -110 163.5 -160.5t242.5 -50.5q197 0 297 86t100 246q0 136 -77.5 216t-246.5 80h-215v101h211q126 0 205.5 76.5t79.5 207.5q0 135 -88.5 204t-257.5 69q-139 0 -228.5 -53t-154.5 -172l-84 63q75 133 187 195.5t288 62.5
q220 0 337.5 -94t117.5 -272q0 -114 -59 -201.5t-165 -130.5q140 -32 204.5 -125t64.5 -217q0 -203 -130 -321t-384 -118z" />
    <glyph glyph-name="four" unicode="4" horiz-adv-x="1280" 
d="M61 389v82l500 963h123l-498 -945h684v703h115v-703h234v-100h-234v-389h-115v389h-809z" />
    <glyph glyph-name="five" unicode="5" horiz-adv-x="1280" 
d="M354 1333l-55 -547q151 111 369 111q82 0 153 -15.5t131.5 -49t103.5 -83.5t67 -123t24 -163q0 -220 -137.5 -353t-391.5 -133q-343 0 -485 242l86 68q127 -215 399 -215q202 0 307 106t105 281q0 170 -99.5 258t-287.5 88q-119 0 -210.5 -35.5t-180.5 -105.5l-66 32
l76 738h809v-101h-717z" />
    <glyph glyph-name="six" unicode="6" horiz-adv-x="1280" 
d="M680 -23q-125 0 -225.5 42t-176.5 128t-117.5 228t-41.5 332q0 383 148.5 566t420.5 183q321 0 436 -225l-88 -62q-104 191 -354 191q-449 0 -449 -664q0 -76 9 -135q30 152 148.5 243t295.5 91q222 0 349.5 -116.5t127.5 -332.5t-125.5 -342.5t-357.5 -126.5zM285 424
q0 -69 25 -132t72 -112.5t122.5 -78.5t169.5 -29q172 0 272.5 93.5t100.5 272.5q0 172 -97.5 266.5t-281.5 94.5q-173 0 -278 -102t-105 -273z" />
    <glyph glyph-name="seven" unicode="7" horiz-adv-x="1280" 
d="M426 0q1 239 62.5 488t183 475.5t282.5 369.5h-784v101h940v-101q-166 -102 -296 -318t-199 -481t-72 -534h-117z" />
    <glyph glyph-name="eight" unicode="8" horiz-adv-x="1280" 
d="M639 -23q-240 0 -372 110t-132 304q0 150 85.5 245t230.5 124q-123 30 -193 115.5t-70 214.5q0 180 115.5 273t335.5 93t335.5 -93t115.5 -271q0 -130 -69.5 -215.5t-191.5 -116.5q143 -29 228.5 -124.5t85.5 -244.5q0 -194 -131.5 -304t-372.5 -110zM977 1090
q0 133 -86 203.5t-252 70.5t-252 -70.5t-86 -203.5q0 -131 87 -206t251 -75t251 75t87 206zM1028 395q0 148 -102.5 232t-286.5 84q-183 0 -285 -84t-102 -232q0 -154 99 -237.5t288 -83.5t289 84t100 237z" />
    <glyph glyph-name="nine" unicode="9" horiz-adv-x="1280" 
d="M995 1010q0 70 -25 132t-71.5 112t-122.5 79t-170 29q-172 0 -272.5 -95t-100.5 -278q0 -172 97.5 -267t281.5 -95q172 0 277.5 104.5t105.5 278.5zM594 -23q-323 0 -442 226l88 61q107 -190 360 -190q447 0 447 663q0 59 -7 131q-31 -153 -150 -244.5t-296 -91.5
q-221 0 -348 118.5t-127 336.5q0 217 124.5 343t356.5 126q126 0 226 -41t176 -126t117.5 -227.5t41.5 -334.5q0 -383 -147.5 -566.5t-419.5 -183.5z" />
    <glyph glyph-name="colon" unicode=":" horiz-adv-x="436" 
d="M129 76q0 41 24 63.5t66 22.5q40 0 64 -22.5t24 -63.5q0 -40 -24 -64t-64 -24q-41 0 -65.5 24t-24.5 64zM129 868q0 41 24 63.5t66 22.5q40 0 64 -22.5t24 -63.5q0 -40 -24 -64t-64 -24q-41 0 -65.5 24t-24.5 64z" />
    <glyph glyph-name="semicolon" unicode=";" horiz-adv-x="436" 
d="M150 -236l-25 54q49 21 77 69t31 109q-48 -11 -76 14t-28 68q0 40 23.5 62t62.5 22q92 0 92 -127q0 -97 -39.5 -171t-117.5 -100zM129 868q0 41 24 63.5t66 22.5q40 0 64 -22.5t24 -63.5q0 -40 -24 -64t-64 -24q-41 0 -65.5 24t-24.5 64z" />
    <glyph glyph-name="less" unicode="&#x3c;" horiz-adv-x="940" 
d="M707 1040l57 -73l-459 -330l459 -330l-57 -80l-537 381v54z" />
    <glyph glyph-name="equal" unicode="=" horiz-adv-x="1015" 
d="M913 809v-94h-811v94h811zM913 553v-96h-811v96h811z" />
    <glyph glyph-name="greater" unicode="&#x3e;" horiz-adv-x="940" 
d="M233 227l-57 74l463 332l-463 330l60 77l534 -378v-52z" />
    <glyph glyph-name="question" unicode="?" horiz-adv-x="1030" 
d="M424 371v291h63q186 0 284.5 93t98.5 263q0 163 -101.5 250.5t-283.5 87.5q-142 0 -235 -57t-158 -191l-86 59q71 151 190.5 220t301.5 69q224 0 356.5 -115.5t132.5 -314.5t-117 -315t-331 -123v-217h-115zM393 76q0 41 24 63.5t64 22.5q41 0 64.5 -22.5t23.5 -63.5
q0 -40 -23.5 -64t-64.5 -24q-40 0 -64 24t-24 64z" />
    <glyph glyph-name="at" unicode="@" horiz-adv-x="1675" 
d="M1391 2q-192 -201 -533 -201q-329 0 -516.5 189t-187.5 506q0 316 187.5 504t516.5 188q314 0 488 -170.5t174 -458.5q0 -178 -75.5 -280.5t-217.5 -102.5q-170 0 -191 156q-67 -174 -272 -174q-106 0 -169 52.5t-63 151.5q0 100 77.5 155.5t228.5 55.5h192
q-1 122 -50 170t-155 48q-81 0 -131 -24t-84 -71l-45 49q75 115 269 115q135 0 206.5 -67t71.5 -218v-186q0 -79 31.5 -117.5t99.5 -38.5q101 0 158 85.5t57 238.5q0 273 -160.5 423t-439.5 150q-296 0 -468.5 -167.5t-172.5 -466.5q0 -301 172.5 -469t468.5 -168
q322 0 496 186zM780 225q112 0 177 73t73 198v16h-188q-228 0 -228 -147q0 -140 166 -140z" />
    <glyph glyph-name="A" unicode="A" 
d="M614 1321l-319 -897h641zM1087 0l-116 324h-709l-115 -324h-122l520 1434h147l520 -1434h-125z" />
    <glyph glyph-name="B" unicode="B" horiz-adv-x="1380" 
d="M236 0v1434h571q209 0 308 -97.5t99 -269.5q0 -119 -61 -206.5t-166 -119.5q69 -11 122 -44.5t84 -80.5t46.5 -101t15.5 -112q0 -202 -115 -302.5t-358 -100.5h-546zM809 1335h-459v-551h473q133 0 204 79.5t71 195.5q0 136 -76.5 206t-212.5 70zM823 682h-473v-584h441
q176 0 262 74t86 231q0 131 -79.5 205t-236.5 74z" />
    <glyph glyph-name="C" unicode="C" horiz-adv-x="1425" 
d="M788 -23q-154 0 -268 40.5t-195.5 128.5t-122 230.5t-40.5 340.5q0 200 40.5 342.5t122 229.5t195 127t268.5 40q188 0 315.5 -63.5t199.5 -202.5l-95 -64q-62 125 -165 178.5t-255 53.5q-123 0 -213 -31t-158 -103t-102 -198t-34 -307q0 -145 23 -254.5t64.5 -183
t105 -119.5t140 -66t174.5 -20q158 0 268 58.5t181 193.5l88 -60q-81 -153 -214 -222t-323 -69z" />
    <glyph glyph-name="D" unicode="D" horiz-adv-x="1519" 
d="M754 0h-518v1434h520q302 0 452 -167.5t150 -537.5q0 -374 -152.5 -551.5t-451.5 -177.5zM354 100h396q115 0 202 32.5t153 104.5t100 195t34 295q0 167 -32.5 285.5t-96.5 188t-150 101t-202 31.5h-404v-1233z" />
    <glyph glyph-name="E" unicode="E" horiz-adv-x="1337" 
d="M236 0v1434h1003v-101h-889v-561h778v-102h-778v-570h910v-100h-1024z" />
    <glyph glyph-name="F" unicode="F" horiz-adv-x="1243" 
d="M236 0v1434h972v-101h-854v-573h766v-103h-766v-657h-118z" />
    <glyph glyph-name="G" unicode="G" horiz-adv-x="1490" 
d="M770 -23q-608 0 -608 740q0 200 40.5 342.5t122 229.5t195 127t268.5 40q371 0 512 -262l-94 -66q-63 121 -165.5 175.5t-252.5 54.5q-124 0 -213 -30.5t-157.5 -102.5t-102.5 -198.5t-34 -309.5q0 -179 34 -304.5t101 -198.5t156.5 -105.5t211.5 -32.5q73 0 136 14.5
t119.5 48t97.5 85t66.5 130t29.5 178.5v52h-426v94h536v-678h-100l-8 260q-54 -137 -175 -210t-290 -73z" />
    <glyph glyph-name="H" unicode="H" horiz-adv-x="1603" 
d="M1249 0v670h-895v-670h-118v1434h118v-662h895v662h119v-1434h-119z" />
    <glyph glyph-name="I" unicode="I" horiz-adv-x="589" 
d="M236 0v1434h118v-1434h-118z" />
    <glyph glyph-name="J" unicode="J" horiz-adv-x="1026" 
d="M346 -23q-174 0 -299 91l55 92q101 -82 252 -82q171 0 266 106t95 334v916h116v-908q0 -149 -34.5 -256.5t-99.5 -171t-151.5 -92.5t-199.5 -29z" />
    <glyph glyph-name="K" unicode="K" horiz-adv-x="1282" 
d="M236 0v1434h118v-856l733 856h142l-555 -643l594 -791h-142l-530 705l-242 -279v-426h-118z" />
    <glyph glyph-name="L" unicode="L" horiz-adv-x="1267" 
d="M354 100h865v-100h-983v1434h118v-1334z" />
    <glyph glyph-name="M" unicode="M" horiz-adv-x="1921" 
d="M913 0l-567 1235l2 -1235h-112v1434h131l594 -1297l593 1297h129v-1434h-112l4 1235l-567 -1235h-95z" />
    <glyph glyph-name="N" unicode="N" horiz-adv-x="1585" 
d="M1227 0l-881 1262l4 -1262h-114v1434h122l879 -1258l-2 1258h115v-1434h-123z" />
    <glyph glyph-name="O" unicode="O" horiz-adv-x="1574" 
d="M786 -23q-315 0 -469.5 175.5t-154.5 564.5t155 564t469 175q321 0 475 -174t154 -565q0 -388 -157 -564t-472 -176zM786 1358q-125 0 -215.5 -31.5t-157 -104t-99.5 -198t-33 -307.5q0 -179 33 -303.5t99.5 -198.5t157 -106.5t215.5 -32.5q126 0 217 32t158.5 105.5
t101 199t33.5 306.5q0 143 -22.5 251.5t-63.5 182t-104.5 119.5t-141.5 66t-178 20z" />
    <glyph glyph-name="P" unicode="P" horiz-adv-x="1368" 
d="M236 0v1434h542q245 0 362 -111.5t117 -331.5q0 -219 -120.5 -341t-362.5 -122h-420v-528h-118zM780 1333h-426v-704h434q166 0 258.5 91.5t92.5 266.5q0 177 -88 261.5t-271 84.5z" />
    <glyph glyph-name="Q" unicode="Q" horiz-adv-x="1572" 
d="M1124 47l189 -235h-135l-156 194q-113 -29 -236 -29q-315 0 -469.5 175.5t-154.5 564.5t155 564t469 175q321 0 475 -174t154 -565q0 -517 -291 -670zM786 1358q-125 0 -215.5 -31.5t-157 -104t-99.5 -198t-33 -307.5q0 -179 33 -303.5t99.5 -198.5t157 -106.5
t215.5 -32.5q98 0 166 16l-202 256h137l172 -217q118 63 177.5 204.5t59.5 383.5q0 143 -22.5 251.5t-63.5 182t-104.5 119.5t-141.5 66t-178 20z" />
    <glyph glyph-name="R" unicode="R" horiz-adv-x="1359" 
d="M778 1333h-424v-661h432q165 0 256 85t91 251q0 164 -87.5 244.5t-267.5 80.5zM236 0v1434h540q243 0 358 -106t115 -316q0 -165 -75 -274t-226 -148l322 -590h-129l-314 571q-10 -2 -32 -2h-441v-569h-118z" />
    <glyph glyph-name="S" unicode="S" horiz-adv-x="1261" 
d="M1102 1202l-96 -59q-63 113 -155 166t-241 53q-183 0 -272.5 -74t-89.5 -203q0 -108 75 -177.5t242 -108.5l129 -31q240 -57 341.5 -146.5t101.5 -244.5q0 -190 -133 -295t-381 -105q-191 0 -323.5 64t-219.5 207l94 61q82 -128 183.5 -181.5t263.5 -53.5q205 0 303 77
t98 218q0 110 -73 173t-271 113l-133 33q-208 52 -310 146t-102 247q0 172 124 273.5t355 101.5q185 0 300 -61.5t190 -192.5z" />
    <glyph glyph-name="T" unicode="T" horiz-adv-x="1157" 
d="M27 1434h1103v-101h-493v-1333h-117v1333h-493v101z" />
    <glyph glyph-name="U" unicode="U" horiz-adv-x="1519" 
d="M1208 543v891h117v-887q0 -283 -147.5 -426.5t-417.5 -143.5q-271 0 -418 143t-147 427v887h118v-891q0 -467 447 -467q213 0 330.5 112.5t117.5 354.5z" />
    <glyph glyph-name="V" unicode="V" horiz-adv-x="1230" 
d="M20 1434h125l471 -1323l474 1323h120l-520 -1434h-147z" />
    <glyph glyph-name="W" unicode="W" horiz-adv-x="1855" 
d="M868 1423h117l354 -1253l377 1264h115l-436 -1434h-117l-354 1253l-351 -1253h-118l-430 1434h120l369 -1270z" />
    <glyph glyph-name="X" unicode="X" horiz-adv-x="1284" 
d="M1104 0l-465 651l-465 -651h-133l530 741l-489 693h135l428 -605l424 605h133l-491 -691l532 -743h-139z" />
    <glyph glyph-name="Y" unicode="Y" horiz-adv-x="1226" 
d="M555 580l-522 854h129l452 -752l455 752h125l-520 -854v-580h-119v580z" />
    <glyph glyph-name="Z" unicode="Z" horiz-adv-x="1169" 
d="M53 0v90l918 1243h-871v101h1010v-91l-920 -1243h936v-100h-1073z" />
    <glyph glyph-name="bracketleft" unicode="[" horiz-adv-x="694" 
d="M188 -211v1663h383v-86h-278v-1489h291v-88h-396z" />
    <glyph glyph-name="backslash" unicode="\" horiz-adv-x="1003" 
d="M831 0l-811 1434h119l811 -1434h-119z" />
    <glyph glyph-name="bracketright" unicode="]" horiz-adv-x="694" 
d="M506 -211v1663h-383v-86h278v-1489h-290v-88h395z" />
    <glyph glyph-name="asciicircum" unicode="^" horiz-adv-x="823" 
d="M360 1436h109l303 -629v-2h-117l-241 514l-250 -514h-113v2z" />
    <glyph glyph-name="underscore" unicode="_" horiz-adv-x="980" 
d="M991 0v-90h-1001v90h1001z" />
    <glyph glyph-name="grave" unicode="`" horiz-adv-x="1228" 
d="M584 1163l-219 219v11h151l166 -224v-6h-98z" />
    <glyph glyph-name="a" unicode="a" horiz-adv-x="1153" 
d="M496 72q159 0 252 101t102 282v45h-289q-163 0 -242 -54t-79 -170q0 -99 65 -151.5t191 -52.5zM856 217q-48 -114 -147.5 -177t-239.5 -63q-156 0 -249 78t-93 217q0 152 107.5 236t322.5 84h293q1 181 -69.5 252t-227.5 71q-214 0 -313 -137l-66 70q110 162 387 162
q202 0 303 -92t101 -306v-612h-99z" />
    <glyph glyph-name="b" unicode="b" horiz-adv-x="1241" 
d="M315 1434v-660q49 117 146.5 176.5t234.5 59.5q202 0 309 -131t107 -383q0 -249 -113.5 -384t-324.5 -135q-124 0 -218 54.5t-145 165.5l-6 -197h-104v1434h114zM315 487q0 -209 93 -312t249 -103q340 0 340 422q0 421 -329 421q-161 0 -257 -107.5t-96 -320.5z" />
    <glyph glyph-name="c" unicode="c" horiz-adv-x="1093" 
d="M592 -23q-463 0 -463 515q0 518 465 518q277 0 393 -209l-84 -56q-86 170 -309 170q-182 0 -266 -98t-84 -325q0 -222 85.5 -321t262.5 -99q121 0 197.5 45t121.5 147l88 -47q-104 -240 -407 -240z" />
    <glyph glyph-name="d" unicode="d" horiz-adv-x="1241" 
d="M926 502q0 205 -94.5 309t-249.5 104q-338 0 -338 -421q0 -422 336 -422q157 0 251.5 107.5t94.5 322.5zM934 0l-6 215q-46 -118 -144 -178t-233 -60q-204 0 -313 134t-109 383t113 382.5t325 133.5q252 0 359 -207v631h112v-1434h-104z" />
    <glyph glyph-name="e" unicode="e" horiz-adv-x="1112" 
d="M588 -23q-223 0 -341 128t-118 389q0 252 117 384t338 132q207 0 313.5 -128t106.5 -356l-3 -65h-757q6 -202 92.5 -295.5t253.5 -93.5q125 0 202.5 44t120.5 146l86 -45q-104 -240 -411 -240zM580 918q-316 0 -336 -365h645q-6 186 -83 275.5t-226 89.5z" />
    <glyph glyph-name="f" unicode="f" horiz-adv-x="712" 
d="M66 987h192v152q0 321 283 321q94 0 164 -33l-19 -96q-69 29 -135 29q-91 0 -136.5 -53.5t-45.5 -178.5v-141h319v-90h-319v-897h-111v897h-192v90z" />
    <glyph glyph-name="g" unicode="g" 
d="M920 512q0 202 -94.5 304t-250.5 102q-331 0 -331 -414q0 -416 329 -416q158 0 252.5 105.5t94.5 318.5zM1034 987v-977q0 -226 -128 -333t-349 -107q-148 0 -252.5 51.5t-165.5 173.5l84 60q53 -103 134.5 -147t199.5 -44q363 0 363 344v201q-50 -107 -145.5 -161
t-225.5 -54q-201 0 -310.5 131.5t-109.5 378.5q0 244 109 375t315 131q129 0 225 -54t146 -159l12 190h98z" />
    <glyph glyph-name="h" unicode="h" horiz-adv-x="1261" 
d="M315 1434v-678q50 125 155 189.5t243 64.5q362 0 362 -385v-625h-114v594q0 168 -73 242.5t-210 74.5q-163 0 -258.5 -107t-104.5 -292v-512h-114v1434h114z" />
    <glyph glyph-name="i" unicode="i" horiz-adv-x="528" 
d="M176 1276q0 41 23.5 63.5t64.5 22.5t64.5 -22.5t23.5 -63.5t-23.5 -64.5t-64.5 -23.5t-64.5 23.5t-23.5 64.5zM207 987h115v-987h-115v987z" />
    <glyph glyph-name="j" unicode="j" horiz-adv-x="528" 
d="M176 1276q0 41 23.5 63.5t64.5 22.5t64.5 -22.5t23.5 -63.5t-23.5 -64.5t-64.5 -23.5t-64.5 23.5t-23.5 64.5zM207 -94v1081h115v-1098q0 -319 -265 -319q-76 0 -153 27l20 96q61 -25 125 -25q80 0 119 54t39 184z" />
    <glyph glyph-name="k" unicode="k" horiz-adv-x="1046" 
d="M203 0v1434h114v-1031l539 584h139l-409 -438l428 -549h-137l-365 473l-195 -205v-268h-114z" />
    <glyph glyph-name="l" unicode="l" horiz-adv-x="532" 
d="M408 0q-213 0 -213 209v1225h114v-1211q0 -73 27 -101t98 -28h70v-94h-96z" />
    <glyph glyph-name="m" unicode="m" horiz-adv-x="1873" 
d="M201 0v987h100l12 -219q49 121 145 181.5t214 60.5q132 0 210 -71.5t99 -199.5q44 135 145.5 203t235.5 68q326 0 326 -381v-629h-115v598q0 167 -62 240t-182 73q-146 0 -233.5 -101t-94.5 -282v-528h-114v594q0 168 -64.5 242.5t-185.5 74.5q-142 0 -227.5 -102.5
t-94.5 -288.5v-520h-114z" />
    <glyph glyph-name="n" unicode="n" horiz-adv-x="1261" 
d="M201 987h100l14 -223q53 123 156.5 184.5t241.5 61.5q362 0 362 -385v-625h-114v596q0 167 -72.5 241t-210.5 74q-162 0 -257 -107t-106 -292v-512h-114v987z" />
    <glyph glyph-name="o" unicode="o" horiz-adv-x="1189" 
d="M129 494q0 516 467 516q234 0 349.5 -125.5t115.5 -390.5q0 -517 -465 -517q-232 0 -349.5 126.5t-117.5 390.5zM946 492q0 223 -84.5 323t-265.5 100q-183 0 -267.5 -100t-84.5 -323q0 -220 85.5 -320t266.5 -100t265.5 100t84.5 320z" />
    <glyph glyph-name="p" unicode="p" horiz-adv-x="1241" 
d="M315 487q0 -208 93 -311.5t249 -103.5q169 0 254.5 108t85.5 316q0 419 -325 419q-162 0 -259.5 -107.5t-97.5 -320.5zM201 987h100l10 -217q49 118 149.5 179t239.5 61q201 0 306.5 -131.5t105.5 -382.5q0 -249 -114 -384t-326 -135q-121 0 -213.5 51.5t-143.5 153.5
v-563h-114v1368z" />
    <glyph glyph-name="q" unicode="q" horiz-adv-x="1241" 
d="M1038 -381h-112v586q-50 -113 -147.5 -170.5t-229.5 -57.5q-203 0 -311.5 132.5t-108.5 384.5q0 248 113 382t325 134q124 0 216.5 -55t142.5 -164l14 196h98v-1368zM926 502q0 206 -94 309.5t-250 103.5q-338 0 -338 -421q0 -422 336 -422q158 0 252 107t94 323z" />
    <glyph glyph-name="r" unicode="r" horiz-adv-x="724" 
d="M201 0v987h100l10 -246q49 129 149 195.5t230 60.5v-108q-170 10 -267 -91.5t-108 -299.5v-498h-114z" />
    <glyph glyph-name="s" unicode="s" horiz-adv-x="1036" 
d="M516 66q138 0 203 50t65 132q0 78 -50.5 118.5t-182.5 69.5l-92 21q-162 35 -238 100t-76 170q0 128 91 205.5t270 77.5q121 0 204.5 -36.5t147.5 -119.5l-76 -70q-58 73 -122 104.5t-160 31.5q-122 0 -184 -48t-62 -133q0 -68 48 -108.5t171 -69.5l105 -24
q179 -39 247 -105.5t68 -169.5q0 -127 -90.5 -206t-290.5 -79q-142 0 -244 45t-172 146l84 63q60 -88 138.5 -126.5t197.5 -38.5z" />
    <glyph glyph-name="t" unicode="t" horiz-adv-x="727" 
d="M47 987h186v299h113v-299h318v-90h-318v-559q0 -79 13.5 -131.5t41.5 -80t62 -38t82 -10.5q63 0 131 22l18 -94q-84 -29 -168 -29q-293 0 -293 340v580h-186v90z" />
    <glyph glyph-name="u" unicode="u" horiz-adv-x="1257" 
d="M956 0l-10 217q-51 -119 -152 -179.5t-235 -60.5q-184 0 -278.5 103.5t-94.5 300.5v606h115v-588q0 -325 285 -325q164 0 254.5 101t101.5 282v530h115v-987h-101z" />
    <glyph glyph-name="v" unicode="v" horiz-adv-x="987" 
d="M20 987h123l353 -876l354 876h117l-410 -987h-125z" />
    <glyph glyph-name="w" unicode="w" horiz-adv-x="1458" 
d="M674 973h119l262 -844l272 858h113l-326 -987h-125l-260 838l-258 -838h-123l-328 987h115l277 -856z" />
    <glyph glyph-name="x" unicode="x" horiz-adv-x="1009" 
d="M61 987h136l311 -401l307 401h133l-377 -479l406 -508h-137l-338 430l-336 -430h-133l405 510z" />
    <glyph glyph-name="y" unicode="y" horiz-adv-x="987" 
d="M395 -115l37 105l-414 997h121l355 -878l354 878h119l-475 -1141q-66 -158 -152 -217t-205 -59q-76 0 -153 27l18 96q70 -25 135 -25q37 0 66.5 7.5t64 28.5t67.5 66.5t62 114.5z" />
    <glyph glyph-name="z" unicode="z" horiz-adv-x="978" 
d="M82 0v86l659 809h-645v92h781v-88l-662 -807h676v-92h-809z" />
    <glyph glyph-name="braceleft" unicode="{" horiz-adv-x="710" 
d="M573 -158q-130 12 -195 73.5t-65 182.5q0 46 11.5 132.5t11.5 127.5q0 133 -55 193.5t-181 60.5h-55v88h55q127 0 181.5 60t54.5 194q0 39 -11.5 127.5t-11.5 137.5q0 118 65 178.5t195 72.5l11 -88q-82 -11 -124 -52t-42 -122q0 -40 11 -129t11 -135q0 -122 -44 -191
t-144 -96q100 -29 144 -97.5t44 -188.5q0 -46 -11 -135.5t-11 -129.5q0 -82 41.5 -123.5t124.5 -52.5z" />
    <glyph glyph-name="bar" unicode="|" horiz-adv-x="575" 
d="M236 -133v1702h104v-1702h-104z" />
    <glyph glyph-name="braceright" unicode="}" horiz-adv-x="710" 
d="M143 -158q130 12 195 73.5t65 182.5q0 46 -11 132.5t-11 127.5q0 134 54.5 194t180.5 60h56v88h-56q-126 0 -180.5 59.5t-54.5 194.5q0 40 11 128t11 137q0 118 -65 178.5t-195 72.5l-10 -88q82 -11 124 -52t42 -122q0 -40 -11.5 -129t-11.5 -135q0 -122 44.5 -191
t144.5 -96q-100 -29 -144.5 -97.5t-44.5 -188.5q0 -46 11.5 -135.5t11.5 -129.5q0 -82 -41.5 -123.5t-124.5 -52.5z" />
    <glyph glyph-name="asciitilde" unicode="~" horiz-adv-x="1042" 
d="M885 834l106 -15q-10 -128 -77.5 -188t-170.5 -60q-41 0 -85 12.5t-72.5 26.5t-73.5 39q-52 29 -72.5 39.5t-61.5 24.5t-75 14q-59 0 -98.5 -36t-46.5 -118l-107 17q10 127 78 186.5t174 59.5q41 0 86 -13t69.5 -25t73.5 -38q100 -56 143 -68q33 -10 64 -10q59 0 99 36
t47 116z" />
    <glyph glyph-name="uni00A0" unicode="&#xa0;" horiz-adv-x="471" 
 />
    <glyph glyph-name="exclamdown" unicode="&#xa1;" horiz-adv-x="444" 
d="M164 -406l16 1063h96l17 -1063h-129zM317 952q0 -41 -24 -63.5t-66 -22.5q-40 0 -64 22.5t-24 63.5q0 40 24 64t64 24q41 0 65.5 -24t24.5 -64z" />
    <glyph glyph-name="cent" unicode="&#xa2;" horiz-adv-x="1116" 
d="M256 520q0 -193 71 -287t220 -106v791q-150 -12 -220.5 -106.5t-70.5 -291.5zM547 -127v160q-408 25 -408 487q0 467 408 492v164h96v-162q239 -14 342 -203l-84 -53q-74 144 -258 160v-793q100 4 166 48.5t109 133.5l88 -45q-95 -219 -363 -231v-158h-96z" />
    <glyph glyph-name="sterling" unicode="&#xa3;" horiz-adv-x="1165" 
d="M88 0v94h57q77 0 104.5 55t24.5 179l-12 315h-174v92h172l-10 299q-6 206 98.5 314t313.5 108q146 0 240.5 -61t156.5 -183l-88 -59q-52 105 -126 157t-188 52q-301 0 -292 -328l10 -299h436v-92h-430l8 -319q6 -180 -65 -230h432q96 0 163 26.5t123 96.5l68 -65
q-67 -85 -150 -118.5t-202 -33.5h-670z" />
    <glyph glyph-name="yen" unicode="&#xa5;" horiz-adv-x="1226" 
d="M1092 590v-92h-418v-498h-119v498h-420v92h414l-74 117h-340v92h287l-389 635h129l452 -752l455 752h125l-389 -635h287v-92h-342l-72 -117h414z" />
    <glyph glyph-name="brokenbar" unicode="&#xa6;" horiz-adv-x="575" 
d="M236 780v789h104v-789h-104zM236 -133v786h104v-786h-104z" />
    <glyph glyph-name="section" unicode="&#xa7;" horiz-adv-x="1062" 
d="M834 684q2 72 -51.5 121.5t-182.5 75.5l-74 14q-97 19 -173.5 -29.5t-76.5 -140.5q-2 -66 48.5 -116.5t162.5 -73.5l74 -17q48 -12 96.5 -5t87.5 24.5t64 56t25 90.5zM539 -45q-138 0 -235 42.5t-165 141.5l82 58q57 -83 131.5 -119.5t188.5 -36.5q258 0 258 180
q0 75 -50.5 120.5t-181.5 76.5l-94 20q-153 37 -226 107t-73 178q0 83 51.5 146.5t155.5 82.5q-174 77 -174 240q0 118 80 191t252 73q113 0 191.5 -34t141.5 -109l-71 -68q-56 68 -116 96.5t-148 28.5q-228 0 -228 -174q0 -68 51 -120.5t162 -78.5l105 -24
q179 -43 247 -110t68 -169q0 -86 -52 -148.5t-155 -84.5q96 -41 134 -97.5t38 -138.5q0 -56 -19 -102.5t-60 -85t-114.5 -60t-174.5 -22.5z" />
    <glyph glyph-name="dieresis" unicode="&#xa8;" horiz-adv-x="1228" 
d="M690 1274q0 41 24 63.5t66 22.5t66 -22.5t24 -63.5t-24 -63.5t-66 -22.5t-66 22.5t-24 63.5zM379 1274q0 41 24 63.5t64 22.5q42 0 66 -22.5t24 -63.5t-24 -63.5t-66 -22.5q-40 0 -64 22.5t-24 63.5z" />
    <glyph glyph-name="copyright" unicode="&#xa9;" horiz-adv-x="1693" 
d="M154 715q0 316 184.5 504t509.5 188q323 0 507.5 -188t184.5 -504t-184.5 -504t-507.5 -188q-325 0 -509.5 188t-184.5 504zM217 715q0 -300 169 -467.5t462 -167.5q292 0 461.5 168t169.5 467q0 301 -169.5 469t-461.5 168q-293 0 -462 -167.5t-169 -469.5zM858 356
q-348 0 -348 363q0 368 348 368q209 0 291 -149l-66 -43q-67 121 -225 121q-131 0 -195.5 -71.5t-64.5 -225.5q0 -151 64.5 -220t195.5 -69q88 0 143 31.5t89 101.5l67 -37q-76 -170 -299 -170z" />
    <glyph glyph-name="ordfeminine" unicode="&#xaa;" horiz-adv-x="825" 
d="M362 799q113 0 178.5 73.5t65.5 204.5v17h-196q-226 0 -226 -154q0 -67 45.5 -104t132.5 -37zM338 727q-110 0 -176 55t-66 156q0 106 78.5 163.5t235.5 57.5h196v4q0 122 -49 169.5t-158 47.5q-146 0 -221 -98l-49 59q80 115 281 115q143 0 215.5 -65.5t72.5 -216.5
v-431h-80l-8 144q-33 -77 -102.5 -118.5t-169.5 -41.5z" />
    <glyph glyph-name="guillemotleft" unicode="&#xab;" horiz-adv-x="1245" 
d="M926 0l-400 494v6l394 487h131l-396 -487l404 -500h-133zM516 0l-391 492v6l391 489h131l-393 -491l399 -496h-137z" />
    <glyph glyph-name="logicalnot" unicode="&#xac;" horiz-adv-x="446" 
d="M82 1315q0 -59 40.5 -100t100.5 -41t101 41t41 100t-41 100t-101 41t-100.5 -41t-40.5 -100zM311 1315v-2q0 -37 -25.5 -63.5t-62.5 -26.5t-62.5 26.5t-25.5 63.5q0 38 25.5 65t62.5 27t62.5 -26.5t25.5 -63.5z" />
    <glyph glyph-name="uni00AD" unicode="&#xad;" horiz-adv-x="821" 
d="M723 559v-94h-621v94h621z" />
    <glyph glyph-name="registered" unicode="&#xae;" horiz-adv-x="968" 
d="M109 1081q0 171 100 273t276 102q175 0 275 -102t100 -273q0 -168 -100 -270t-275 -102q-176 0 -276 102t-100 270zM156 1081q0 -157 88.5 -245t240.5 -88q151 0 239.5 88t88.5 245t-88.5 245.5t-239.5 88.5q-152 0 -240.5 -88.5t-88.5 -245.5zM500 1233h-105v-156h97
q86 0 86 80q0 76 -78 76zM346 903v373h154q62 0 96.5 -31t34.5 -86q0 -88 -78 -115l74 -141h-58l-69 133h-105v-133h-49z" />
    <glyph glyph-name="macron" unicode="&#xaf;" horiz-adv-x="1228" 
d="M874 1313v-80h-489v80h489z" />
    <glyph glyph-name="degree" unicode="&#xb0;" horiz-adv-x="942" 
d="M473 731q-171 0 -267.5 98t-96.5 263t96.5 263.5t267.5 98.5q169 0 266 -99t97 -263t-97 -262.5t-266 -98.5zM473 1374q-127 0 -199.5 -74.5t-72.5 -207.5t72.5 -208t199.5 -75q124 0 197 75.5t73 207.5t-73 207t-197 75z" />
    <glyph glyph-name="plusminus" unicode="&#xb1;" horiz-adv-x="1015" 
d="M559 260h-100v338h-357v92h357v350h100v-350h354v-92h-354v-338zM913 94v-94h-811v94h811z" />
    <glyph glyph-name="twosuperior" unicode="&#xb2;" horiz-adv-x="735" 
d="M63 604v82l308 291q90 87 124.5 142t34.5 108q0 145 -176 145q-85 0 -136 -33t-89 -106l-68 51q46 89 118 130.5t183 41.5q127 0 197 -57t70 -160q0 -73 -43 -143.5t-148 -169.5l-239 -236l471 4v-90h-607z" />
    <glyph glyph-name="threesuperior" unicode="&#xb3;" horiz-adv-x="751" 
d="M358 588q-211 0 -299 145l70 53q38 -61 91 -88.5t130 -27.5q107 0 161 44.5t54 127.5q0 71 -42.5 113t-135.5 42h-119v82h119q69 0 111.5 39.5t42.5 108.5q0 147 -185 147q-77 0 -124.5 -28.5t-86.5 -94.5l-67 47q44 82 113 120t174 38q132 0 203 -57.5t71 -163.5
q0 -67 -33.5 -117.5t-93.5 -75.5q150 -40 150 -198q0 -120 -77 -188t-227 -68z" />
    <glyph glyph-name="acute" unicode="&#xb4;" horiz-adv-x="1228" 
d="M852 1382l-219 -219h-96v6l163 224h152v-11z" />
    <glyph glyph-name="paragraph" unicode="&#xb6;" horiz-adv-x="1310" 
d="M281 987q0 -175 92 -265.5t258 -90.5h112v702h-106q-182 0 -269 -84.5t-87 -261.5zM1016 1333h-158v-702h158v702zM1130 1434v-1434h-114v528h-158v-528h-115v528h-88q-246 0 -368.5 122t-122.5 341q0 220 119.5 331.5t369.5 111.5h477z" />
    <glyph glyph-name="periodcentered" unicode="&#xb7;" horiz-adv-x="436" 
d="M129 688q0 41 24 63.5t66 22.5q40 0 64 -22.5t24 -63.5q0 -40 -24 -64t-64 -24q-41 0 -65.5 24t-24.5 64z" />
    <glyph glyph-name="cedilla" unicode="&#xb8;" horiz-adv-x="1228" 
d="M631 0h82l-35 -147h24q69 0 117.5 -38.5t48.5 -113.5q0 -81 -60 -124.5t-159 -43.5q-147 0 -217 109l60 53q31 -48 64.5 -69t88.5 -21q64 0 99.5 24.5t35.5 71.5t-31.5 69.5t-84.5 22.5q-32 0 -50 -4l-28 23z" />
    <glyph glyph-name="onesuperior" unicode="&#xb9;" horiz-adv-x="415" 
d="M276 604h-98v715l-115 -84l-36 78l186 127h63v-836z" />
    <glyph glyph-name="ordmasculine" unicode="&#xba;" horiz-adv-x="858" 
d="M96 1092q0 364 334 364q165 0 248.5 -89t83.5 -275q0 -365 -332 -365q-334 0 -334 365zM672 1092q0 151 -59 220.5t-183 69.5q-125 0 -183.5 -69.5t-58.5 -220.5q0 -153 58.5 -222t183.5 -69q123 0 182.5 69.5t59.5 221.5z" />
    <glyph glyph-name="guillemotright" unicode="&#xbb;" horiz-adv-x="1245" 
d="M319 989l400 -493v-7l-393 -487h-131l395 487l-404 500h133zM729 989l391 -491v-6l-391 -490h-131l393 492l-399 495h137z" />
    <glyph glyph-name="onequarter" unicode="&#xbc;" horiz-adv-x="1687" 
d="M276 600h-98v715l-115 -84l-36 78l186 127h63v-836zM1077 1436l-684 -1436h-110l688 1436h106zM954 213v72l285 549h98l-280 -535h368v383h91v-383h131v-86h-131v-213h-91v213h-471z" />
    <glyph glyph-name="onehalf" unicode="&#xbd;" horiz-adv-x="1630" 
d="M958 0v82l308 291q90 87 124.5 142t34.5 108q0 145 -176 145q-85 0 -136 -33t-89 -106l-68 51q46 89 118 130.5t183 41.5q127 0 197 -57t70 -160q0 -73 -43 -143.5t-148 -169.5l-239 -236l471 4v-90h-607zM276 600h-98v715l-115 -84l-36 78l186 127h63v-836zM1077 1436
l-684 -1436h-110l688 1436h106z" />
    <glyph glyph-name="threequarters" unicode="&#xbe;" horiz-adv-x="1933" 
d="M358 584q-211 0 -299 145l70 53q38 -61 91 -88.5t130 -27.5q107 0 161 44.5t54 127.5q0 71 -42.5 113t-135.5 42h-119v82h119q69 0 111.5 39.5t42.5 108.5q0 147 -185 147q-77 0 -124.5 -28.5t-86.5 -94.5l-67 47q44 82 113 120t174 38q132 0 203 -57.5t71 -163.5
q0 -67 -33.5 -117.5t-93.5 -75.5q150 -40 150 -198q0 -120 -77 -188t-227 -68zM1354 1436l-684 -1436h-111l688 1436h107zM1200 213v72l285 549h98l-280 -535h368v383h90v-383h131v-86h-131v-213h-90v213h-471z" />
    <glyph glyph-name="questiondown" unicode="&#xbf;" horiz-adv-x="1019" 
d="M567 657v-290h-63q-186 0 -284.5 -93.5t-98.5 -263.5q0 -163 101.5 -250.5t283.5 -87.5q142 0 235 57t158 191l86 -59q-71 -151 -190 -220t-301 -69q-224 0 -357 115.5t-133 314.5t117.5 315t331.5 123v217h114zM598 952q0 -41 -24 -63.5t-64 -22.5q-41 0 -64.5 22.5
t-23.5 63.5q0 40 23.5 64t64.5 24q40 0 64 -24t24 -64z" />
    <glyph glyph-name="Agrave" unicode="&#xc0;" 
d="M614 1321l-319 -897h641zM1087 0l-116 324h-709l-115 -324h-122l520 1434h147l520 -1434h-125zM586 1612l-219 219v10h151l166 -223v-6h-98z" />
    <glyph glyph-name="Aacute" unicode="&#xc1;" 
d="M614 1321l-319 -897h641zM1087 0l-116 324h-709l-115 -324h-122l520 1434h147l520 -1434h-125zM883 1829l-219 -219h-97v6l164 223h152v-10z" />
    <glyph glyph-name="Acircumflex" unicode="&#xc2;" 
d="M614 1321l-319 -897h641zM1087 0l-116 324h-709l-115 -324h-122l520 1434h147l520 -1434h-125zM625 1769l-170 -159h-127v4l245 225h107l246 -225v-4h-133z" />
    <glyph glyph-name="Atilde" unicode="&#xc3;" 
d="M614 1321l-319 -897h641zM1087 0l-116 324h-709l-115 -324h-122l520 1434h147l520 -1434h-125zM819 1817h90q1 -50 -12 -87t-37 -56t-50.5 -27.5t-55.5 -8.5q-39 0 -76.5 16t-62.5 34.5t-57 34.5t-60 16q-33 0 -52.5 -23t-19.5 -69h-90q-3 95 42 136.5t109 41.5
q40 0 79 -16t64 -34.5t57.5 -34.5t60.5 -16q71 0 71 93z" />
    <glyph glyph-name="Adieresis" unicode="&#xc4;" 
d="M614 1321l-319 -897h641zM1087 0l-116 324h-709l-115 -324h-122l520 1434h147l520 -1434h-125zM688 1720q0 41 24 63.5t66 22.5t66 -22.5t24 -63.5t-24 -63.5t-66 -22.5t-66 22.5t-24 63.5zM377 1720q0 41 24 63.5t64 22.5q42 0 66 -22.5t24 -63.5t-24 -63.5t-66 -22.5
q-40 0 -64 22.5t-24 63.5z" />
    <glyph glyph-name="Aring" unicode="&#xc5;" 
d="M614 1321l-319 -897h641zM1087 0l-116 324h-709l-115 -324h-122l520 1434h147l520 -1434h-125zM440 1745q0 83 52.5 133.5t134.5 50.5q78 0 129 -51t51 -133q0 -81 -52 -131.5t-132 -50.5q-79 0 -131 50.5t-52 131.5zM506 1745q0 -53 34 -89t83 -36q51 0 84.5 36t33.5 89
q0 55 -33 90t-81 35q-53 0 -87 -35t-34 -90z" />
    <glyph glyph-name="AE" unicode="&#xc6;" horiz-adv-x="1830" 
d="M616 1327l-323 -903h629zM1063 0l-113 324h-692l-117 -324h-121l525 1434h1188v-101h-998l193 -561h692v-102h-659l194 -570h598v-100h-690z" />
    <glyph glyph-name="Ccedilla" unicode="&#xc7;" horiz-adv-x="1425" 
d="M760 -467q-147 0 -217 109l59 53q31 -48 65 -69t89 -21q64 0 99.5 24.5t35.5 71.5t-32 69.5t-85 22.5q-31 0 -49 -4l-29 23l41 168q-287 12 -431 187.5t-144 549.5q0 200 40.5 342.5t122 229.5t195 127t268.5 40q188 0 315.5 -63.5t199.5 -202.5l-95 -64
q-62 125 -165 178.5t-255 53.5q-123 0 -213 -31t-158 -103t-102 -198t-34 -307q0 -145 23 -254.5t64.5 -183t105 -119.5t140 -66t174.5 -20q158 0 268 58.5t181 193.5l88 -60q-78 -147 -204 -216.5t-304 -74.5l-29 -124h25q69 0 117.5 -38.5t48.5 -113.5q0 -81 -60 -124.5
t-159 -43.5z" />
    <glyph glyph-name="Egrave" unicode="&#xc8;" horiz-adv-x="1337" 
d="M236 0v1434h1003v-101h-889v-561h778v-102h-778v-570h910v-100h-1024zM717 1612l-219 219v10h151l166 -223v-6h-98z" />
    <glyph glyph-name="Eacute" unicode="&#xc9;" horiz-adv-x="1337" 
d="M1016 1829l-219 -219h-97v6l164 223h152v-10zM236 0v1434h1003v-101h-889v-561h778v-102h-778v-570h910v-100h-1024z" />
    <glyph glyph-name="Ecircumflex" unicode="&#xca;" horiz-adv-x="1337" 
d="M756 1769l-170 -159h-127v4l246 225h106l246 -225v-4h-133zM236 0v1434h1003v-101h-889v-561h778v-102h-778v-570h910v-100h-1024z" />
    <glyph glyph-name="Edieresis" unicode="&#xcb;" horiz-adv-x="1337" 
d="M819 1720q0 41 24 63.5t66 22.5t66 -22.5t24 -63.5t-24 -63.5t-66 -22.5t-66 22.5t-24 63.5zM508 1720q0 41 24 63.5t64 22.5q42 0 66 -22.5t24 -63.5t-24 -63.5t-66 -22.5q-40 0 -64 22.5t-24 63.5zM236 0v1434h1003v-101h-889v-561h778v-102h-778v-570h910v-100h-1024z
" />
    <glyph glyph-name="Igrave" unicode="&#xcc;" horiz-adv-x="589" 
d="M236 0v1434h118v-1434h-118zM258 1612l-219 219v10h151l166 -223v-6h-98z" />
    <glyph glyph-name="Iacute" unicode="&#xcd;" horiz-adv-x="589" 
d="M236 0v1434h118v-1434h-118zM555 1829l-219 -219h-96v6l163 223h152v-10z" />
    <glyph glyph-name="Icircumflex" unicode="&#xce;" horiz-adv-x="589" 
d="M236 0v1434h118v-1434h-118zM295 1769l-170 -159h-127v4l246 225h106l246 -225v-4h-133z" />
    <glyph glyph-name="Idieresis" unicode="&#xcf;" horiz-adv-x="589" 
d="M236 0v1434h118v-1434h-118zM360 1720q0 41 24.5 63.5t66.5 22.5t66 -22.5t24 -63.5t-24 -63.5t-66 -22.5t-66.5 22.5t-24.5 63.5zM49 1720q0 41 24 63.5t64 22.5q42 0 66 -22.5t24 -63.5t-24 -63.5t-66 -22.5q-40 0 -64 22.5t-24 63.5z" />
    <glyph glyph-name="Eth" unicode="&#xd0;" horiz-adv-x="1552" 
d="M786 0h-518v696h-170v95h170v643h520q150 0 261 -39.5t188.5 -123.5t116.5 -219.5t39 -322.5q0 -729 -607 -729zM387 100h395q115 0 202.5 32.5t154 104.5t101 195t34.5 295q0 167 -33 285.5t-97 188t-150.5 101t-202.5 31.5h-404v-542h354v-95h-354v-596z" />
    <glyph glyph-name="Ntilde" unicode="&#xd1;" horiz-adv-x="1585" 
d="M1227 0l-881 1262l4 -1262h-114v1434h122l879 -1258l-2 1258h115v-1434h-123zM985 1817h90q1 -50 -12 -87t-37 -56t-50.5 -27.5t-55.5 -8.5q-39 0 -76.5 16t-62.5 34.5t-57 34.5t-60 16q-33 0 -52.5 -23t-19.5 -69h-90q-3 95 42 136.5t109 41.5q40 0 78.5 -16t64 -34.5
t57.5 -34.5t60 -16q72 0 72 93z" />
    <glyph glyph-name="Ograve" unicode="&#xd2;" horiz-adv-x="1574" 
d="M786 -23q-315 0 -469.5 175.5t-154.5 564.5t155 564t469 175q321 0 475 -174t154 -565q0 -388 -157 -564t-472 -176zM786 1358q-125 0 -215.5 -31.5t-157 -104t-99.5 -198t-33 -307.5q0 -179 33 -303.5t99.5 -198.5t157 -106.5t215.5 -32.5q126 0 217 32t158.5 105.5
t101 199t33.5 306.5q0 143 -22.5 251.5t-63.5 182t-104.5 119.5t-141.5 66t-178 20zM752 1614l-220 219v10h152l166 -223v-6h-98z" />
    <glyph glyph-name="Oacute" unicode="&#xd3;" horiz-adv-x="1574" 
d="M1047 1829l-220 -219h-96v6l164 223h152v-10zM786 -23q-315 0 -469.5 175.5t-154.5 564.5t155 564t469 175q321 0 475 -174t154 -565q0 -388 -157 -564t-472 -176zM786 1358q-125 0 -215.5 -31.5t-157 -104t-99.5 -198t-33 -307.5q0 -179 33 -303.5t99.5 -198.5
t157 -106.5t215.5 -32.5q126 0 217 32t158.5 105.5t101 199t33.5 306.5q0 143 -22.5 251.5t-63.5 182t-104.5 119.5t-141.5 66t-178 20z" />
    <glyph glyph-name="Ocircumflex" unicode="&#xd4;" horiz-adv-x="1574" 
d="M788 1769l-170 -159h-126v4l245 225h107l246 -225v-4h-134zM786 -23q-315 0 -469.5 175.5t-154.5 564.5t155 564t469 175q321 0 475 -174t154 -565q0 -388 -157 -564t-472 -176zM786 1358q-125 0 -215.5 -31.5t-157 -104t-99.5 -198t-33 -307.5q0 -179 33 -303.5
t99.5 -198.5t157 -106.5t215.5 -32.5q126 0 217 32t158.5 105.5t101 199t33.5 306.5q0 143 -22.5 251.5t-63.5 182t-104.5 119.5t-141.5 66t-178 20z" />
    <glyph glyph-name="Otilde" unicode="&#xd5;" horiz-adv-x="1574" 
d="M786 -23q-315 0 -469.5 175.5t-154.5 564.5t155 564t469 175q321 0 475 -174t154 -565q0 -388 -157 -564t-472 -176zM786 1358q-125 0 -215.5 -31.5t-157 -104t-99.5 -198t-33 -307.5q0 -179 33 -303.5t99.5 -198.5t157 -106.5t215.5 -32.5q126 0 217 32t158.5 105.5
t101 199t33.5 306.5q0 143 -22.5 251.5t-63.5 182t-104.5 119.5t-141.5 66t-178 20zM983 1817h90q1 -50 -12 -87t-37 -56t-50.5 -27.5t-55.5 -8.5q-39 0 -76.5 16t-62.5 34.5t-57 34.5t-60 16q-33 0 -52.5 -23t-19.5 -69h-90q-3 95 42 136.5t109 41.5q40 0 78.5 -16
t64 -34.5t57.5 -34.5t60 -16q72 0 72 93z" />
    <glyph glyph-name="Odieresis" unicode="&#xd6;" horiz-adv-x="1574" 
d="M854 1720q0 41 24 63.5t66 22.5t66 -22.5t24 -63.5t-24 -63.5t-66 -22.5t-66 22.5t-24 63.5zM543 1720q0 41 24 63.5t64 22.5q42 0 66 -22.5t24 -63.5t-24 -63.5t-66 -22.5q-40 0 -64 22.5t-24 63.5zM786 -23q-315 0 -469.5 175.5t-154.5 564.5t155 564t469 175
q321 0 475 -174t154 -565q0 -388 -157 -564t-472 -176zM786 1358q-125 0 -215.5 -31.5t-157 -104t-99.5 -198t-33 -307.5q0 -179 33 -303.5t99.5 -198.5t157 -106.5t215.5 -32.5q126 0 217 32t158.5 105.5t101 199t33.5 306.5q0 143 -22.5 251.5t-63.5 182t-104.5 119.5
t-141.5 66t-178 20z" />
    <glyph glyph-name="multiply" unicode="&#xd7;" horiz-adv-x="962" 
d="M211 309l-66 66l267 266l-269 270l70 70l268 -270l271 270l65 -66l-268 -268l270 -270l-69 -70l-273 271z" />
    <glyph glyph-name="Oslash" unicode="&#xd8;" horiz-adv-x="1587" 
d="M231 0h-129l181 205q-115 180 -115 512q0 389 156 564t471 175q304 0 452 -158l119 136h125l-182 -209q112 -180 112 -508q0 -388 -156 -564t-470 -176q-298 0 -449 154zM1174 1214q-124 144 -379 144q-100 0 -177.5 -19.5t-141 -64.5t-104.5 -118.5t-63 -183t-22 -255.5
q0 -270 80 -418zM420 213q120 -137 375 -137q125 0 216 32t158 105.5t100.5 199t33.5 306.5q0 262 -78 409z" />
    <glyph glyph-name="Ugrave" unicode="&#xd9;" horiz-adv-x="1519" 
d="M1208 543v891h117v-887q0 -283 -147.5 -426.5t-417.5 -143.5q-271 0 -418 143t-147 427v887h118v-891q0 -467 447 -467q213 0 330.5 112.5t117.5 354.5zM725 1612l-219 219v10h151l166 -223v-6h-98z" />
    <glyph glyph-name="Uacute" unicode="&#xda;" horiz-adv-x="1519" 
d="M1022 1829l-219 -219h-96v6l163 223h152v-10zM1208 543v891h117v-887q0 -283 -147.5 -426.5t-417.5 -143.5q-271 0 -418 143t-147 427v887h118v-891q0 -467 447 -467q213 0 330.5 112.5t117.5 354.5z" />
    <glyph glyph-name="Ucircumflex" unicode="&#xdb;" horiz-adv-x="1519" 
d="M762 1769l-170 -159h-127v4l246 225h106l246 -225v-4h-133zM1208 543v891h117v-887q0 -283 -147.5 -426.5t-417.5 -143.5q-271 0 -418 143t-147 427v887h118v-891q0 -467 447 -467q213 0 330.5 112.5t117.5 354.5z" />
    <glyph glyph-name="Udieresis" unicode="&#xdc;" horiz-adv-x="1519" 
d="M827 1720q0 41 24.5 63.5t66.5 22.5t66 -22.5t24 -63.5t-24 -63.5t-66 -22.5t-66.5 22.5t-24.5 63.5zM516 1720q0 41 24 63.5t64 22.5q42 0 66 -22.5t24 -63.5t-24 -63.5t-66 -22.5q-40 0 -64 22.5t-24 63.5zM1208 543v891h117v-887q0 -283 -147.5 -426.5t-417.5 -143.5
q-271 0 -418 143t-147 427v887h118v-891q0 -467 447 -467q213 0 330.5 112.5t117.5 354.5z" />
    <glyph glyph-name="Yacute" unicode="&#xdd;" horiz-adv-x="1226" 
d="M555 580l-522 854h129l452 -752l455 752h125l-520 -854v-580h-119v580zM874 1829l-219 -219h-96v6l164 223h151v-10z" />
    <glyph glyph-name="Thorn" unicode="&#xde;" horiz-adv-x="1327" 
d="M236 0v1434h118v-287h412q453 0 453 -404q0 -199 -115.5 -310t-341.5 -111h-408v-322h-118zM766 1042h-412v-620h420q156 0 241 80t85 235q0 156 -81.5 230.5t-252.5 74.5z" />
    <glyph glyph-name="germandbls" unicode="&#xdf;" horiz-adv-x="1247" 
d="M678 723h-92v90h94q126 0 191 76.5t65 200.5q0 133 -78.5 200.5t-222.5 67.5q-152 0 -236 -92t-84 -273v-991h-114v1002q0 119 34.5 208t95.5 140.5t137 76.5t167 25q199 0 307.5 -98t108.5 -264q0 -111 -48.5 -191.5t-134.5 -120.5q137 -33 208 -129t71 -239
q0 -194 -112 -309t-318 -115q-121 0 -219 43l24 92q86 -39 176 -39q164 0 250 81t86 243q0 149 -87 232t-269 83z" />
    <glyph glyph-name="agrave" unicode="&#xe0;" horiz-adv-x="1153" 
d="M496 72q159 0 252 101t102 282v45h-289q-163 0 -242 -54t-79 -170q0 -99 65 -151.5t191 -52.5zM856 217q-48 -114 -147.5 -177t-239.5 -63q-156 0 -249 78t-93 217q0 152 107.5 236t322.5 84h293q1 181 -69.5 252t-227.5 71q-214 0 -313 -137l-66 70q110 162 387 162
q202 0 303 -92t101 -306v-612h-99zM518 1163l-219 219v11h152l165 -224v-6h-98z" />
    <glyph glyph-name="aacute" unicode="&#xe1;" horiz-adv-x="1153" 
d="M496 72q159 0 252 101t102 282v45h-289q-163 0 -242 -54t-79 -170q0 -99 65 -151.5t191 -52.5zM856 217q-48 -114 -147.5 -177t-239.5 -63q-156 0 -249 78t-93 217q0 152 107.5 236t322.5 84h293q1 181 -69.5 252t-227.5 71q-214 0 -313 -137l-66 70q110 162 387 162
q202 0 303 -92t101 -306v-612h-99zM817 1382l-219 -219h-96v6l164 224h151v-11z" />
    <glyph glyph-name="acircumflex" unicode="&#xe2;" horiz-adv-x="1153" 
d="M492 72q159 0 252 101t102 282v45h-289q-163 0 -242 -54t-79 -170q0 -99 65 -151.5t191 -52.5zM852 217q-48 -114 -147.5 -177t-239.5 -63q-156 0 -249 78t-93 217q0 152 107.5 236t322.5 84h293q1 181 -69.5 252t-227.5 71q-214 0 -313 -137l-66 70q110 162 387 162
q202 0 303 -92t101 -306v-612h-99zM557 1323l-170 -160h-127v4l246 226h106l246 -226v-4h-133z" />
    <glyph glyph-name="atilde" unicode="&#xe3;" horiz-adv-x="1153" 
d="M492 72q159 0 252 101t102 282v45h-289q-163 0 -242 -54t-79 -170q0 -99 65 -151.5t191 -52.5zM852 217q-48 -114 -147.5 -177t-239.5 -63q-156 0 -249 78t-93 217q0 152 107.5 236t322.5 84h293q1 181 -69.5 252t-227.5 71q-214 0 -313 -137l-66 70q110 162 387 162
q202 0 303 -92t101 -306v-612h-99zM752 1370h90q1 -50 -12.5 -86.5t-37.5 -55.5t-50 -27.5t-56 -8.5q-49 0 -94.5 25t-86 50t-75.5 25q-33 0 -52.5 -23t-19.5 -69h-90q-3 95 42.5 136.5t109.5 41.5q51 0 97.5 -25t87 -50t75.5 -25q72 0 72 92z" />
    <glyph glyph-name="adieresis" unicode="&#xe4;" horiz-adv-x="1153" 
d="M492 72q159 0 252 101t102 282v45h-289q-163 0 -242 -54t-79 -170q0 -99 65 -151.5t191 -52.5zM852 217q-48 -114 -147.5 -177t-239.5 -63q-156 0 -249 78t-93 217q0 152 107.5 236t322.5 84h293q1 181 -69.5 252t-227.5 71q-214 0 -313 -137l-66 70q110 162 387 162
q202 0 303 -92t101 -306v-612h-99zM623 1274q0 41 24 63.5t66 22.5t66 -22.5t24 -63.5t-24 -63.5t-66 -22.5t-66 22.5t-24 63.5zM311 1274q0 41 24 63.5t64 22.5q42 0 66 -22.5t24 -63.5t-24 -63.5t-66 -22.5q-40 0 -64 22.5t-24 63.5z" />
    <glyph glyph-name="aring" unicode="&#xe5;" horiz-adv-x="1153" 
d="M492 72q159 0 252 101t102 282v45h-289q-163 0 -242 -54t-79 -170q0 -99 65 -151.5t191 -52.5zM852 217q-48 -114 -147.5 -177t-239.5 -63q-156 0 -249 78t-93 217q0 152 107.5 236t322.5 84h293q1 181 -69.5 252t-227.5 71q-214 0 -313 -137l-66 70q110 162 387 162
q202 0 303 -92t101 -306v-612h-99zM375 1298q0 83 52 134t134 51q78 0 129 -51.5t51 -133.5q0 -81 -52 -131.5t-132 -50.5q-79 0 -130.5 50.5t-51.5 131.5zM440 1298q0 -52 33.5 -88t83.5 -36q51 0 85 35.5t34 88.5q0 55 -33.5 90t-81.5 35q-53 0 -87 -35t-34 -90z" />
    <glyph glyph-name="ae" unicode="&#xe6;" horiz-adv-x="1826" 
d="M1298 -23q-324 0 -411 277q-43 -131 -154.5 -204t-273.5 -73q-153 0 -243.5 76t-90.5 215q0 144 105 224.5t317 80.5h295v25q0 178 -70.5 247.5t-228.5 69.5q-213 0 -312 -137l-65 70q110 162 387 162q145 0 235.5 -49t129.5 -160q107 209 382 209q204 0 309 -123.5
t105 -341.5q0 -34 -4 -62h-758q1 -214 88 -312.5t260 -98.5q125 0 203 44t121 146l86 -45q-104 -240 -412 -240zM1294 918q-311 0 -340 -345h645q-6 178 -82.5 261.5t-222.5 83.5zM483 72q166 0 262.5 107.5t96.5 303.5h-287q-161 0 -239 -52.5t-78 -164.5
q0 -95 61.5 -144.5t183.5 -49.5z" />
    <glyph glyph-name="ccedilla" unicode="&#xe7;" horiz-adv-x="1093" 
d="M569 -467q-147 0 -217 109l60 53q31 -48 64.5 -69t88.5 -21q64 0 99.5 24.5t35.5 71.5t-31.5 69.5t-84.5 22.5q-31 0 -49 -4l-29 23l41 168q-418 22 -418 512q0 518 465 518q277 0 393 -209l-84 -56q-86 170 -309 170q-182 0 -266 -98t-84 -325q0 -222 85.5 -321
t262.5 -99q121 0 197.5 45t121.5 147l88 -47q-98 -225 -370 -240l-31 -124h25q69 0 117 -38.5t48 -113.5q0 -81 -60 -124.5t-159 -43.5z" />
    <glyph glyph-name="egrave" unicode="&#xe8;" horiz-adv-x="1112" 
d="M588 -23q-223 0 -341 128t-118 389q0 252 117 384t338 132q207 0 313.5 -128t106.5 -356l-3 -65h-757q6 -202 92.5 -295.5t253.5 -93.5q125 0 202.5 44t120.5 146l86 -45q-104 -240 -411 -240zM580 918q-316 0 -336 -365h645q-6 186 -83 275.5t-226 89.5zM543 1163
l-219 219v11h151l166 -224v-6h-98z" />
    <glyph glyph-name="eacute" unicode="&#xe9;" horiz-adv-x="1112" 
d="M838 1382l-220 -219h-96v6l164 224h152v-11zM588 -23q-223 0 -341 128t-118 389q0 252 117 384t338 132q207 0 313.5 -128t106.5 -356l-3 -65h-757q6 -202 92.5 -295.5t253.5 -93.5q125 0 202.5 44t120.5 146l86 -45q-104 -240 -411 -240zM580 918q-316 0 -336 -365h645
q-6 186 -83 275.5t-226 89.5z" />
    <glyph glyph-name="ecircumflex" unicode="&#xea;" horiz-adv-x="1112" 
d="M580 1323l-170 -160h-127v4l245 226h107l246 -226v-4h-133zM588 -23q-223 0 -341 128t-118 389q0 252 117 384t338 132q207 0 313.5 -128t106.5 -356l-3 -65h-757q6 -202 92.5 -295.5t253.5 -93.5q125 0 202.5 44t120.5 146l86 -45q-104 -240 -411 -240zM580 918
q-316 0 -336 -365h645q-6 186 -83 275.5t-226 89.5z" />
    <glyph glyph-name="edieresis" unicode="&#xeb;" horiz-adv-x="1112" 
d="M645 1274q0 41 24 63.5t66 22.5t66 -22.5t24 -63.5t-24 -63.5t-66 -22.5t-66 22.5t-24 63.5zM334 1274q0 41 24 63.5t64 22.5q42 0 66 -22.5t24 -63.5t-24 -63.5t-66 -22.5q-40 0 -64 22.5t-24 63.5zM588 -23q-223 0 -341 128t-118 389q0 252 117 384t338 132
q207 0 313.5 -128t106.5 -356l-3 -65h-757q6 -202 92.5 -295.5t253.5 -93.5q125 0 202.5 44t120.5 146l86 -45q-104 -240 -411 -240zM580 918q-316 0 -336 -365h645q-6 186 -83 275.5t-226 89.5z" />
    <glyph glyph-name="igrave" unicode="&#xec;" horiz-adv-x="528" 
d="M207 987h115v-987h-115v987zM227 1163l-219 219v11h152l166 -224v-6h-99z" />
    <glyph glyph-name="iacute" unicode="&#xed;" horiz-adv-x="528" 
d="M524 1382l-219 -219h-96v6l164 224h151v-11zM207 987h115v-987h-115v987z" />
    <glyph glyph-name="icircumflex" unicode="&#xee;" horiz-adv-x="528" 
d="M264 1323l-170 -160h-127v4l246 226h106l246 -226v-4h-133zM207 987h115v-987h-115v987z" />
    <glyph glyph-name="idieresis" unicode="&#xef;" horiz-adv-x="528" 
d="M330 1274q0 41 24 63.5t66 22.5t66 -22.5t24 -63.5t-24 -63.5t-66 -22.5t-66 22.5t-24 63.5zM18 1274q0 41 24 63.5t64 22.5q42 0 66.5 -22.5t24.5 -63.5t-24.5 -63.5t-66.5 -22.5q-40 0 -64 22.5t-24 63.5zM207 987h115v-987h-115v987z" />
    <glyph glyph-name="eth" unicode="&#xf0;" horiz-adv-x="1200" 
d="M987 1446l43 -66l-178 -112q211 -250 211 -758v-21q0 -512 -465 -512q-469 0 -469 512q0 517 469 517q226 0 326 -158q-41 229 -162 364l-176 -110l-43 65l162 103q-105 97 -289 155l37 80q212 -60 342 -182zM948 489q0 222 -84.5 323t-265.5 101q-183 0 -268.5 -101.5
t-85.5 -322.5q0 -218 86 -317.5t268 -99.5q180 0 265 99.5t85 317.5z" />
    <glyph glyph-name="ntilde" unicode="&#xf1;" horiz-adv-x="1261" 
d="M201 987h100l14 -223q53 123 156.5 184.5t241.5 61.5q362 0 362 -385v-625h-114v596q0 167 -72.5 241t-210.5 74q-162 0 -257 -107t-106 -292v-512h-114v987zM848 1370h90q1 -50 -12.5 -86.5t-37.5 -55.5t-50 -27.5t-56 -8.5q-49 0 -94.5 25t-86 50t-75.5 25
q-71 0 -71 -92h-90q-3 95 42 136.5t109 41.5q51 0 97.5 -25t87 -50t75.5 -25q72 0 72 92z" />
    <glyph glyph-name="ograve" unicode="&#xf2;" horiz-adv-x="1189" 
d="M129 494q0 516 467 516q234 0 349.5 -125.5t115.5 -390.5q0 -517 -465 -517q-232 0 -349.5 126.5t-117.5 390.5zM946 492q0 223 -84.5 323t-265.5 100q-183 0 -267.5 -100t-84.5 -323q0 -220 85.5 -320t266.5 -100t265.5 100t84.5 320zM557 1163l-219 219v11h151
l166 -224v-6h-98z" />
    <glyph glyph-name="oacute" unicode="&#xf3;" horiz-adv-x="1189" 
d="M856 1382l-219 -219h-96v6l164 224h151v-11zM129 494q0 516 467 516q234 0 349.5 -125.5t115.5 -390.5q0 -517 -465 -517q-232 0 -349.5 126.5t-117.5 390.5zM946 492q0 223 -84.5 323t-265.5 100q-183 0 -267.5 -100t-84.5 -323q0 -220 85.5 -320t266.5 -100t265.5 100
t84.5 320z" />
    <glyph glyph-name="ocircumflex" unicode="&#xf4;" horiz-adv-x="1189" 
d="M594 1323l-170 -160h-127v4l246 226h106l246 -226v-4h-133zM129 494q0 516 467 516q234 0 349.5 -125.5t115.5 -390.5q0 -517 -465 -517q-232 0 -349.5 126.5t-117.5 390.5zM946 492q0 223 -84.5 323t-265.5 100q-183 0 -267.5 -100t-84.5 -323q0 -220 85.5 -320
t266.5 -100t265.5 100t84.5 320z" />
    <glyph glyph-name="otilde" unicode="&#xf5;" horiz-adv-x="1189" 
d="M129 494q0 516 467 516q234 0 349.5 -125.5t115.5 -390.5q0 -517 -465 -517q-232 0 -349.5 126.5t-117.5 390.5zM946 492q0 223 -84.5 323t-265.5 100q-183 0 -267.5 -100t-84.5 -323q0 -220 85.5 -320t266.5 -100t265.5 100t84.5 320zM788 1370h91q1 -50 -12.5 -86.5
t-37.5 -55.5t-50 -27.5t-56 -8.5q-49 0 -94.5 25t-86 50t-75.5 25q-33 0 -52.5 -23t-19.5 -69h-90q-3 95 42.5 136.5t109.5 41.5q51 0 97.5 -25t87 -50t75.5 -25q71 0 71 92z" />
    <glyph glyph-name="odieresis" unicode="&#xf6;" horiz-adv-x="1189" 
d="M659 1274q0 41 24.5 63.5t66.5 22.5t66 -22.5t24 -63.5t-24 -63.5t-66 -22.5t-66.5 22.5t-24.5 63.5zM348 1274q0 41 24 63.5t64 22.5q42 0 66 -22.5t24 -63.5t-24 -63.5t-66 -22.5q-40 0 -64 22.5t-24 63.5zM129 494q0 516 467 516q234 0 349.5 -125.5t115.5 -390.5
q0 -517 -465 -517q-232 0 -349.5 126.5t-117.5 390.5zM946 492q0 223 -84.5 323t-265.5 100q-183 0 -267.5 -100t-84.5 -323q0 -220 85.5 -320t266.5 -100t265.5 100t84.5 320z" />
    <glyph glyph-name="divide" unicode="&#xf7;" horiz-adv-x="1015" 
d="M416 942q0 41 24.5 64.5t65.5 23.5t65.5 -23.5t24.5 -64.5q0 -40 -24.5 -63t-65.5 -23t-65.5 23t-24.5 63zM913 676v-94h-811v94h811zM416 324q0 42 24 65t66 23t66 -23t24 -65q0 -41 -24 -63.5t-66 -22.5t-66 22.5t-24 63.5z" />
    <glyph glyph-name="oslash" unicode="&#xf8;" horiz-adv-x="1202" 
d="M1145 987l-156 -160q76 -122 76 -333q0 -517 -465 -517q-213 0 -328 109l-84 -86h-118l145 152q-82 122 -82 342q0 516 467 516q218 0 336 -115l88 92h121zM295 236l565 583q-78 96 -260 96q-183 0 -267.5 -100t-84.5 -323q0 -160 47 -256zM950 492q0 156 -43 249
l-563 -581q82 -88 256 -88q181 0 265.5 100t84.5 320z" />
    <glyph glyph-name="ugrave" unicode="&#xf9;" horiz-adv-x="1257" 
d="M956 0l-10 217q-51 -119 -152 -179.5t-235 -60.5q-184 0 -278.5 103.5t-94.5 300.5v606h115v-588q0 -325 285 -325q164 0 254.5 101t101.5 282v530h115v-987h-101zM584 1163l-219 219v11h151l166 -224v-6h-98z" />
    <glyph glyph-name="uacute" unicode="&#xfa;" horiz-adv-x="1257" 
d="M881 1382l-219 -219h-97v6l164 224h152v-11zM956 0l-10 217q-51 -119 -152 -179.5t-235 -60.5q-184 0 -278.5 103.5t-94.5 300.5v606h115v-588q0 -325 285 -325q164 0 254.5 101t101.5 282v530h115v-987h-101z" />
    <glyph glyph-name="ucircumflex" unicode="&#xfb;" horiz-adv-x="1257" 
d="M621 1323l-170 -160h-127v4l245 226h107l246 -226v-4h-134zM956 0l-10 217q-51 -119 -152 -179.5t-235 -60.5q-184 0 -278.5 103.5t-94.5 300.5v606h115v-588q0 -325 285 -325q164 0 254.5 101t101.5 282v530h115v-987h-101z" />
    <glyph glyph-name="udieresis" unicode="&#xfc;" horiz-adv-x="1257" 
d="M686 1274q0 41 24 63.5t66 22.5t66 -22.5t24 -63.5t-24 -63.5t-66 -22.5t-66 22.5t-24 63.5zM375 1274q0 41 24 63.5t64 22.5q42 0 66 -22.5t24 -63.5t-24 -63.5t-66 -22.5q-40 0 -64 22.5t-24 63.5zM956 0l-10 217q-51 -119 -152 -179.5t-235 -60.5q-184 0 -278.5 103.5
t-94.5 300.5v606h115v-588q0 -325 285 -325q164 0 254.5 101t101.5 282v530h115v-987h-101z" />
    <glyph glyph-name="yacute" unicode="&#xfd;" horiz-adv-x="987" 
d="M395 -115l37 105l-414 997h121l355 -878l354 878h119l-475 -1141q-66 -158 -152 -217t-205 -59q-76 0 -153 27l18 96q70 -25 135 -25q37 0 66.5 7.5t64 28.5t67.5 66.5t62 114.5zM752 1382l-220 -219h-96v6l164 224h152v-11z" />
    <glyph glyph-name="thorn" unicode="&#xfe;" horiz-adv-x="1243" 
d="M317 487q0 -208 92.5 -311.5t247.5 -103.5q169 0 254.5 108t85.5 316q0 419 -325 419q-161 0 -258 -107.5t-97 -320.5zM317 1434v-662q46 117 146.5 177.5t236.5 60.5q201 0 306.5 -131.5t105.5 -382.5q0 -250 -113 -384.5t-325 -134.5q-123 0 -216 52.5t-141 156.5v-567
h-114v1815h114z" />
    <glyph glyph-name="ydieresis" unicode="&#xff;" horiz-adv-x="987" 
d="M395 -115l37 105l-414 997h121l355 -878l354 878h119l-475 -1141q-66 -158 -152 -217t-205 -59q-76 0 -153 27l18 96q70 -25 135 -25q37 0 66.5 7.5t64 28.5t67.5 66.5t62 114.5zM557 1274q0 41 24 63.5t66 22.5t66 -22.5t24 -63.5t-24 -63.5t-66 -22.5t-66 22.5
t-24 63.5zM246 1274q0 41 24 63.5t64 22.5q42 0 66 -22.5t24 -63.5t-24 -63.5t-66 -22.5q-40 0 -64 22.5t-24 63.5z" />
    <glyph glyph-name="Amacron" unicode="&#x100;" 
d="M614 1321l-319 -897h641zM1087 0l-116 324h-709l-115 -324h-122l520 1434h147l520 -1434h-125zM868 1759v-80h-489v80h489z" />
    <glyph glyph-name="amacron" unicode="&#x101;" horiz-adv-x="1153" 
d="M492 72q159 0 252 101t102 282v45h-289q-163 0 -242 -54t-79 -170q0 -99 65 -151.5t191 -52.5zM852 217q-48 -114 -147.5 -177t-239.5 -63q-156 0 -249 78t-93 217q0 152 107.5 236t322.5 84h293q1 181 -69.5 252t-227.5 71q-214 0 -313 -137l-66 70q110 162 387 162
q202 0 303 -92t101 -306v-612h-99zM803 1313v-80h-490v80h490z" />
    <glyph glyph-name="Abreve" unicode="&#x102;" 
d="M614 1321l-319 -897h641zM1087 0l-116 324h-709l-115 -324h-122l520 1434h147l520 -1434h-125zM797 1837h90q0 -126 -67 -178.5t-199 -52.5t-198.5 52.5t-66.5 178.5h88q0 -86 44 -121t133 -35q90 0 133 35t43 121z" />
    <glyph glyph-name="abreve" unicode="&#x103;" horiz-adv-x="1153" 
d="M492 72q159 0 252 101t102 282v45h-289q-163 0 -242 -54t-79 -170q0 -99 65 -151.5t191 -52.5zM852 217q-48 -114 -147.5 -177t-239.5 -63q-156 0 -249 78t-93 217q0 152 107.5 236t322.5 84h293q1 181 -69.5 252t-227.5 71q-214 0 -313 -137l-66 70q110 162 387 162
q202 0 303 -92t101 -306v-612h-99zM731 1391h90q0 -126 -67 -179t-199 -53q-131 0 -197.5 52.5t-66.5 179.5h88q0 -86 43.5 -121t132.5 -35q90 0 133 35t43 121z" />
    <glyph glyph-name="Aogonek" unicode="&#x104;" 
d="M1073 35l-102 289h-709l-117 -324h-120l520 1434h147l520 -1434h-47q-86 -9 -145 -71t-59 -144q0 -121 135 -121q75 0 131 37l22 -74q-74 -45 -164 -45q-92 0 -152.5 45t-60.5 144q0 97 59 167t142 97zM616 1323l-321 -899h641z" />
    <glyph glyph-name="aogonek" unicode="&#x105;" horiz-adv-x="1153" 
d="M1038 -373q-71 -45 -161 -45q-93 0 -152 44.5t-59 144.5q0 97 56 166t138 98l-8 182q-48 -114 -147.5 -177t-239.5 -63q-156 0 -249 78t-93 217q0 152 107.5 236t322.5 84h293q1 181 -69.5 252t-227.5 71q-214 0 -313 -137l-66 70q110 162 387 162q202 0 303 -92
t101 -306v-612h-7q-86 -9 -143 -71t-57 -144q0 -121 131 -121q77 0 133 37zM492 72q159 0 252 101t102 282v45h-289q-163 0 -242 -54t-79 -170q0 -99 65 -151.5t191 -52.5z" />
    <glyph glyph-name="Cacute" unicode="&#x106;" horiz-adv-x="1425" 
d="M1049 1831l-220 -219h-96v6l164 223h152v-10zM788 -23q-154 0 -268 40.5t-195.5 128.5t-122 230.5t-40.5 340.5q0 200 40.5 342.5t122 229.5t195 127t268.5 40q188 0 315.5 -63.5t199.5 -202.5l-95 -64q-62 125 -165 178.5t-255 53.5q-123 0 -213 -31t-158 -103
t-102 -198t-34 -307q0 -145 23 -254.5t64.5 -183t105 -119.5t140 -66t174.5 -20q158 0 268 58.5t181 193.5l88 -60q-81 -153 -214 -222t-323 -69z" />
    <glyph glyph-name="cacute" unicode="&#x107;" horiz-adv-x="1093" 
d="M854 1382l-219 -219h-96v6l163 224h152v-11zM592 -23q-463 0 -463 515q0 518 465 518q277 0 393 -209l-84 -56q-86 170 -309 170q-182 0 -266 -98t-84 -325q0 -222 85.5 -321t262.5 -99q121 0 197.5 45t121.5 147l88 -47q-104 -240 -407 -240z" />
    <glyph glyph-name="Ccircumflex" unicode="&#x108;" horiz-adv-x="1425" 
d="M793 1772l-170 -160h-127v4l245 225h107l246 -225v-4h-133zM788 -23q-154 0 -268 40.5t-195.5 128.5t-122 230.5t-40.5 340.5q0 200 40.5 342.5t122 229.5t195 127t268.5 40q188 0 315.5 -63.5t199.5 -202.5l-95 -64q-62 125 -165 178.5t-255 53.5q-123 0 -213 -31
t-158 -103t-102 -198t-34 -307q0 -145 23 -254.5t64.5 -183t105 -119.5t140 -66t174.5 -20q158 0 268 58.5t181 193.5l88 -60q-81 -153 -214 -222t-323 -69z" />
    <glyph glyph-name="ccircumflex" unicode="&#x109;" horiz-adv-x="1093" 
d="M594 1323l-170 -160h-127v4l246 226h106l246 -226v-4h-133zM592 -23q-463 0 -463 515q0 518 465 518q277 0 393 -209l-84 -56q-86 170 -309 170q-182 0 -266 -98t-84 -325q0 -222 85.5 -321t262.5 -99q121 0 197.5 45t121.5 147l88 -47q-104 -240 -407 -240z" />
    <glyph glyph-name="Cdotaccent" unicode="&#x10a;" horiz-adv-x="1425" 
d="M788 -23q-154 0 -268 40.5t-195.5 128.5t-122 230.5t-40.5 340.5q0 200 40.5 342.5t122 229.5t195 127t268.5 40q188 0 315.5 -63.5t199.5 -202.5l-95 -64q-62 125 -165 178.5t-255 53.5q-123 0 -213 -31t-158 -103t-102 -198t-34 -307q0 -145 23 -254.5t64.5 -183
t105 -119.5t140 -66t174.5 -20q158 0 268 58.5t181 193.5l88 -60q-81 -153 -214 -222t-323 -69zM702 1722q0 41 25 63.5t68 22.5q41 0 64.5 -22.5t23.5 -63.5t-23.5 -63.5t-64.5 -22.5q-43 0 -68 22.5t-25 63.5z" />
    <glyph glyph-name="cdotaccent" unicode="&#x10b;" horiz-adv-x="1093" 
d="M592 -23q-463 0 -463 515q0 518 465 518q277 0 393 -209l-84 -56q-86 170 -309 170q-182 0 -266 -98t-84 -325q0 -222 85.5 -321t262.5 -99q121 0 197.5 45t121.5 147l88 -47q-104 -240 -407 -240zM508 1274q0 41 24.5 63.5t67.5 22.5q41 0 64.5 -22.5t23.5 -63.5
t-23.5 -63.5t-64.5 -22.5q-43 0 -67.5 22.5t-24.5 63.5z" />
    <glyph glyph-name="Ccaron" unicode="&#x10c;" horiz-adv-x="1425" 
d="M788 1683l173 158h126v-4l-245 -225h-107l-246 225v4h132zM788 -23q-154 0 -268 40.5t-195.5 128.5t-122 230.5t-40.5 340.5q0 200 40.5 342.5t122 229.5t195 127t268.5 40q188 0 315.5 -63.5t199.5 -202.5l-95 -64q-62 125 -165 178.5t-255 53.5q-123 0 -213 -31
t-158 -103t-102 -198t-34 -307q0 -145 23 -254.5t64.5 -183t105 -119.5t140 -66t174.5 -20q158 0 268 58.5t181 193.5l88 -60q-81 -153 -214 -222t-323 -69z" />
    <glyph glyph-name="ccaron" unicode="&#x10d;" horiz-adv-x="1093" 
d="M592 1235l172 158h127v-4l-246 -226h-106l-246 226v4h131zM592 -23q-463 0 -463 515q0 518 465 518q277 0 393 -209l-84 -56q-86 170 -309 170q-182 0 -266 -98t-84 -325q0 -222 85.5 -321t262.5 -99q121 0 197.5 45t121.5 147l88 -47q-104 -240 -407 -240z" />
    <glyph glyph-name="Dcaron" unicode="&#x10e;" horiz-adv-x="1519" 
d="M780 1681l172 158h127v-4l-245 -225h-107l-246 225v4h131zM754 0h-518v1434h520q302 0 452 -167.5t150 -537.5q0 -374 -152.5 -551.5t-451.5 -177.5zM354 100h396q115 0 202 32.5t153 104.5t100 195t34 295q0 167 -32.5 285.5t-96.5 188t-150 101t-202 31.5h-404v-1233z
" />
    <glyph glyph-name="dcaron" unicode="&#x10f;" horiz-adv-x="1329" 
d="M1321 1024h-80l14 410h117zM926 502q0 205 -94.5 309t-249.5 104q-338 0 -338 -421q0 -422 336 -422q157 0 251.5 107.5t94.5 322.5zM934 0l-6 215q-46 -118 -144 -178t-233 -60q-204 0 -313 134t-109 383t113 382.5t325 133.5q252 0 359 -207v631h112v-1434h-104z" />
    <glyph glyph-name="Dcroat" unicode="&#x110;" horiz-adv-x="1552" 
d="M786 0h-518v696h-170v95h170v643h520q150 0 261 -39.5t188.5 -123.5t116.5 -219.5t39 -322.5q0 -729 -607 -729zM387 100h395q115 0 202.5 32.5t154 104.5t101 195t34.5 295q0 167 -33 285.5t-97 188t-150.5 101t-202.5 31.5h-404v-542h354v-95h-354v-596z" />
    <glyph glyph-name="dcroat" unicode="&#x111;" horiz-adv-x="1269" 
d="M926 502q0 206 -94.5 311t-249.5 105q-169 0 -253.5 -107.5t-84.5 -316.5q0 -422 336 -422q157 0 251.5 108t94.5 322zM1208 1233v-78h-170v-1155h-104l-6 213q-49 -117 -146.5 -176.5t-230.5 -59.5q-204 0 -313 134t-109 383t113 382.5t325 133.5q122 0 214.5 -53
t144.5 -156v354h-342v78h342v201h112v-201h170z" />
    <glyph glyph-name="Emacron" unicode="&#x112;" horiz-adv-x="1337" 
d="M236 0v1434h1003v-101h-889v-561h778v-102h-778v-570h910v-100h-1024zM999 1759v-80h-489v80h489z" />
    <glyph glyph-name="emacron" unicode="&#x113;" horiz-adv-x="1112" 
d="M588 -23q-223 0 -341 128t-118 389q0 252 117 384t338 132q207 0 313.5 -128t106.5 -356l-3 -65h-757q6 -202 92.5 -295.5t253.5 -93.5q125 0 202.5 44t120.5 146l86 -45q-104 -240 -411 -240zM580 918q-316 0 -336 -365h645q-6 186 -83 275.5t-226 89.5zM825 1313v-80
h-489v80h489z" />
    <glyph glyph-name="Ebreve" unicode="&#x114;" horiz-adv-x="1337" 
d="M236 0v1434h1003v-101h-889v-561h778v-102h-778v-570h910v-100h-1024zM930 1837h90q0 -126 -67 -178.5t-199 -52.5t-198.5 52.5t-66.5 178.5h89q0 -86 43.5 -121t132.5 -35q90 0 133 35t43 121z" />
    <glyph glyph-name="ebreve" unicode="&#x115;" horiz-adv-x="1112" 
d="M588 -23q-223 0 -341 128t-118 389q0 252 117 384t338 132q207 0 313.5 -128t106.5 -356l-3 -65h-757q6 -202 92.5 -295.5t253.5 -93.5q125 0 202.5 44t120.5 146l86 -45q-104 -240 -411 -240zM580 918q-316 0 -336 -365h645q-6 186 -83 275.5t-226 89.5zM752 1391h90
q0 -126 -67.5 -179t-199.5 -53q-131 0 -197.5 52.5t-66.5 179.5h88q0 -86 43.5 -121t132.5 -35q90 0 133.5 35t43.5 121z" />
    <glyph glyph-name="Edotaccent" unicode="&#x116;" horiz-adv-x="1337" 
d="M236 0v1434h1003v-101h-889v-561h778v-102h-778v-570h910v-100h-1024zM670 1720q0 41 24.5 63.5t67.5 22.5q41 0 64.5 -22.5t23.5 -63.5t-23.5 -63.5t-64.5 -22.5q-43 0 -67.5 22.5t-24.5 63.5z" />
    <glyph glyph-name="edotaccent" unicode="&#x117;" horiz-adv-x="1112" 
d="M588 -23q-223 0 -341 128t-118 389q0 252 117 384t338 132q207 0 313.5 -128t106.5 -356l-3 -65h-757q6 -202 92.5 -295.5t253.5 -93.5q125 0 202.5 44t120.5 146l86 -45q-104 -240 -411 -240zM580 918q-316 0 -336 -365h645q-6 186 -83 275.5t-226 89.5zM492 1274
q0 41 24.5 63.5t67.5 22.5q41 0 64.5 -22.5t23.5 -63.5t-23.5 -63.5t-64.5 -22.5q-43 0 -67.5 22.5t-24.5 63.5z" />
    <glyph glyph-name="Eogonek" unicode="&#x118;" horiz-adv-x="1337" 
d="M236 0v1434h1003v-101h-887v-561h776v-102h-776v-570h908v-100q-96 -9 -158 -70.5t-62 -144.5q0 -121 134 -121q77 0 133 37l20 -74q-71 -45 -162 -45q-59 0 -104 16.5t-76 60.5t-31 112q0 76 36 135.5t93 93.5h-847z" />
    <glyph glyph-name="eogonek" unicode="&#x119;" horiz-adv-x="1112" 
d="M477 -229q0 129 101 209q-217 2 -333 128.5t-116 385.5q0 252 117 384t338 132q208 0 314 -128t106 -356q0 -38 -3 -65h-759q4 -202 92 -295.5t256 -93.5q125 0 202.5 44t120.5 146l86 -45q-76 -174 -264 -221q-76 -20 -123 -79t-47 -132q0 -121 133 -121q77 0 133 37
l21 -74q-74 -45 -164 -45q-59 0 -104 16.5t-76 60.5t-31 112zM580 918q-318 0 -336 -365h647q-9 365 -311 365z" />
    <glyph glyph-name="Ecaron" unicode="&#x11a;" horiz-adv-x="1337" 
d="M754 1681l172 158h127v-4l-246 -225h-107l-245 225v4h131zM236 0v1434h1003v-101h-889v-561h778v-102h-778v-570h910v-100h-1024z" />
    <glyph glyph-name="ecaron" unicode="&#x11b;" horiz-adv-x="1112" 
d="M580 1235l172 158h127v-4l-246 -226h-107l-245 226v4h131zM588 -23q-223 0 -341 128t-118 389q0 252 117 384t338 132q207 0 313.5 -128t106.5 -356l-3 -65h-757q6 -202 92.5 -295.5t253.5 -93.5q125 0 202.5 44t120.5 146l86 -45q-104 -240 -411 -240zM580 918
q-316 0 -336 -365h645q-6 186 -83 275.5t-226 89.5z" />
    <glyph glyph-name="Gcircumflex" unicode="&#x11c;" horiz-adv-x="1490" 
d="M786 1769l-170 -159h-127v4l246 225h107l245 -225v-4h-133zM770 -23q-608 0 -608 740q0 200 40.5 342.5t122 229.5t195 127t268.5 40q371 0 512 -262l-94 -66q-63 121 -165.5 175.5t-252.5 54.5q-124 0 -213 -30.5t-157.5 -102.5t-102.5 -198.5t-34 -309.5
q0 -179 34 -304.5t101 -198.5t156.5 -105.5t211.5 -32.5q73 0 136 14.5t119.5 48t97.5 85t66.5 130t29.5 178.5v52h-426v94h536v-678h-100l-8 260q-54 -137 -175 -210t-290 -73z" />
    <glyph glyph-name="gcircumflex" unicode="&#x11d;" 
d="M569 1323l-170 -160h-127v4l246 226h107l245 -226v-4h-133zM920 512q0 202 -94.5 304t-250.5 102q-331 0 -331 -414q0 -416 329 -416q158 0 252.5 105.5t94.5 318.5zM1034 987v-977q0 -226 -128 -333t-349 -107q-148 0 -252.5 51.5t-165.5 173.5l84 60
q53 -103 134.5 -147t199.5 -44q363 0 363 344v201q-50 -107 -145.5 -161t-225.5 -54q-201 0 -310.5 131.5t-109.5 378.5q0 244 109 375t315 131q129 0 225 -54t146 -159l12 190h98z" />
    <glyph glyph-name="Gbreve" unicode="&#x11e;" horiz-adv-x="1490" 
d="M770 -23q-608 0 -608 740q0 200 40.5 342.5t122 229.5t195 127t268.5 40q371 0 512 -262l-94 -66q-63 121 -165.5 175.5t-252.5 54.5q-124 0 -213 -30.5t-157.5 -102.5t-102.5 -198.5t-34 -309.5q0 -179 34 -304.5t101 -198.5t156.5 -105.5t211.5 -32.5q73 0 136 14.5
t119.5 48t97.5 85t66.5 130t29.5 178.5v52h-426v94h536v-678h-100l-8 260q-54 -137 -175 -210t-290 -73zM958 1837h91q0 -126 -67.5 -178.5t-199.5 -52.5t-198 52.5t-66 178.5h88q0 -86 43.5 -121t132.5 -35q90 0 133 35t43 121z" />
    <glyph glyph-name="gbreve" unicode="&#x11f;" 
d="M920 512q0 202 -94.5 304t-250.5 102q-331 0 -331 -414q0 -416 329 -416q158 0 252.5 105.5t94.5 318.5zM1034 987v-977q0 -226 -128 -333t-349 -107q-148 0 -252.5 51.5t-165.5 173.5l84 60q53 -103 134.5 -147t199.5 -44q363 0 363 344v201q-50 -107 -145.5 -161
t-225.5 -54q-201 0 -310.5 131.5t-109.5 378.5q0 244 109 375t315 131q129 0 225 -54t146 -159l12 190h98zM741 1391h90q0 -126 -67 -179t-199 -53q-131 0 -197.5 52.5t-66.5 179.5h88q0 -86 43.5 -121t132.5 -35q90 0 133 35t43 121z" />
    <glyph glyph-name="Gdotaccent" unicode="&#x120;" horiz-adv-x="1490" 
d="M770 -23q-608 0 -608 740q0 200 40.5 342.5t122 229.5t195 127t268.5 40q371 0 512 -262l-94 -66q-63 121 -165.5 175.5t-252.5 54.5q-124 0 -213 -30.5t-157.5 -102.5t-102.5 -198.5t-34 -309.5q0 -179 34 -304.5t101 -198.5t156.5 -105.5t211.5 -32.5q73 0 136 14.5
t119.5 48t97.5 85t66.5 130t29.5 178.5v52h-426v94h536v-678h-100l-8 260q-54 -137 -175 -210t-290 -73zM698 1720q0 41 25 63.5t68 22.5q41 0 64.5 -22.5t23.5 -63.5t-23.5 -63.5t-64.5 -22.5q-43 0 -68 22.5t-25 63.5z" />
    <glyph glyph-name="gdotaccent" unicode="&#x121;" 
d="M920 512q0 202 -94.5 304t-250.5 102q-331 0 -331 -414q0 -416 329 -416q158 0 252.5 105.5t94.5 318.5zM1034 987v-977q0 -226 -128 -333t-349 -107q-148 0 -252.5 51.5t-165.5 173.5l84 60q53 -103 134.5 -147t199.5 -44q363 0 363 344v201q-50 -107 -145.5 -161
t-225.5 -54q-201 0 -310.5 131.5t-109.5 378.5q0 244 109 375t315 131q129 0 225 -54t146 -159l12 190h98zM481 1274q0 41 24.5 63.5t67.5 22.5q42 0 65.5 -22.5t23.5 -63.5t-23.5 -63.5t-65.5 -22.5q-43 0 -67.5 22.5t-24.5 63.5z" />
    <glyph glyph-name="Gcommaaccent" unicode="&#x122;" horiz-adv-x="1490" 
d="M715 -522l-25 53q49 20 76.5 64t30.5 102q-51 -7 -78 17.5t-27 64.5q0 39 22.5 60.5t61.5 21.5q94 0 94 -125q0 -93 -39.5 -163.5t-115.5 -94.5zM770 -23q-608 0 -608 740q0 200 40.5 342.5t122 229.5t195 127t268.5 40q371 0 512 -262l-94 -66q-63 121 -165.5 175.5
t-252.5 54.5q-124 0 -213 -30.5t-157.5 -102.5t-102.5 -198.5t-34 -309.5q0 -179 34 -304.5t101 -198.5t156.5 -105.5t211.5 -32.5q73 0 136 14.5t119.5 48t97.5 85t66.5 130t29.5 178.5v52h-426v94h536v-678h-100l-8 260q-54 -137 -175 -210t-290 -73z" />
    <glyph glyph-name="gcommaaccent" unicode="&#x123;" 
d="M635 1550l24 -53q-99 -41 -106 -166q51 7 77.5 -17.5t26.5 -64.5q0 -39 -22.5 -60.5t-61.5 -21.5q-94 0 -94 125q0 93 40 163.5t116 94.5zM920 512q0 202 -94.5 304t-250.5 102q-331 0 -331 -414q0 -416 329 -416q158 0 252.5 105.5t94.5 318.5zM1034 987v-977
q0 -226 -128 -333t-349 -107q-148 0 -252.5 51.5t-165.5 173.5l84 60q53 -103 134.5 -147t199.5 -44q363 0 363 344v201q-50 -107 -145.5 -161t-225.5 -54q-201 0 -310.5 131.5t-109.5 378.5q0 244 109 375t315 131q129 0 225 -54t146 -159l12 190h98z" />
    <glyph glyph-name="Hcircumflex" unicode="&#x124;" horiz-adv-x="1603" 
d="M803 1772l-170 -160h-127v4l246 225h106l246 -225v-4h-133zM1249 0v670h-895v-670h-118v1434h118v-662h895v662h119v-1434h-119z" />
    <glyph glyph-name="hcircumflex" unicode="&#x125;" horiz-adv-x="1261" 
d="M266 1686l-170 -160h-127v4l246 225h107l245 -225v-4h-133zM315 1434v-678q50 125 155 189.5t243 64.5q362 0 362 -385v-625h-114v594q0 168 -73 242.5t-210 74.5q-163 0 -258.5 -107t-104.5 -292v-512h-114v1434h114z" />
    <glyph glyph-name="Hbar" unicode="&#x126;" horiz-adv-x="1628" 
d="M367 772h895v252h-895v-252zM1262 0v670h-895v-670h-119v1024h-156v84h156v326h119v-326h895v326h118v-326h164v-84h-164v-1024h-118z" />
    <glyph glyph-name="hbar" unicode="&#x127;" horiz-adv-x="1290" 
d="M59 1155v78h170v201h115v-201h340v-78h-340v-399q50 126 154 190t243 64q361 0 361 -385v-625h-115v594q0 168 -72 242.5t-208 74.5q-164 0 -259.5 -107t-103.5 -292v-512h-115v1155h-170z" />
    <glyph glyph-name="Itilde" unicode="&#x128;" horiz-adv-x="589" 
d="M236 0v1434h118v-1434h-118zM492 1817h90q1 -50 -12.5 -87t-37.5 -56t-50.5 -27.5t-55.5 -8.5q-39 0 -76.5 16t-62.5 34.5t-57 34.5t-60 16q-33 0 -52.5 -23t-19.5 -69h-90q-3 95 42.5 136.5t109.5 41.5q40 0 78.5 -16t64 -34.5t57.5 -34.5t60 -16q72 0 72 93z" />
    <glyph glyph-name="itilde" unicode="&#x129;" horiz-adv-x="528" 
d="M207 987h115v-987h-115v987zM459 1370h90q1 -50 -12.5 -86.5t-37.5 -55.5t-50 -27.5t-56 -8.5q-49 0 -94.5 25t-86 50t-75.5 25q-71 0 -71 -92h-91q-3 95 42.5 136.5t109.5 41.5q51 0 97.5 -25t87 -50t75.5 -25q72 0 72 92z" />
    <glyph glyph-name="Imacron" unicode="&#x12a;" horiz-adv-x="589" 
d="M236 0v1434h118v-1434h-118zM541 1759v-80h-490v80h490z" />
    <glyph glyph-name="imacron" unicode="&#x12b;" horiz-adv-x="528" 
d="M207 987h115v-987h-115v987zM510 1313v-80h-490v80h490z" />
    <glyph glyph-name="Ibreve" unicode="&#x12c;" horiz-adv-x="589" 
d="M236 0v1434h118v-1434h-118zM469 1837h90q0 -126 -67 -178.5t-199 -52.5t-198 52.5t-66 178.5h88q0 -86 43.5 -121t132.5 -35q90 0 133 35t43 121z" />
    <glyph glyph-name="ibreve" unicode="&#x12d;" horiz-adv-x="528" 
d="M207 987h115v-987h-115v987zM438 1391h90q0 -126 -67 -179t-199 -53q-131 0 -197.5 52.5t-66.5 179.5h88q0 -86 43.5 -121t132.5 -35q90 0 133 35t43 121z" />
    <glyph glyph-name="Iogonek" unicode="&#x12e;" horiz-adv-x="589" 
d="M223 -418q-93 0 -152 44.5t-59 144.5q0 107 65.5 178.5t158.5 93.5v1391h118v-1434h-53q-85 -9 -144 -71t-59 -144q0 -121 133 -121q78 0 134 37l20 -74q-71 -45 -162 -45z" />
    <glyph glyph-name="iogonek" unicode="&#x12f;" horiz-adv-x="528" 
d="M176 1276q0 41 23.5 63.5t64.5 22.5t64.5 -22.5t23.5 -63.5t-23.5 -64.5t-64.5 -23.5t-64.5 23.5t-23.5 64.5zM197 -418q-59 0 -104 16.5t-76 60.5t-31 112q0 106 65 178t156 94v944h115v-987h-46q-86 -9 -144 -71t-58 -144q0 -121 131 -121q77 0 133 37l22 -74
q-74 -45 -163 -45z" />
    <glyph glyph-name="Idotaccent" unicode="&#x130;" horiz-adv-x="589" 
d="M236 0v1434h118v-1434h-118zM209 1720q0 41 24.5 63.5t67.5 22.5q41 0 64.5 -22.5t23.5 -63.5t-23.5 -63.5t-64.5 -22.5q-43 0 -67.5 22.5t-24.5 63.5z" />
    <glyph glyph-name="dotlessi" unicode="&#x131;" horiz-adv-x="528" 
d="M207 987h115v-987h-115v987z" />
    <glyph glyph-name="IJ" unicode="&#x132;" horiz-adv-x="1619" 
d="M236 0v1434h118v-1434h-118zM942 -23q-174 0 -299 91l55 92q101 -82 252 -82q171 0 266 106t95 334v916h116v-908q0 -149 -34.5 -256.5t-99.5 -171t-151.5 -92.5t-199.5 -29z" />
    <glyph glyph-name="ij" unicode="&#x133;" horiz-adv-x="1054" 
d="M176 1276q0 41 23.5 63.5t64.5 22.5t64.5 -22.5t23.5 -63.5t-23.5 -64.5t-64.5 -23.5t-64.5 23.5t-23.5 64.5zM207 987h115v-987h-115v987zM705 1276q0 41 23.5 63.5t64.5 22.5t64.5 -22.5t23.5 -63.5t-23.5 -64.5t-64.5 -23.5t-64.5 23.5t-23.5 64.5zM735 -94v1081h115
v-1098q0 -319 -264 -319q-77 0 -154 27l21 96q61 -25 125 -25q80 0 118.5 54t38.5 184z" />
    <glyph glyph-name="Jcircumflex" unicode="&#x134;" horiz-adv-x="1026" 
d="M776 1769l-170 -159h-127v4l246 225h106l246 -225v-4h-133zM346 -23q-174 0 -299 91l55 92q101 -82 252 -82q171 0 266 106t95 334v916h116v-908q0 -149 -34.5 -256.5t-99.5 -171t-151.5 -92.5t-199.5 -29z" />
    <glyph glyph-name="jcircumflex" unicode="&#x135;" horiz-adv-x="528" 
d="M207 -94v1081h115v-1098q0 -319 -265 -319q-76 0 -153 27l20 96q61 -25 125 -25q80 0 119 54t39 184zM264 1323l-170 -160h-127v4l246 226h106l246 -226v-4h-133z" />
    <glyph glyph-name="Kcommaaccent" unicode="&#x136;" horiz-adv-x="1282" 
d="M649 -522l-24 53q99 41 106 166q-51 -7 -77.5 17.5t-26.5 64.5q0 39 22.5 60.5t61.5 21.5q94 0 94 -125q0 -93 -40 -163.5t-116 -94.5zM236 0v1434h118v-856l733 856h142l-555 -643l594 -791h-142l-530 705l-242 -279v-426h-118z" />
    <glyph glyph-name="kcommaaccent" unicode="&#x137;" horiz-adv-x="1046" 
d="M496 -522l-25 53q49 20 76.5 64t30.5 102q-51 -7 -78 17.5t-27 64.5q0 39 22.5 60.5t61.5 21.5q94 0 94 -125q0 -93 -39.5 -163.5t-115.5 -94.5zM203 0v1434h114v-1031l539 584h139l-409 -438l428 -549h-137l-365 473l-195 -205v-268h-114z" />
    <glyph glyph-name="kgreenlandic" unicode="&#x138;" horiz-adv-x="1046" 
d="M203 0v987h114v-584l539 584h139l-409 -438l428 -549h-137l-365 473l-195 -205v-268h-114z" />
    <glyph glyph-name="Lacute" unicode="&#x139;" horiz-adv-x="1267" 
d="M553 1829l-219 -219h-96v6l163 223h152v-10zM354 100h865v-100h-983v1434h118v-1334z" />
    <glyph glyph-name="lacute" unicode="&#x13a;" horiz-adv-x="532" 
d="M514 1831l-219 -219h-96v6l163 223h152v-10zM410 0q-213 0 -213 209v1225h114v-1211q0 -73 27 -101t98 -28h70v-94h-96z" />
    <glyph glyph-name="Lcommaaccent" unicode="&#x13b;" horiz-adv-x="1267" 
d="M664 -522l-25 53q99 41 106 166q-51 -7 -77.5 17.5t-26.5 64.5q0 39 22.5 60.5t61.5 21.5q94 0 94 -125q0 -93 -39.5 -163.5t-115.5 -94.5zM354 100h865v-100h-983v1434h118v-1334z" />
    <glyph glyph-name="lcommaaccent" unicode="&#x13c;" horiz-adv-x="532" 
d="M408 0q-213 0 -213 209v1225h114v-1211q0 -73 27 -101t98 -28h70v-94h-96zM295 -522l-25 53q49 20 76.5 64t30.5 102q-51 -7 -78 17.5t-27 64.5q0 39 22.5 60.5t61.5 21.5q95 0 95 -125q0 -93 -40 -163.5t-116 -94.5z" />
    <glyph glyph-name="Lcaron" unicode="&#x13d;" horiz-adv-x="1267" 
d="M887 1024h-80l14 410h117zM354 100h865v-100h-983v1434h118v-1334z" />
    <glyph glyph-name="lcaron" unicode="&#x13e;" horiz-adv-x="610" 
d="M602 1024h-80l15 410h116zM410 0q-213 0 -213 209v1225h114v-1211q0 -73 27 -101t98 -28h70v-94h-96z" />
    <glyph glyph-name="Ldot" unicode="&#x13f;" horiz-adv-x="1267" 
d="M354 100h865v-100h-983v1434h118v-1334zM801 727q0 41 24.5 63.5t67.5 22.5q41 0 64.5 -22.5t23.5 -63.5t-23.5 -63.5t-64.5 -22.5q-43 0 -67.5 22.5t-24.5 63.5z" />
    <glyph glyph-name="ldot" unicode="&#x140;" horiz-adv-x="673" 
d="M410 0q-213 0 -213 209v1225h114v-1211q0 -73 27 -101t98 -28h70v-94h-96zM498 616q0 41 24.5 63.5t67.5 22.5q41 0 64.5 -22.5t23.5 -63.5t-23.5 -63.5t-64.5 -22.5q-43 0 -67.5 22.5t-24.5 63.5z" />
    <glyph glyph-name="Lslash" unicode="&#x141;" horiz-adv-x="1308" 
d="M395 100h865v-100h-984v578l-225 -154v111l225 153v746h119v-670l359 242v-111l-359 -242v-553z" />
    <glyph glyph-name="lslash" unicode="&#x142;" horiz-adv-x="585" 
d="M545 0h-96q-213 0 -213 209v387l-211 -184v112l211 185v725h114v-635l234 207v-113l-234 -207v-463q0 -73 27 -101t98 -28h70v-94z" />
    <glyph glyph-name="Nacute" unicode="&#x143;" horiz-adv-x="1585" 
d="M1051 1829l-220 -219h-96v6l164 223h152v-10zM1227 0l-881 1262l4 -1262h-114v1434h122l879 -1258l-2 1258h115v-1434h-123z" />
    <glyph glyph-name="nacute" unicode="&#x144;" horiz-adv-x="1261" 
d="M913 1382l-219 -219h-96v6l164 224h151v-11zM201 987h100l14 -223q53 123 156.5 184.5t241.5 61.5q362 0 362 -385v-625h-114v596q0 167 -72.5 241t-210.5 74q-162 0 -257 -107t-106 -292v-512h-114v987z" />
    <glyph glyph-name="Ncommaaccent" unicode="&#x145;" horiz-adv-x="1585" 
d="M729 -522l-24 53q99 41 106 166q-51 -7 -77.5 17.5t-26.5 64.5q0 39 22.5 60.5t61.5 21.5q94 0 94 -125q0 -93 -40 -163.5t-116 -94.5zM1227 0l-881 1262l4 -1262h-114v1434h122l879 -1258l-2 1258h115v-1434h-123z" />
    <glyph glyph-name="ncommaaccent" unicode="&#x146;" horiz-adv-x="1261" 
d="M582 -522l-25 53q49 20 76.5 64t30.5 102q-51 -7 -78 17.5t-27 64.5q0 39 22.5 60.5t61.5 21.5q94 0 94 -125q0 -93 -39.5 -163.5t-115.5 -94.5zM201 987h100l14 -223q53 123 156.5 184.5t241.5 61.5q362 0 362 -385v-625h-114v596q0 167 -72.5 241t-210.5 74
q-162 0 -257 -107t-106 -292v-512h-114v987z" />
    <glyph glyph-name="Ncaron" unicode="&#x147;" horiz-adv-x="1585" 
d="M791 1681l172 158h127v-4l-246 -225h-107l-245 225v4h131zM1227 0l-881 1262l4 -1262h-114v1434h122l879 -1258l-2 1258h115v-1434h-123z" />
    <glyph glyph-name="ncaron" unicode="&#x148;" horiz-adv-x="1261" 
d="M653 1235l172 158h127v-4l-245 -226h-107l-246 226v4h131zM201 987h100l14 -223q53 123 156.5 184.5t241.5 61.5q362 0 362 -385v-625h-114v596q0 167 -72.5 241t-210.5 74q-162 0 -257 -107t-106 -292v-512h-114v987z" />
    <glyph glyph-name="Eng" unicode="&#x14a;" horiz-adv-x="1585" 
d="M1233 -94v86l-887 1270l4 -1262h-114v1434h122l879 -1258l-2 1258h115v-1545q0 -163 -69 -241t-196 -78q-77 0 -151 27l18 96q61 -25 123 -25q80 0 119 54t39 184z" />
    <glyph glyph-name="eng" unicode="&#x14b;" horiz-adv-x="1261" 
d="M961 -94v690q0 167 -72.5 241t-210.5 74q-162 0 -257 -107t-106 -292v-512h-114v987h100l14 -225q106 248 398 248q362 0 362 -385v-736q0 -319 -264 -319q-75 0 -152 27l19 96q61 -25 127 -25q79 0 117.5 54t38.5 184z" />
    <glyph glyph-name="Omacron" unicode="&#x14c;" horiz-adv-x="1574" 
d="M1034 1759v-80h-489v80h489zM786 -23q-315 0 -469.5 175.5t-154.5 564.5t155 564t469 175q321 0 475 -174t154 -565q0 -388 -157 -564t-472 -176zM786 1358q-125 0 -215.5 -31.5t-157 -104t-99.5 -198t-33 -307.5q0 -179 33 -303.5t99.5 -198.5t157 -106.5t215.5 -32.5
q126 0 217 32t158.5 105.5t101 199t33.5 306.5q0 143 -22.5 251.5t-63.5 182t-104.5 119.5t-141.5 66t-178 20z" />
    <glyph glyph-name="omacron" unicode="&#x14d;" horiz-adv-x="1189" 
d="M840 1313v-80h-490v80h490zM129 494q0 516 467 516q234 0 349.5 -125.5t115.5 -390.5q0 -517 -465 -517q-232 0 -349.5 126.5t-117.5 390.5zM946 492q0 223 -84.5 323t-265.5 100q-183 0 -267.5 -100t-84.5 -323q0 -220 85.5 -320t266.5 -100t265.5 100t84.5 320z" />
    <glyph glyph-name="Obreve" unicode="&#x14e;" horiz-adv-x="1574" 
d="M786 -23q-315 0 -469.5 175.5t-154.5 564.5t155 564t469 175q321 0 475 -174t154 -565q0 -388 -157 -564t-472 -176zM786 1358q-125 0 -215.5 -31.5t-157 -104t-99.5 -198t-33 -307.5q0 -179 33 -303.5t99.5 -198.5t157 -106.5t215.5 -32.5q126 0 217 32t158.5 105.5
t101 199t33.5 306.5q0 143 -22.5 251.5t-63.5 182t-104.5 119.5t-141.5 66t-178 20zM961 1837h90q0 -126 -67.5 -178.5t-199.5 -52.5t-198 52.5t-66 178.5h88q0 -86 43.5 -121t132.5 -35q90 0 133.5 35t43.5 121z" />
    <glyph glyph-name="obreve" unicode="&#x14f;" horiz-adv-x="1189" 
d="M129 494q0 516 467 516q234 0 349.5 -125.5t115.5 -390.5q0 -517 -465 -517q-232 0 -349.5 126.5t-117.5 390.5zM946 492q0 223 -84.5 323t-265.5 100q-183 0 -267.5 -100t-84.5 -323q0 -220 85.5 -320t266.5 -100t265.5 100t84.5 320zM768 1391h90q0 -126 -67 -179
t-199 -53q-131 0 -197.5 52.5t-66.5 179.5h88q0 -86 43.5 -121t132.5 -35q90 0 133 35t43 121z" />
    <glyph glyph-name="Ohungarumlaut" unicode="&#x150;" horiz-adv-x="1574" 
d="M1157 1829l-225 -219h-94v6l166 223h153v-10zM891 1829l-191 -219h-94v6l146 223h139v-10zM786 -23q-315 0 -469.5 175.5t-154.5 564.5t155 564t469 175q321 0 475 -174t154 -565q0 -388 -157 -564t-472 -176zM786 1358q-125 0 -215.5 -31.5t-157 -104t-99.5 -198
t-33 -307.5q0 -179 33 -303.5t99.5 -198.5t157 -106.5t215.5 -32.5q126 0 217 32t158.5 105.5t101 199t33.5 306.5q0 143 -22.5 251.5t-63.5 182t-104.5 119.5t-141.5 66t-178 20z" />
    <glyph glyph-name="ohungarumlaut" unicode="&#x151;" horiz-adv-x="1189" 
d="M961 1382l-226 -219h-94v6l166 224h154v-11zM694 1382l-190 -219h-94v6l145 224h139v-11zM129 494q0 516 467 516q234 0 349.5 -125.5t115.5 -390.5q0 -517 -465 -517q-232 0 -349.5 126.5t-117.5 390.5zM946 492q0 223 -84.5 323t-265.5 100q-183 0 -267.5 -100
t-84.5 -323q0 -220 85.5 -320t266.5 -100t265.5 100t84.5 320z" />
    <glyph glyph-name="OE" unicode="&#x152;" horiz-adv-x="2258" 
d="M2181 0h-1413q-303 0 -455.5 177t-152.5 552q0 370 152 537.5t458 167.5h1391v-101h-879v-561h768v-102h-768v-570h899v-100zM772 100h393v1233h-397q-118 0 -205.5 -31.5t-152.5 -101t-98 -188t-33 -285.5q0 -173 34 -295.5t99.5 -194.5t154 -104.5t205.5 -32.5z" />
    <glyph glyph-name="oe" unicode="&#x153;" horiz-adv-x="1933" 
d="M129 494q0 516 467 516q310 0 410 -232q107 232 399 232q206 0 312 -128t106 -356q0 -14 -1 -36.5t-1 -28.5h-760q6 -202 93 -295.5t255 -93.5q125 0 203 44t121 146l86 -45q-104 -240 -412 -240q-300 0 -403 232q-101 -232 -408 -232q-232 0 -349.5 126.5t-117.5 390.5z
M1061 553h651q-7 186 -85.5 275.5t-227.5 89.5q-318 0 -338 -365zM596 72q181 0 264.5 100t83.5 320q0 223 -83.5 323t-264.5 100q-183 0 -267.5 -100t-84.5 -323q0 -220 85.5 -320t266.5 -100z" />
    <glyph glyph-name="Racute" unicode="&#x154;" horiz-adv-x="1359" 
d="M1001 1829l-219 -219h-96v6l164 223h151v-10zM778 1333h-424v-661h432q165 0 256 85t91 251q0 164 -87.5 244.5t-267.5 80.5zM236 0v1434h540q243 0 358 -106t115 -316q0 -165 -75 -274t-226 -148l322 -590h-129l-314 571q-10 -2 -32 -2h-441v-569h-118z" />
    <glyph glyph-name="racute" unicode="&#x155;" horiz-adv-x="724" 
d="M670 1382l-219 -219h-97v6l164 224h152v-11zM201 0v987h100l10 -246q49 129 149 195.5t230 60.5v-108q-170 10 -267 -91.5t-108 -299.5v-498h-114z" />
    <glyph glyph-name="Rcommaaccent" unicode="&#x156;" horiz-adv-x="1359" 
d="M639 -522l-25 53q49 20 76.5 64t30.5 102q-51 -7 -78 17.5t-27 64.5q0 39 22.5 60.5t61.5 21.5q95 0 95 -125q0 -93 -40 -163.5t-116 -94.5zM778 1333h-424v-661h432q165 0 256 85t91 251q0 164 -87.5 244.5t-267.5 80.5zM236 0v1434h540q243 0 358 -106t115 -316
q0 -165 -75 -274t-226 -148l322 -590h-129l-314 571q-10 -2 -32 -2h-441v-569h-118z" />
    <glyph glyph-name="rcommaaccent" unicode="&#x157;" horiz-adv-x="724" 
d="M195 -522l-25 53q99 41 106 166q-51 -7 -77.5 17.5t-26.5 64.5q0 39 22.5 60.5t61.5 21.5q94 0 94 -125q0 -93 -39.5 -163.5t-115.5 -94.5zM201 0v987h100l10 -246q49 129 149 195.5t230 60.5v-108q-170 10 -267 -91.5t-108 -299.5v-498h-114z" />
    <glyph glyph-name="Rcaron" unicode="&#x158;" horiz-adv-x="1359" 
d="M741 1681l172 158h127v-4l-245 -225h-107l-246 225v4h131zM778 1333h-424v-661h432q165 0 256 85t91 251q0 164 -87.5 244.5t-267.5 80.5zM236 0v1434h540q243 0 358 -106t115 -316q0 -165 -75 -274t-226 -148l322 -590h-129l-314 571q-10 -2 -32 -2h-441v-569h-118z" />
    <glyph glyph-name="rcaron" unicode="&#x159;" horiz-adv-x="724" 
d="M444 1235l172 158h127v-4l-245 -226h-107l-246 226v4h131zM201 0v987h100l10 -246q49 129 149 195.5t230 60.5v-108q-170 10 -267 -91.5t-108 -299.5v-498h-114z" />
    <glyph glyph-name="Sacute" unicode="&#x15a;" horiz-adv-x="1261" 
d="M870 1829l-219 -219h-96v6l164 223h151v-10zM1102 1202l-96 -59q-63 113 -155 166t-241 53q-183 0 -272.5 -74t-89.5 -203q0 -108 75 -177.5t242 -108.5l129 -31q240 -57 341.5 -146.5t101.5 -244.5q0 -190 -133 -295t-381 -105q-191 0 -323.5 64t-219.5 207l94 61
q82 -128 183.5 -181.5t263.5 -53.5q205 0 303 77t98 218q0 110 -73 173t-271 113l-133 33q-208 52 -310 146t-102 247q0 172 124 273.5t355 101.5q185 0 300 -61.5t190 -192.5z" />
    <glyph glyph-name="sacute" unicode="&#x15b;" horiz-adv-x="1036" 
d="M758 1382l-219 -219h-97v6l164 224h152v-11zM516 66q138 0 203 50t65 132q0 78 -50.5 118.5t-182.5 69.5l-92 21q-162 35 -238 100t-76 170q0 128 91 205.5t270 77.5q121 0 204.5 -36.5t147.5 -119.5l-76 -70q-58 73 -122 104.5t-160 31.5q-122 0 -184 -48t-62 -133
q0 -68 48 -108.5t171 -69.5l105 -24q179 -39 247 -105.5t68 -169.5q0 -127 -90.5 -206t-290.5 -79q-142 0 -244 45t-172 146l84 63q60 -88 138.5 -126.5t197.5 -38.5z" />
    <glyph glyph-name="Scircumflex" unicode="&#x15c;" horiz-adv-x="1261" 
d="M612 1769l-170 -159h-127v4l246 225h107l245 -225v-4h-133zM1102 1202l-96 -59q-63 113 -155 166t-241 53q-183 0 -272.5 -74t-89.5 -203q0 -108 75 -177.5t242 -108.5l129 -31q240 -57 341.5 -146.5t101.5 -244.5q0 -190 -133 -295t-381 -105q-191 0 -323.5 64
t-219.5 207l94 61q82 -128 183.5 -181.5t263.5 -53.5q205 0 303 77t98 218q0 110 -73 173t-271 113l-133 33q-208 52 -310 146t-102 247q0 172 124 273.5t355 101.5q185 0 300 -61.5t190 -192.5z" />
    <glyph glyph-name="scircumflex" unicode="&#x15d;" horiz-adv-x="1036" 
d="M500 1323l-170 -160h-127v4l246 226h106l246 -226v-4h-133zM516 66q138 0 203 50t65 132q0 78 -50.5 118.5t-182.5 69.5l-92 21q-162 35 -238 100t-76 170q0 128 91 205.5t270 77.5q121 0 204.5 -36.5t147.5 -119.5l-76 -70q-58 73 -122 104.5t-160 31.5q-122 0 -184 -48
t-62 -133q0 -68 48 -108.5t171 -69.5l105 -24q179 -39 247 -105.5t68 -169.5q0 -127 -90.5 -206t-290.5 -79q-142 0 -244 45t-172 146l84 63q60 -88 138.5 -126.5t197.5 -38.5z" />
    <glyph glyph-name="Scedilla" unicode="&#x15e;" horiz-adv-x="1261" 
d="M594 -467q-147 0 -217 109l59 53q31 -48 65 -69t89 -21q64 0 99.5 24.5t35.5 71.5t-32 69.5t-85 22.5q-31 0 -49 -4l-29 23l41 168q-169 8 -289 71.5t-202 196.5l94 61q82 -128 183.5 -181.5t263.5 -53.5q205 0 303 77t98 218q0 110 -73 173t-271 113l-133 33
q-208 52 -310 146t-102 247q0 172 124 273.5t355 101.5q185 0 300 -61.5t190 -192.5l-96 -59q-63 113 -155 166t-241 53q-183 0 -272.5 -74t-89.5 -203q0 -108 75 -177.5t242 -108.5l129 -31q240 -57 341.5 -146.5t101.5 -244.5q0 -184 -126.5 -289t-359.5 -111l-28 -124h24
q69 0 117.5 -38.5t48.5 -113.5q0 -81 -60 -124.5t-159 -43.5z" />
    <glyph glyph-name="scedilla" unicode="&#x15f;" horiz-adv-x="1036" 
d="M489 -467q-147 0 -217 109l60 53q31 -48 64.5 -69t88.5 -21q64 0 100 24.5t36 71.5t-32 69.5t-85 22.5q-31 0 -49 -4l-29 23l41 168q-125 6 -216 50.5t-155 137.5l84 63q60 -88 138.5 -126.5t197.5 -38.5q138 0 203 50t65 132q0 78 -50.5 118.5t-182.5 69.5l-92 21
q-162 35 -238 100t-76 170q0 128 91 205.5t270 77.5q121 0 204.5 -36.5t147.5 -119.5l-76 -70q-58 73 -122 104.5t-160 31.5q-122 0 -184 -48t-62 -133q0 -68 48 -108.5t171 -69.5l105 -24q179 -39 247 -105.5t68 -169.5q0 -58 -18.5 -105.5t-57.5 -87t-107.5 -64
t-162.5 -28.5l-29 -124h25q69 0 117.5 -38.5t48.5 -113.5q0 -81 -60.5 -124.5t-159.5 -43.5z" />
    <glyph glyph-name="Scaron" unicode="&#x160;" horiz-adv-x="1261" 
d="M610 1681l172 158h127v-4l-245 -225h-107l-246 225v4h131zM1102 1202l-96 -59q-63 113 -155 166t-241 53q-183 0 -272.5 -74t-89.5 -203q0 -108 75 -177.5t242 -108.5l129 -31q240 -57 341.5 -146.5t101.5 -244.5q0 -190 -133 -295t-381 -105q-191 0 -323.5 64
t-219.5 207l94 61q82 -128 183.5 -181.5t263.5 -53.5q205 0 303 77t98 218q0 110 -73 173t-271 113l-133 33q-208 52 -310 146t-102 247q0 172 124 273.5t355 101.5q185 0 300 -61.5t190 -192.5z" />
    <glyph glyph-name="scaron" unicode="&#x161;" horiz-adv-x="1036" 
d="M498 1235l172 158h127v-4l-246 -226h-107l-245 226v4h131zM516 66q138 0 203 50t65 132q0 78 -50.5 118.5t-182.5 69.5l-92 21q-162 35 -238 100t-76 170q0 128 91 205.5t270 77.5q121 0 204.5 -36.5t147.5 -119.5l-76 -70q-58 73 -122 104.5t-160 31.5q-122 0 -184 -48
t-62 -133q0 -68 48 -108.5t171 -69.5l105 -24q179 -39 247 -105.5t68 -169.5q0 -127 -90.5 -206t-290.5 -79q-142 0 -244 45t-172 146l84 63q60 -88 138.5 -126.5t197.5 -38.5z" />
    <glyph glyph-name="Tcedilla" unicode="&#x162;" horiz-adv-x="1157" 
d="M518 -211l-29 23l46 188h-15v1333h-493v101h1103v-101h-493v-1333h-21l-34 -147h24q69 0 117.5 -38.5t48.5 -113.5q0 -81 -60 -124.5t-159 -43.5q-147 0 -217 109l59 53q31 -48 65 -69t89 -21q64 0 99.5 24.5t35.5 71.5t-32 69.5t-85 22.5q-31 0 -49 -4z" />
    <glyph glyph-name="tcedilla" unicode="&#x163;" horiz-adv-x="727" 
d="M711 -299q0 -81 -60 -124.5t-159 -43.5q-148 0 -218 109l60 53q31 -48 64.5 -69t88.5 -21q64 0 100 24.5t36 71.5t-32 69.5t-85 22.5q-31 0 -49 -4l-29 23l41 170q-236 32 -236 335v580h-186v90h186v299h113v-299h318v-90h-318v-559q0 -79 13.5 -131.5t41.5 -80t62 -38
t82 -10.5q63 0 131 22l18 -94q-80 -26 -145 -29l-29 -124h25q69 0 117.5 -38.5t48.5 -113.5z" />
    <glyph glyph-name="Tcaron" unicode="&#x164;" horiz-adv-x="1157" 
d="M575 1681l173 158h126v-4l-245 -225h-107l-246 225v4h132zM27 1434h1103v-101h-493v-1333h-117v1333h-493v101z" />
    <glyph glyph-name="tcaron" unicode="&#x165;" horiz-adv-x="727" 
d="M573 1135h-79l14 370h117zM47 987h186v299h113v-299h318v-90h-318v-559q0 -79 13.5 -131.5t41.5 -80t62 -38t82 -10.5q63 0 131 22l18 -94q-84 -29 -168 -29q-293 0 -293 340v580h-186v90z" />
    <glyph glyph-name="Tbar" unicode="&#x166;" horiz-adv-x="1157" 
d="M29 1434h1101v-101h-491v-573h395v-82h-395v-678h-119v678h-397v82h397v573h-491v101z" />
    <glyph glyph-name="tbar" unicode="&#x167;" horiz-adv-x="714" 
d="M664 987v-90h-318v-231h318v-80h-318v-248q0 -79 13.5 -131.5t41.5 -80t62 -38t82 -10.5q63 0 131 22l18 -94q-84 -29 -168 -29q-293 0 -293 340v269h-186v80h186v231h-186v90h186v299h113v-299h318z" />
    <glyph glyph-name="Utilde" unicode="&#x168;" horiz-adv-x="1519" 
d="M1208 543v891h117v-887q0 -283 -147.5 -426.5t-417.5 -143.5q-271 0 -418 143t-147 427v887h118v-891q0 -467 447 -467q213 0 330.5 112.5t117.5 354.5zM956 1817h91q1 -50 -12.5 -87t-37.5 -56t-50.5 -27.5t-55.5 -8.5q-39 0 -76.5 16t-62.5 34.5t-57 34.5t-60 16
q-33 0 -52.5 -23t-19.5 -69h-90q-3 95 42.5 136.5t109.5 41.5q40 0 78.5 -16t64 -34.5t57.5 -34.5t60 -16q71 0 71 93z" />
    <glyph glyph-name="utilde" unicode="&#x169;" horiz-adv-x="1257" 
d="M956 0l-10 217q-51 -119 -152 -179.5t-235 -60.5q-184 0 -278.5 103.5t-94.5 300.5v606h115v-588q0 -325 285 -325q164 0 254.5 101t101.5 282v530h115v-987h-101zM815 1370h90q1 -50 -12 -86.5t-37 -55.5t-50 -27.5t-56 -8.5q-49 0 -94.5 25t-86 50t-75.5 25
q-33 0 -52.5 -23t-19.5 -69h-90q-3 95 42 136.5t109 41.5q51 0 97.5 -25t87 -50t75.5 -25q72 0 72 92z" />
    <glyph glyph-name="Umacron" unicode="&#x16a;" horiz-adv-x="1519" 
d="M1208 543v891h117v-887q0 -283 -147.5 -426.5t-417.5 -143.5q-271 0 -418 143t-147 427v887h118v-891q0 -467 447 -467q213 0 330.5 112.5t117.5 354.5zM1008 1759v-80h-490v80h490z" />
    <glyph glyph-name="umacron" unicode="&#x16b;" horiz-adv-x="1257" 
d="M956 0l-10 217q-51 -119 -152 -179.5t-235 -60.5q-184 0 -278.5 103.5t-94.5 300.5v606h115v-588q0 -325 285 -325q164 0 254.5 101t101.5 282v530h115v-987h-101zM866 1313v-80h-489v80h489z" />
    <glyph glyph-name="Ubreve" unicode="&#x16c;" horiz-adv-x="1519" 
d="M1208 543v891h117v-887q0 -283 -147.5 -426.5t-417.5 -143.5q-271 0 -418 143t-147 427v887h118v-891q0 -467 447 -467q213 0 330.5 112.5t117.5 354.5zM936 1837h90q0 -126 -67 -178.5t-199 -52.5t-198 52.5t-66 178.5h88q0 -86 43.5 -121t132.5 -35q90 0 133 35t43 121
z" />
    <glyph glyph-name="ubreve" unicode="&#x16d;" horiz-adv-x="1257" 
d="M956 0l-10 217q-51 -119 -152 -179.5t-235 -60.5q-184 0 -278.5 103.5t-94.5 300.5v606h115v-588q0 -325 285 -325q164 0 254.5 101t101.5 282v530h115v-987h-101zM795 1391h90q0 -126 -67.5 -179t-199.5 -53q-131 0 -197.5 52.5t-66.5 179.5h88q0 -86 43.5 -121
t132.5 -35q90 0 133.5 35t43.5 121z" />
    <glyph glyph-name="Uring" unicode="&#x16e;" horiz-adv-x="1519" 
d="M580 1745q0 83 52 133.5t134 50.5q78 0 129 -51t51 -133q0 -81 -52 -131.5t-132 -50.5q-79 0 -130.5 50.5t-51.5 131.5zM645 1745q0 -53 34 -89t83 -36q51 0 85 36t34 89q0 55 -33.5 90t-81.5 35q-53 0 -87 -35t-34 -90zM1208 543v891h117v-887q0 -283 -147.5 -426.5
t-417.5 -143.5q-271 0 -418 143t-147 427v887h118v-891q0 -467 447 -467q213 0 330.5 112.5t117.5 354.5z" />
    <glyph glyph-name="uring" unicode="&#x16f;" horiz-adv-x="1257" 
d="M438 1298q0 83 52.5 134t134.5 51q78 0 129 -51.5t51 -133.5q0 -81 -52 -131.5t-132 -50.5q-79 0 -131 50.5t-52 131.5zM504 1298q0 -52 33.5 -88t83.5 -36q51 0 84.5 35.5t33.5 88.5q0 55 -33 90t-81 35q-53 0 -87 -35t-34 -90zM956 0l-10 217q-51 -119 -152 -179.5
t-235 -60.5q-184 0 -278.5 103.5t-94.5 300.5v606h115v-588q0 -325 285 -325q164 0 254.5 101t101.5 282v530h115v-987h-101z" />
    <glyph glyph-name="Uhungarumlaut" unicode="&#x170;" horiz-adv-x="1519" 
d="M1208 543v891h117v-887q0 -283 -147.5 -426.5t-417.5 -143.5q-271 0 -418 143t-147 427v887h118v-891q0 -467 447 -467q213 0 330.5 112.5t117.5 354.5zM1130 1829l-225 -219h-94v6l166 223h153v-10zM864 1829l-190 -219h-94v6l145 223h139v-10z" />
    <glyph glyph-name="uhungarumlaut" unicode="&#x171;" horiz-adv-x="1257" 
d="M956 0l-10 217q-51 -119 -152 -179.5t-235 -60.5q-184 0 -278.5 103.5t-94.5 300.5v606h115v-588q0 -325 285 -325q164 0 254.5 101t101.5 282v530h115v-987h-101zM979 1382l-225 -219h-95v6l166 224h154v-11zM713 1382l-191 -219h-94v6l145 224h140v-11z" />
    <glyph glyph-name="Uogonek" unicode="&#x172;" horiz-adv-x="1521" 
d="M721 -205q0 117 82 189q-32 -4 -55 -4q-266 5 -409.5 146t-143.5 421v887h118v-891q0 -467 449 -467q446 0 446 467v891h119v-887q0 -436 -366 -545q-68 -21 -111 -73.5t-43 -121.5q0 -143 133 -143q77 0 133 37l21 -74q-71 -45 -162 -45q-93 0 -152 50t-59 163z" />
    <glyph glyph-name="uogonek" unicode="&#x173;" horiz-adv-x="1257" 
d="M975 -418q-90 0 -150.5 45t-60.5 144q0 96 55 163.5t135 96.5l-8 188q-50 -120 -151.5 -181t-235.5 -61q-184 0 -278.5 103t-94.5 301v606h115v-588q0 -325 285 -325q164 0 254.5 101t101.5 282v530h115v-987q-86 -9 -145.5 -71t-59.5 -144q0 -121 133 -121q74 0 133 37
l21 -74q-71 -45 -164 -45z" />
    <glyph glyph-name="Wcircumflex" unicode="&#x174;" horiz-adv-x="1855" 
d="M928 1769l-170 -159h-127v4l246 225h106l246 -225v-4h-133zM868 1423h117l354 -1253l377 1264h115l-436 -1434h-117l-354 1253l-351 -1253h-118l-430 1434h120l369 -1270z" />
    <glyph glyph-name="wcircumflex" unicode="&#x175;" horiz-adv-x="1458" 
d="M731 1323l-170 -160h-127v4l246 226h106l246 -226v-4h-133zM674 973h119l262 -844l272 858h113l-326 -987h-125l-260 838l-258 -838h-123l-328 987h115l277 -856z" />
    <glyph glyph-name="Ycircumflex" unicode="&#x176;" horiz-adv-x="1226" 
d="M555 580l-522 854h129l452 -752l455 752h125l-520 -854v-580h-119v580zM616 1769l-170 -159h-127v4l246 225h107l246 -225v-4h-134z" />
    <glyph glyph-name="ycircumflex" unicode="&#x177;" horiz-adv-x="987" 
d="M395 -115l37 105l-414 997h121l355 -878l354 878h119l-475 -1141q-66 -158 -152 -217t-205 -59q-76 0 -153 27l18 96q70 -25 135 -25q37 0 66.5 7.5t64 28.5t67.5 66.5t62 114.5zM494 1323l-170 -160h-127v4l245 226h107l246 -226v-4h-133z" />
    <glyph glyph-name="Ydieresis" unicode="&#x178;" horiz-adv-x="1226" 
d="M555 580l-522 854h129l452 -752l455 752h125l-520 -854v-580h-119v580zM680 1720q0 41 24 63.5t66 22.5t66 -22.5t24 -63.5t-24 -63.5t-66 -22.5t-66 22.5t-24 63.5zM369 1720q0 41 24 63.5t64 22.5q42 0 66 -22.5t24 -63.5t-24 -63.5t-66 -22.5q-40 0 -64 22.5t-24 63.5
z" />
    <glyph glyph-name="Zacute" unicode="&#x179;" horiz-adv-x="1169" 
d="M850 1829l-219 -219h-96v6l163 223h152v-10zM53 0v90l918 1243h-871v101h1010v-91l-920 -1243h936v-100h-1073z" />
    <glyph glyph-name="zacute" unicode="&#x17a;" horiz-adv-x="978" 
d="M745 1382l-219 -219h-96v6l164 224h151v-11zM82 0v86l659 809h-645v92h781v-88l-662 -807h676v-92h-809z" />
    <glyph glyph-name="Zdotaccent" unicode="&#x17b;" horiz-adv-x="1169" 
d="M53 0v90l918 1243h-871v101h1010v-91l-920 -1243h936v-100h-1073zM504 1720q0 41 24.5 63.5t67.5 22.5q41 0 64.5 -22.5t23.5 -63.5t-23.5 -63.5t-64.5 -22.5q-43 0 -67.5 22.5t-24.5 63.5z" />
    <glyph glyph-name="zdotaccent" unicode="&#x17c;" horiz-adv-x="978" 
d="M82 0v86l659 809h-645v92h781v-88l-662 -807h676v-92h-809zM399 1274q0 41 25 63.5t68 22.5q41 0 64.5 -22.5t23.5 -63.5t-23.5 -63.5t-64.5 -22.5q-43 0 -68 22.5t-25 63.5z" />
    <glyph glyph-name="Zcaron" unicode="&#x17d;" horiz-adv-x="1169" 
d="M588 1681l172 158h127v-4l-246 -225h-106l-246 225v4h131zM53 0v90l918 1243h-871v101h1010v-91l-920 -1243h936v-100h-1073z" />
    <glyph glyph-name="zcaron" unicode="&#x17e;" horiz-adv-x="978" 
d="M485 1235l172 158h127v-4l-245 -226h-107l-246 226v4h131zM82 0v86l659 809h-645v92h781v-88l-662 -807h676v-92h-809z" />
    <glyph glyph-name="florin" unicode="&#x192;" horiz-adv-x="778" 
d="M147 -98l115 747h-186l14 90h186l35 207q50 320 326 320q95 0 162 -33l-35 -96q-56 26 -127 26q-89 0 -141.5 -51t-73.5 -176l-33 -197h313l-14 -90h-311l-119 -760q-50 -319 -305 -319q-91 0 -152 27l35 96q58 -25 119 -25q77 0 123.5 53t68.5 181z" />
    <glyph glyph-name="Scommaaccent" unicode="&#x218;" horiz-adv-x="1261" 
d="M553 -522l-25 53q49 20 76.5 64t30.5 102q-51 -7 -78 17.5t-27 64.5q0 39 22.5 60.5t61.5 21.5q95 0 95 -125q0 -93 -40 -163.5t-116 -94.5zM1102 1202l-96 -59q-63 113 -155 166t-241 53q-183 0 -272.5 -74t-89.5 -203q0 -108 75 -177.5t242 -108.5l129 -31
q240 -57 341.5 -146.5t101.5 -244.5q0 -190 -133 -295t-381 -105q-191 0 -323.5 64t-219.5 207l94 61q82 -128 183.5 -181.5t263.5 -53.5q205 0 303 77t98 218q0 110 -73 173t-271 113l-133 33q-208 52 -310 146t-102 247q0 172 124 273.5t355 101.5q185 0 300 -61.5
t190 -192.5z" />
    <glyph glyph-name="scommaaccent" unicode="&#x219;" horiz-adv-x="1036" 
d="M457 -522l-25 53q49 20 76.5 64t30.5 102q-51 -7 -78 17.5t-27 64.5q0 39 22.5 60.5t61.5 21.5q94 0 94 -125q0 -93 -39.5 -163.5t-115.5 -94.5zM516 66q138 0 203 50t65 132q0 78 -50.5 118.5t-182.5 69.5l-92 21q-162 35 -238 100t-76 170q0 128 91 205.5t270 77.5
q121 0 204.5 -36.5t147.5 -119.5l-76 -70q-58 73 -122 104.5t-160 31.5q-122 0 -184 -48t-62 -133q0 -68 48 -108.5t171 -69.5l105 -24q179 -39 247 -105.5t68 -169.5q0 -127 -90.5 -206t-290.5 -79q-142 0 -244 45t-172 146l84 63q60 -88 138.5 -126.5t197.5 -38.5z" />
    <glyph glyph-name="uni021A" unicode="&#x21a;" horiz-adv-x="1157" 
d="M514 -522l-25 53q49 20 76.5 64t30.5 102q-51 -7 -77.5 17.5t-26.5 64.5q0 39 22 60.5t61 21.5q95 0 95 -125q0 -93 -40 -163.5t-116 -94.5zM27 1434h1103v-101h-493v-1333h-117v1333h-493v101z" />
    <glyph glyph-name="uni021B" unicode="&#x21b;" horiz-adv-x="714" 
d="M453 -522l-25 53q49 20 76.5 64t30.5 102q-51 -7 -78 17.5t-27 64.5q0 39 22.5 60.5t61.5 21.5q94 0 94 -125q0 -93 -39.5 -163.5t-115.5 -94.5zM47 987h186v299h113v-299h318v-90h-318v-559q0 -79 13.5 -131.5t41.5 -80t62 -38t82 -10.5q63 0 131 22l18 -94
q-84 -29 -168 -29q-293 0 -293 340v580h-186v90z" />
    <glyph glyph-name="dotlessj" unicode="&#x237;" horiz-adv-x="528" 
d="M207 -94v1081h115v-1098q0 -319 -265 -319q-76 0 -153 27l20 96q61 -25 125 -25q80 0 119 54t39 184z" />
    <glyph glyph-name="circumflex" unicode="&#x2c6;" horiz-adv-x="1228" 
d="M606 1323l-170 -160h-127v4l246 226h107l245 -226v-4h-133z" />
    <glyph glyph-name="caron" unicode="&#x2c7;" horiz-adv-x="1228" 
d="M608 1235l172 158h127v-4l-245 -226h-107l-246 226v4h131z" />
    <glyph glyph-name="breve" unicode="&#x2d8;" horiz-adv-x="1228" 
d="M788 1391h91q0 -126 -67.5 -179t-199.5 -53q-131 0 -197.5 52.5t-66.5 179.5h88q0 -86 43.5 -121t132.5 -35q90 0 133 35t43 121z" />
    <glyph glyph-name="dotaccent" unicode="&#x2d9;" horiz-adv-x="1228" 
d="M528 1274q0 41 25 63.5t68 22.5q41 0 64.5 -22.5t23.5 -63.5t-23.5 -63.5t-64.5 -22.5q-43 0 -68 22.5t-25 63.5z" />
    <glyph glyph-name="ring" unicode="&#x2da;" horiz-adv-x="1228" 
d="M436 1298q0 83 52.5 134t134.5 51q78 0 129 -51.5t51 -133.5q0 -81 -52.5 -131.5t-132.5 -50.5q-79 0 -130.5 50.5t-51.5 131.5zM502 1298q0 -53 33.5 -88.5t82.5 -35.5q51 0 85 35.5t34 88.5q0 55 -33 90t-81 35q-53 0 -87 -35t-34 -90z" />
    <glyph glyph-name="ogonek" unicode="&#x2db;" horiz-adv-x="1228" 
d="M631 -418q-93 0 -152 44.5t-59 144.5q0 64 26.5 118t68.5 88.5t91.5 54t98.5 21.5l4 -53q-86 -9 -143.5 -71t-57.5 -144q0 -121 131 -121q77 0 133 37l21 -74q-71 -45 -162 -45z" />
    <glyph glyph-name="tilde" unicode="&#x2dc;" horiz-adv-x="1228" 
d="M825 1370h90q1 -50 -12 -86.5t-37 -55.5t-50 -27.5t-56 -8.5q-49 0 -94.5 25t-86 50t-75.5 25q-33 0 -52.5 -23t-19.5 -69h-90q-3 95 42.5 136.5t109.5 41.5q51 0 97.5 -25t87 -50t75.5 -25q71 0 71 92z" />
    <glyph glyph-name="hungarumlaut" unicode="&#x2dd;" horiz-adv-x="1228" 
d="M999 1382l-225 -219h-94v6l166 224h153v-11zM733 1382l-190 -219h-94v6l145 224h139v-11z" />
    <glyph glyph-name="mu" unicode="&#x3bc;" horiz-adv-x="507" 
d="M254 1456q-70 0 -117 -47t-47 -115t47 -114.5t117 -46.5t117 46.5t47 114.5t-47 115t-117 47zM254 1399q44 0 73 -30t29 -75q0 -44 -29 -74t-73 -30t-73 30t-29 74q0 45 29 75t73 30z" />
    <glyph glyph-name="Wgrave" unicode="&#x1e80;" horiz-adv-x="1855" 
d="M868 1423h117l354 -1253l377 1264h115l-436 -1434h-117l-354 1253l-351 -1253h-118l-430 1434h120l369 -1270zM889 1612l-219 219v10h151l166 -223v-6h-98z" />
    <glyph glyph-name="wgrave" unicode="&#x1e81;" horiz-adv-x="1458" 
d="M674 973h119l262 -844l272 858h113l-326 -987h-125l-260 838l-258 -838h-123l-328 987h115l277 -856zM692 1165l-219 219v11h152l166 -224v-6h-99z" />
    <glyph glyph-name="Wacute" unicode="&#x1e82;" horiz-adv-x="1855" 
d="M1186 1829l-219 -219h-97v6l164 223h152v-10zM868 1423h117l354 -1253l377 1264h115l-436 -1434h-117l-354 1253l-351 -1253h-118l-430 1434h120l369 -1270z" />
    <glyph glyph-name="wacute" unicode="&#x1e83;" horiz-adv-x="1458" 
d="M989 1382l-219 -219h-96v6l164 224h151v-11zM674 973h119l262 -844l272 858h113l-326 -987h-125l-260 838l-258 -838h-123l-328 987h115l277 -856z" />
    <glyph glyph-name="Wdieresis" unicode="&#x1e84;" horiz-adv-x="1855" 
d="M993 1720q0 41 24 63.5t66 22.5t66.5 -22.5t24.5 -63.5t-24.5 -63.5t-66.5 -22.5t-66 22.5t-24 63.5zM682 1720q0 41 24 63.5t64 22.5q42 0 66 -22.5t24 -63.5t-24 -63.5t-66 -22.5q-40 0 -64 22.5t-24 63.5zM868 1423h117l354 -1253l377 1264h115l-436 -1434h-117
l-354 1253l-351 -1253h-118l-430 1434h120l369 -1270z" />
    <glyph glyph-name="wdieresis" unicode="&#x1e85;" horiz-adv-x="1458" 
d="M797 1274q0 41 24 63.5t66 22.5t66 -22.5t24 -63.5t-24 -63.5t-66 -22.5t-66 22.5t-24 63.5zM485 1274q0 41 24 63.5t64 22.5q42 0 66.5 -22.5t24.5 -63.5t-24.5 -63.5t-66.5 -22.5q-40 0 -64 22.5t-24 63.5zM674 973h119l262 -844l272 858h113l-326 -987h-125l-260 838
l-258 -838h-123l-328 987h115l277 -856z" />
    <glyph glyph-name="enspace" unicode="&#x2002;" horiz-adv-x="1024" 
 />
    <glyph glyph-name="emspace" unicode="&#x2003;" horiz-adv-x="2048" 
 />
    <glyph glyph-name="threeperemspace" unicode="&#x2004;" horiz-adv-x="681" 
 />
    <glyph glyph-name="fourperemspace" unicode="&#x2005;" horiz-adv-x="512" 
 />
    <glyph glyph-name="sixperemspace" unicode="&#x2006;" horiz-adv-x="342" 
 />
    <glyph glyph-name="figurespace" unicode="&#x2007;" horiz-adv-x="1280" 
 />
    <glyph glyph-name="punctuationspace" unicode="&#x2008;" horiz-adv-x="436" 
 />
    <glyph glyph-name="thinspace" unicode="&#x2009;" horiz-adv-x="409" 
 />
    <glyph glyph-name="hairspace" unicode="&#x200a;" horiz-adv-x="204" 
 />
    <glyph glyph-name="zerowidthspace" unicode="&#x200b;" horiz-adv-x="0" 
 />
    <glyph glyph-name="figuredash" unicode="&#x2012;" horiz-adv-x="1204" 
d="M1102 559v-94h-1000v94h1000z" />
    <glyph glyph-name="endash" unicode="&#x2013;" horiz-adv-x="1204" 
d="M1104 559v-94h-1002v94h1002z" />
    <glyph glyph-name="emdash" unicode="&#x2014;" horiz-adv-x="1613" 
d="M1513 559v-94h-1411v94h1411z" />
    <glyph glyph-name="uni2015" unicode="&#x2015;" horiz-adv-x="2224" 
d="M2126 559v-94h-2024v94h2024z" />
    <glyph glyph-name="quoteleft" unicode="&#x2018;" horiz-adv-x="432" 
d="M285 1489l24 -53q-48 -21 -76.5 -69.5t-31.5 -109.5q48 11 76 -13.5t28 -67.5q0 -40 -23.5 -62t-62.5 -22q-92 0 -92 127q0 96 40 169.5t118 100.5z" />
    <glyph glyph-name="quoteright" unicode="&#x2019;" horiz-adv-x="432" 
d="M152 1075l-25 53q49 21 77.5 69.5t31.5 109.5q-48 -11 -76.5 14t-28.5 68q0 40 23.5 62t62.5 22q92 0 92 -127q0 -97 -39.5 -171t-117.5 -100z" />
    <glyph glyph-name="quotesinglbase" unicode="&#x201a;" horiz-adv-x="430" 
d="M150 -233l-25 53q48 21 76.5 68.5t31.5 107.5q-48 -11 -75.5 13.5t-27.5 67.5q0 40 23 61.5t62 21.5q91 0 91 -126q0 -95 -39.5 -168t-116.5 -99z" />
    <glyph glyph-name="quotedblleft" unicode="&#x201c;" horiz-adv-x="690" 
d="M285 1489l24 -53q-48 -21 -76.5 -69.5t-31.5 -109.5q48 11 76 -13.5t28 -67.5q0 -40 -23.5 -62t-62.5 -22q-92 0 -92 127q0 96 40 169.5t118 100.5zM541 1489l24 -53q-48 -21 -76.5 -69.5t-31.5 -109.5q48 11 76 -13.5t28 -67.5q0 -40 -23.5 -62t-62.5 -22q-92 0 -92 127
q0 96 40 169.5t118 100.5z" />
    <glyph glyph-name="quotedblright" unicode="&#x201d;" horiz-adv-x="690" 
d="M147 1075l-24 53q48 21 76.5 69.5t31.5 109.5q-48 -11 -76 14t-28 68q0 40 23.5 62t62.5 22q92 0 92 -127q0 -96 -40 -170t-118 -101zM408 1075l-25 53q49 21 77.5 69.5t31.5 109.5q-48 -11 -76.5 14t-28.5 68q0 40 23.5 62t62.5 22q92 0 92 -127q0 -97 -39.5 -171
t-117.5 -100z" />
    <glyph glyph-name="quotedblbase" unicode="&#x201e;" horiz-adv-x="688" 
d="M148 -233l-25 53q48 21 76.5 68.5t31.5 107.5q-48 -11 -76 13.5t-28 67.5q0 40 23 61.5t62 21.5q91 0 91 -126q0 -95 -39 -168t-116 -99zM406 -233l-24 53q48 21 76 68t31 108q-48 -11 -75.5 13.5t-27.5 67.5q0 40 23 61.5t62 21.5q91 0 91 -126q0 -95 -39.5 -168
t-116.5 -99z" />
    <glyph glyph-name="dagger" unicode="&#x2020;" horiz-adv-x="622" 
d="M502 1130h-146q0 -79 -1 -240.5t-1 -240.5h-88v481h-147v78h145l-4 246h102l-4 -246h144v-78z" />
    <glyph glyph-name="daggerdbl" unicode="&#x2021;" horiz-adv-x="622" 
d="M117 963h147v180h-147v82h145l-4 229h107l-7 -229h146v-82h-148v-180h148v-82h-146l7 -238h-107l4 238h-145v82z" />
    <glyph glyph-name="bullet" unicode="&#x2022;" horiz-adv-x="880" 
d="M150 670q0 131 78 209.5t212 78.5q136 0 214.5 -78.5t78.5 -209.5q0 -133 -78.5 -211t-214.5 -78q-134 0 -212 78t-78 211z" />
    <glyph glyph-name="ellipsis" unicode="&#x2026;" horiz-adv-x="1306" 
d="M1001 76q0 41 24.5 63.5t64.5 22.5q42 0 66 -22.5t24 -63.5q0 -40 -24.5 -64t-65.5 -24q-40 0 -64.5 24t-24.5 64zM563 76q0 41 24 63.5t66 22.5t66 -22.5t24 -63.5q0 -40 -24.5 -64t-65.5 -24t-65.5 24t-24.5 64zM129 76q0 41 24 63.5t66 22.5q40 0 64 -22.5t24 -63.5
q0 -40 -24 -64t-64 -24q-41 0 -65.5 24t-24.5 64z" />
    <glyph glyph-name="perthousand" unicode="&#x2030;" horiz-adv-x="2951" 
d="M1323 418q0 227 82.5 330.5t253.5 103.5q170 0 251 -103.5t81 -330.5q0 -226 -82 -330t-250 -104q-172 0 -254 103t-82 331zM1892 418q0 190 -58.5 271t-174.5 81q-120 0 -179 -80t-59 -272t59 -272t177 -80t176.5 80t58.5 272zM94 1018q0 227 82.5 330.5t253.5 103.5
q170 0 251 -103.5t81 -330.5q0 -226 -82 -330t-250 -104q-172 0 -254 103t-82 331zM664 1018q0 190 -59 271t-175 81q-119 0 -178 -80t-59 -272t58.5 -272t176.5 -80t177 80t59 272zM2181 418q0 227 82.5 330.5t253.5 103.5q170 0 251 -103.5t81 -330.5q0 -226 -82 -330
t-250 -104q-172 0 -254 103t-82 331zM2750 418q0 190 -58.5 271t-174.5 81q-120 0 -179 -80t-59 -272t59 -272t177 -80t176.5 80t58.5 272zM1434 1436l-684 -1436h-111l688 1436h107z" />
    <glyph glyph-name="guilsinglleft" unicode="&#x2039;" horiz-adv-x="835" 
d="M516 0l-391 492v6l391 489h131l-393 -491l397 -496h-135z" />
    <glyph glyph-name="guilsinglright" unicode="&#x203a;" horiz-adv-x="835" 
d="M319 987l392 -491v-7l-392 -489h-131l394 492l-398 495h135z" />
    <glyph glyph-name="fraction" unicode="&#x2044;" horiz-adv-x="1007" 
d="M905 1436l-684 -1436h-110l688 1436h106z" />
    <glyph glyph-name="uni2070" unicode="&#x2070;" horiz-adv-x="862" 
d="M94 1022q0 227 82.5 330.5t253.5 103.5q170 0 251 -103.5t81 -330.5q0 -226 -82 -330t-250 -104q-172 0 -254 103t-82 331zM664 1022q0 190 -59 271t-175 81q-119 0 -178 -80t-59 -272t58.5 -272t176.5 -80t177 80t59 272z" />
    <glyph glyph-name="uni2074" unicode="&#x2074;" horiz-adv-x="792" 
d="M59 817v72l285 549h98l-280 -535h368v383h91v-383h131v-86h-131v-213h-91v213h-471z" />
    <glyph glyph-name="uni2075" unicode="&#x2075;" horiz-adv-x="733" 
d="M221 1356l-31 -287q81 57 203 57q129 0 206 -63t77 -193q0 -129 -81.5 -205.5t-232.5 -76.5q-211 0 -294 141l67 53q68 -112 225 -112q105 0 161.5 54t56.5 144q0 92 -54 138.5t-157 46.5q-115 0 -209 -72l-58 27l43 430h490v-82h-412z" />
    <glyph glyph-name="uni2076" unicode="&#x2076;" horiz-adv-x="808" 
d="M434 588q-160 0 -250 104t-90 324q0 223 88.5 331.5t255.5 108.5q195 0 267 -135l-68 -51q-55 104 -199 104q-251 0 -248 -360q0 -38 3 -68q19 81 86 129.5t167 48.5q130 0 203.5 -67t73.5 -193q0 -127 -74.5 -201.5t-214.5 -74.5zM219 854q0 -77 54.5 -131.5
t152.5 -54.5q93 0 148 50t55 144q0 87 -53 136t-152 49q-95 0 -150 -52t-55 -141z" />
    <glyph glyph-name="uni2077" unicode="&#x2077;" horiz-adv-x="624" 
d="M303 604h-102q0 210 82 417t219 331l-449 -2v88h563v-78q-140 -97 -225.5 -308t-87.5 -448z" />
    <glyph glyph-name="uni2078" unicode="&#x2078;" horiz-adv-x="794" 
d="M395 588q-147 0 -226 63.5t-79 179.5q0 85 46.5 139.5t127.5 73.5q-66 22 -102.5 71t-36.5 120q0 109 68.5 165t201.5 56t202 -56t69 -163q0 -72 -37 -121.5t-103 -71.5q80 -19 126 -74t46 -139q0 -116 -78 -179.5t-225 -63.5zM578 1233q0 69 -47 106t-136 37
q-90 0 -136 -36.5t-46 -106.5t46.5 -110t135.5 -40q88 0 135.5 40t47.5 110zM602 834q0 78 -54.5 122.5t-152.5 44.5t-152.5 -44.5t-54.5 -122.5q0 -79 53.5 -124.5t153.5 -45.5t153.5 45.5t53.5 124.5z" />
    <glyph glyph-name="uni2079" unicode="&#x2079;" horiz-adv-x="808" 
d="M580 1186q0 79 -55.5 133.5t-153.5 54.5q-91 0 -145 -50t-54 -142q0 -91 51.5 -141t149.5 -50q96 0 151.5 52t55.5 143zM360 588q-196 0 -268 129l68 53q57 -100 200 -100q251 0 248 358q0 41 -2 59q-22 -80 -88.5 -127t-165.5 -47q-128 0 -202 69t-74 196
q0 129 75.5 203.5t217.5 74.5q157 0 247.5 -104.5t90.5 -323.5q0 -223 -90 -331.5t-257 -108.5z" />
    <glyph glyph-name="uni207A" unicode="&#x207a;" horiz-adv-x="632" 
d="M356 737h-77v201h-201v72h201v204h77v-204h201v-72h-201v-201z" />
    <glyph glyph-name="uni207B" unicode="&#x207b;" horiz-adv-x="632" 
d="M557 1010v-72h-479v72h479z" />
    <glyph glyph-name="uni207C" unicode="&#x207c;" horiz-adv-x="632" 
d="M557 1090v-74h-479v74h479zM557 934v-74h-479v74h479z" />
    <glyph glyph-name="uni207D" unicode="&#x207d;" horiz-adv-x="440" 
d="M369 573l-9 -79q-286 38 -286 487q0 221 72 344.5t214 138.5l9 -78q-211 -31 -211 -405q0 -194 53.5 -292t157.5 -116z" />
    <glyph glyph-name="uni207E" unicode="&#x207e;" horiz-adv-x="440" 
d="M78 494l-8 79q104 18 157.5 116t53.5 292q0 374 -211 405l10 78q141 -15 214 -139t73 -344q0 -222 -73 -345t-216 -142z" />
    <glyph glyph-name="uni2080" unicode="&#x2080;" horiz-adv-x="862" 
d="M94 418q0 227 82.5 330.5t253.5 103.5q170 0 251 -103.5t81 -330.5q0 -226 -82 -330t-250 -104q-172 0 -254 103t-82 331zM664 418q0 190 -59 271t-175 81q-119 0 -178 -80t-59 -272t58.5 -272t176.5 -80t177 80t59 272z" />
    <glyph glyph-name="uni2081" unicode="&#x2081;" horiz-adv-x="415" 
d="M276 0h-98v715l-115 -84l-36 78l186 127h63v-836z" />
    <glyph glyph-name="uni2082" unicode="&#x2082;" horiz-adv-x="735" 
d="M63 0v82l308 291q90 87 124.5 142t34.5 108q0 145 -176 145q-85 0 -136 -33t-89 -106l-68 51q46 89 118 130.5t183 41.5q127 0 197 -57t70 -160q0 -73 -43 -143.5t-148 -169.5l-239 -236l471 4v-90h-607z" />
    <glyph glyph-name="uni2083" unicode="&#x2083;" horiz-adv-x="751" 
d="M358 -16q-211 0 -299 145l70 53q38 -61 91 -88.5t130 -27.5q107 0 161 44.5t54 127.5q0 71 -42.5 113t-135.5 42h-119v82h119q69 0 111.5 39.5t42.5 108.5q0 147 -185 147q-77 0 -124.5 -28.5t-86.5 -94.5l-67 47q44 82 113 120t174 38q132 0 203 -57.5t71 -163.5
q0 -67 -33.5 -117.5t-93.5 -75.5q150 -40 150 -198q0 -120 -77 -188t-227 -68z" />
    <glyph glyph-name="uni2084" unicode="&#x2084;" horiz-adv-x="792" 
d="M59 213v72l285 549h98l-280 -535h368v383h91v-383h131v-86h-131v-213h-91v213h-471z" />
    <glyph glyph-name="uni2085" unicode="&#x2085;" horiz-adv-x="733" 
d="M221 752l-31 -287q81 57 203 57q129 0 206 -63t77 -193q0 -129 -81.5 -205.5t-232.5 -76.5q-211 0 -294 141l67 53q68 -112 225 -112q105 0 161.5 54t56.5 144q0 92 -54 138.5t-157 46.5q-115 0 -209 -72l-58 26l43 431h490v-82h-412z" />
    <glyph glyph-name="uni2086" unicode="&#x2086;" horiz-adv-x="808" 
d="M434 -16q-160 0 -250 104t-90 324q0 223 88.5 331.5t255.5 108.5q195 0 267 -135l-68 -51q-55 104 -199 104q-251 0 -248 -360q0 -38 3 -68q19 81 86 129.5t167 48.5q130 0 203.5 -67t73.5 -193q0 -127 -74.5 -201.5t-214.5 -74.5zM219 250q0 -77 54.5 -132t152.5 -55
q93 0 148 50.5t55 144.5q0 87 -53 135.5t-152 48.5q-95 0 -150 -51.5t-55 -140.5z" />
    <glyph glyph-name="uni2087" unicode="&#x2087;" horiz-adv-x="624" 
d="M303 0h-102q0 210 82 417t219 331l-449 -3v89h563v-78q-140 -97 -225.5 -308t-87.5 -448z" />
    <glyph glyph-name="uni2088" unicode="&#x2088;" horiz-adv-x="794" 
d="M395 -16q-147 0 -226 63.5t-79 179.5q0 85 46.5 139.5t127.5 73.5q-66 22 -102.5 71t-36.5 120q0 109 68.5 165t201.5 56t202 -56t69 -163q0 -72 -37 -121.5t-103 -71.5q80 -19 126 -74t46 -139q0 -116 -78 -179.5t-225 -63.5zM578 629q0 69 -47 106t-136 37
q-90 0 -136 -36.5t-46 -106.5t46.5 -110t135.5 -40q88 0 135.5 40t47.5 110zM602 229q0 78 -54.5 123t-152.5 45t-152.5 -45t-54.5 -123q0 -79 53.5 -124.5t153.5 -45.5t153.5 45.5t53.5 124.5z" />
    <glyph glyph-name="uni2089" unicode="&#x2089;" horiz-adv-x="808" 
d="M580 582q0 79 -55.5 133.5t-153.5 54.5q-91 0 -145 -50t-54 -142q0 -91 51.5 -141t149.5 -50q96 0 151.5 52t55.5 143zM360 -16q-196 0 -268 129l68 53q57 -100 200 -100q251 0 248 358q0 41 -2 59q-22 -80 -88.5 -127t-165.5 -47q-128 0 -202 68.5t-74 195.5
q0 129 75.5 204t217.5 75q157 0 247.5 -104.5t90.5 -323.5q0 -223 -90 -331.5t-257 -108.5z" />
    <glyph glyph-name="uni208A" unicode="&#x208a;" horiz-adv-x="632" 
d="M356 131h-77v201h-201v71h201v205h77v-205h201v-71h-201v-201z" />
    <glyph glyph-name="uni208B" unicode="&#x208b;" horiz-adv-x="632" 
d="M557 403v-71h-479v71h479z" />
    <glyph glyph-name="uni208C" unicode="&#x208c;" horiz-adv-x="632" 
d="M557 483v-73h-479v73h479zM557 328v-74h-479v74h479z" />
    <glyph glyph-name="uni208D" unicode="&#x208d;" horiz-adv-x="438" 
d="M369 -33l-9 -80q-286 38 -286 488q0 221 72 344.5t214 138.5l9 -78q-211 -31 -211 -405q0 -194 53.5 -292t157.5 -116z" />
    <glyph glyph-name="uni208E" unicode="&#x208e;" horiz-adv-x="438" 
d="M78 -113l-8 80q104 18 157.5 116t53.5 292q0 374 -211 405l10 78q141 -15 214 -139t73 -344q0 -223 -73 -346t-216 -142z" />
    <glyph glyph-name="Euro" unicode="&#x20ac;" horiz-adv-x="1394" 
d="M782 -23q-263 0 -411 137t-178 439h-175v92h168l-2 121h-166v92h172q26 314 174 456t418 142q183 0 306.5 -65t193.5 -209l-94 -64q-61 129 -160.5 185.5t-245.5 56.5q-104 0 -183 -25.5t-142 -83t-100.5 -155.5t-49.5 -238h690l-24 -92h-670q0 -105 2 -121h631l-25 -92
h-598q25 -256 143.5 -366.5t325.5 -110.5q148 0 253.5 56.5t172.5 184.5l90 -57q-80 -149 -207 -216t-309 -67z" />
    <glyph glyph-name="trademark" unicode="&#x2122;" horiz-adv-x="1404" 
d="M57 1434h502v-66h-213v-537h-74v537h-215v66zM635 831v603h86l231 -523l236 523h84v-603h-74v476l-213 -476h-63l-215 469l2 -469h-74z" />
    <glyph glyph-name="uni2153" unicode="&#x2153;" horiz-adv-x="1646" 
d="M1253 -16q-211 0 -299 145l70 53q38 -61 91 -88.5t130 -27.5q107 0 161 44.5t54 127.5q0 71 -42.5 113t-135.5 42h-119v82h119q69 0 111.5 39.5t42.5 108.5q0 147 -185 147q-77 0 -124.5 -28.5t-86.5 -94.5l-67 47q44 82 113 120t174 38q132 0 203 -57.5t71 -163.5
q0 -67 -33.5 -117.5t-93.5 -75.5q149 -40 149 -198q0 -120 -76.5 -188t-226.5 -68zM276 600h-98v715l-115 -84l-36 78l186 127h63v-836zM1077 1436l-684 -1436h-110l688 1436h106z" />
    <glyph glyph-name="uni2154" unicode="&#x2154;" horiz-adv-x="1914" 
d="M1522 -16q-211 0 -299 145l69 53q38 -61 91 -88.5t130 -27.5q107 0 161.5 44.5t54.5 127.5q0 71 -43 113t-136 42h-118v82h118q69 0 111.5 39.5t42.5 108.5q0 147 -184 147q-77 0 -124.5 -28.5t-86.5 -94.5l-68 47q44 82 113 120t174 38q132 0 203 -57.5t71 -163.5
q0 -67 -33.5 -117.5t-93.5 -75.5q150 -40 150 -198q0 -120 -76.5 -188t-226.5 -68zM63 600v82l308 291q90 87 124.5 142t34.5 108q0 145 -176 145q-85 0 -136 -33t-89 -106l-68 51q46 89 118 130.5t183 41.5q127 0 197 -57t70 -160q0 -73 -43 -143.5t-148 -169.5l-239 -236
l471 4v-90h-607zM1346 1436l-684 -1436h-111l688 1436h107z" />
    <glyph glyph-name="uni2155" unicode="&#x2155;" horiz-adv-x="1646" 
d="M276 600h-98v715l-115 -84l-36 78l186 127h63v-836zM1137 752l-31 -287q81 57 203 57q129 0 205.5 -63t76.5 -193q0 -129 -81.5 -205.5t-231.5 -76.5q-212 0 -295 141l68 53q68 -112 225 -112q105 0 161 54t56 144q0 92 -54 138.5t-157 46.5q-115 0 -209 -72l-57 26
l43 431h489v-82h-411zM1077 1436l-684 -1436h-110l688 1436h106z" />
    <glyph glyph-name="uni2156" unicode="&#x2156;" horiz-adv-x="1925" 
d="M63 600v82l308 291q90 87 124.5 142t34.5 108q0 145 -176 145q-85 0 -136 -33t-89 -106l-68 51q46 89 118 130.5t183 41.5q127 0 197 -57t70 -160q0 -73 -43 -143.5t-148 -169.5l-239 -236l471 4v-90h-607zM1413 752l-31 -287q81 57 203 57q129 0 206 -63t77 -193
q0 -129 -81.5 -205.5t-232.5 -76.5q-211 0 -294 141l67 53q68 -112 225 -112q105 0 161 54t56 144q0 185 -210 185q-115 0 -209 -72l-58 26l43 431h490v-82h-412zM1354 1436l-684 -1436h-111l688 1436h107z" />
    <glyph glyph-name="uni2157" unicode="&#x2157;" horiz-adv-x="1925" 
d="M358 584q-211 0 -299 145l70 53q38 -61 91 -88.5t130 -27.5q107 0 161 44.5t54 127.5q0 71 -42.5 113t-135.5 42h-119v82h119q69 0 111.5 39.5t42.5 108.5q0 147 -185 147q-77 0 -124.5 -28.5t-86.5 -94.5l-67 47q44 82 113 120t174 38q132 0 203 -57.5t71 -163.5
q0 -67 -33.5 -117.5t-93.5 -75.5q150 -40 150 -198q0 -120 -77 -188t-227 -68zM1413 752l-31 -287q81 57 203 57q129 0 206 -63t77 -193q0 -129 -81.5 -205.5t-232.5 -76.5q-211 0 -294 141l67 53q68 -112 225 -112q105 0 161 54t56 144q0 185 -210 185q-115 0 -209 -72
l-58 26l43 431h490v-82h-412zM1354 1436l-684 -1436h-111l688 1436h107z" />
    <glyph glyph-name="uni2158" unicode="&#x2158;" horiz-adv-x="1976" 
d="M1464 752l-30 -287q81 57 202 57q129 0 206 -63t77 -193q0 -129 -81.5 -205.5t-231.5 -76.5q-212 0 -295 141l67 53q68 -112 226 -112q105 0 161 54t56 144q0 92 -54 138.5t-157 46.5q-115 0 -209 -72l-58 26l43 431h490v-82h-412zM1405 1436l-684 -1436h-111l688 1436
h107zM59 813v72l285 549h98l-280 -535h368v383h91v-383h131v-86h-131v-213h-91v213h-471z" />
    <glyph glyph-name="uni2159" unicode="&#x2159;" horiz-adv-x="1724" 
d="M276 600h-98v715l-115 -84l-36 78l186 127h63v-836zM1350 -16q-160 0 -250 104t-90 324q0 223 88.5 331.5t255.5 108.5q194 0 266 -135l-68 -51q-55 104 -198 104q-251 0 -248 -360q0 -48 2 -68q19 81 86.5 129.5t167.5 48.5q129 0 202.5 -67t73.5 -193q0 -128 -74 -202
t-214 -74zM1135 250q0 -77 54.5 -132t151.5 -55q93 0 148 50.5t55 144.5q0 87 -53 135.5t-152 48.5q-95 0 -149.5 -51.5t-54.5 -140.5zM1077 1436l-684 -1436h-110l688 1436h106z" />
    <glyph glyph-name="uni215A" unicode="&#x215a;" horiz-adv-x="1980" 
d="M221 1352l-31 -287q81 57 203 57q129 0 206 -63t77 -193q0 -129 -81.5 -205.5t-232.5 -76.5q-211 0 -294 141l67 53q68 -112 225 -112q105 0 161.5 54t56.5 144q0 92 -54 138.5t-157 46.5q-115 0 -209 -72l-58 27l43 430h490v-82h-412zM1606 -16q-160 0 -250 104t-90 324
q0 223 88.5 331.5t255.5 108.5q194 0 266 -135l-68 -51q-55 104 -198 104q-251 0 -248 -360q0 -48 2 -68q19 81 86.5 129.5t167.5 48.5q129 0 202.5 -67t73.5 -193q0 -128 -74 -202t-214 -74zM1391 250q0 -77 54.5 -132t151.5 -55q93 0 148 50.5t55 144.5q0 87 -53 135.5
t-152 48.5q-95 0 -149.5 -51.5t-54.5 -140.5zM1354 1436l-684 -1436h-111l688 1436h107z" />
    <glyph glyph-name="uni215B" unicode="&#x215b;" horiz-adv-x="1710" 
d="M276 600h-98v715l-115 -84l-36 78l186 127h63v-836zM1311 -16q-147 0 -226 63.5t-79 179.5q0 85 46.5 139.5t127.5 73.5q-66 22 -103 71t-37 120q0 109 69 165t202 56t201.5 -55.5t68.5 -163.5q0 -72 -36.5 -121.5t-102.5 -71.5q80 -19 126 -74t46 -139
q0 -116 -78 -179.5t-225 -63.5zM1493 629q0 69 -46.5 106t-135.5 37q-90 0 -136.5 -37t-46.5 -106q0 -70 47 -110t136 -40q88 0 135 40t47 110zM1518 229q0 78 -54.5 123t-152.5 45t-152.5 -45t-54.5 -123q0 -79 53.5 -124.5t153.5 -45.5t153.5 45.5t53.5 124.5zM1077 1436
l-684 -1436h-110l688 1436h106z" />
    <glyph glyph-name="uni215C" unicode="&#x215c;" horiz-adv-x="1986" 
d="M358 584q-211 0 -299 145l70 53q38 -61 91 -88.5t130 -27.5q107 0 161 44.5t54 127.5q0 71 -42.5 113t-135.5 42h-119v82h119q69 0 111.5 39.5t42.5 108.5q0 147 -185 147q-77 0 -124.5 -28.5t-86.5 -94.5l-67 47q44 82 113 120t174 38q132 0 203 -57.5t71 -163.5
q0 -67 -33.5 -117.5t-93.5 -75.5q150 -40 150 -198q0 -120 -77 -188t-227 -68zM1587 -16q-147 0 -226 63.5t-79 179.5q0 85 46.5 139.5t127.5 73.5q-66 22 -102.5 71t-36.5 120q0 109 68.5 165t201.5 56t202 -56t69 -163q0 -72 -37 -121.5t-103 -71.5q80 -19 126 -74
t46 -139q0 -116 -78 -179.5t-225 -63.5zM1769 629q0 69 -46.5 106t-135.5 37q-90 0 -136 -36.5t-46 -106.5t46.5 -110t135.5 -40q88 0 135 40t47 110zM1794 229q0 78 -54.5 123t-152.5 45t-152.5 -45t-54.5 -123q0 -79 53.5 -124.5t153.5 -45.5t153.5 45.5t53.5 124.5z
M1354 1436l-684 -1436h-111l688 1436h107z" />
    <glyph glyph-name="uni215D" unicode="&#x215d;" horiz-adv-x="1986" 
d="M1587 -16q-147 0 -226 63.5t-79 179.5q0 85 46.5 139.5t127.5 73.5q-66 22 -102.5 71t-36.5 120q0 109 68.5 165t201.5 56t202 -56t69 -163q0 -72 -37 -121.5t-103 -71.5q80 -19 126 -74t46 -139q0 -116 -78 -179.5t-225 -63.5zM1769 629q0 69 -46.5 106t-135.5 37
q-90 0 -136 -36.5t-46 -106.5t46.5 -110t135.5 -40q88 0 135 40t47 110zM1794 229q0 78 -54.5 123t-152.5 45t-152.5 -45t-54.5 -123q0 -79 53.5 -124.5t153.5 -45.5t153.5 45.5t53.5 124.5zM221 1352l-31 -287q81 57 203 57q129 0 206 -63t77 -193q0 -129 -81.5 -205.5
t-232.5 -76.5q-211 0 -294 141l67 53q68 -112 225 -112q105 0 161.5 54t56.5 144q0 92 -54 138.5t-157 46.5q-115 0 -209 -72l-58 27l43 430h490v-82h-412zM1354 1436l-684 -1436h-111l688 1436h107z" />
    <glyph glyph-name="uni215E" unicode="&#x215e;" horiz-adv-x="1843" 
d="M1444 -16q-147 0 -226 63.5t-79 179.5q0 85 46.5 139.5t127.5 73.5q-66 22 -102.5 71t-36.5 120q0 109 68.5 165t201.5 56t201.5 -55.5t68.5 -163.5q0 -72 -36.5 -121.5t-102.5 -71.5q80 -19 126 -74t46 -139q0 -116 -78 -179.5t-225 -63.5zM1626 629q0 69 -46.5 106
t-135.5 37q-90 0 -136 -36.5t-46 -106.5t46.5 -110t135.5 -40q88 0 135 40t47 110zM1651 229q0 78 -54.5 123t-152.5 45t-152.5 -45t-54.5 -123q0 -79 53.5 -124.5t153.5 -45.5t153.5 45.5t53.5 124.5zM303 600h-102q0 210 82 417t219 331l-449 -2v88h563v-78
q-140 -97 -225.5 -308t-87.5 -448zM1210 1436l-684 -1436h-110l688 1436h106z" />
    <glyph glyph-name="uni215F" unicode="&#x215f;" horiz-adv-x="1701" 
d="M276 600h-98v715l-115 -84l-36 78l186 127h63v-836zM1077 1436l-684 -1436h-110l688 1436h106z" />
    <glyph glyph-name="minus" unicode="&#x2212;" horiz-adv-x="1015" 
d="M913 676v-94h-811v94h811z" />
    <glyph glyph-name="approxequal" unicode="&#x2248;" horiz-adv-x="1017" 
d="M692 766q139 0 223 63v-98q-41 -27 -106.5 -43t-124.5 -16q-73 0 -181 40t-177 40q-133 0 -224 -62v98q42 27 105.5 41.5t122.5 14.5q78 0 187.5 -39t174.5 -39zM692 502q57 0 118 15t105 46v-96q-40 -28 -104.5 -42.5t-126.5 -14.5q-73 0 -181 38.5t-177 38.5
q-135 0 -224 -61v96q42 28 105.5 43t122.5 15q78 0 187.5 -39t174.5 -39z" />
    <glyph glyph-name="notequal" unicode="&#x2260;" horiz-adv-x="1015" 
d="M102 715v94h488l176 219h102l-176 -219h221v-94h-290l-127 -162h417v-96h-489l-170 -211h-104l172 211h-220v96h287l131 162h-418z" />
    <glyph glyph-name="lessequal" unicode="&#x2264;" horiz-adv-x="974" 
d="M727 1040l49 -75l-440 -301l442 -299l-51 -80l-532 350v53zM176 0v94h617v-94h-617z" />
    <glyph glyph-name="greaterequal" unicode="&#x2265;" horiz-adv-x="974" 
d="M246 285l-49 75l442 302l-444 301l53 77l530 -350v-51zM793 94v-94h-617v94h617z" />
    <glyph glyph-name="commaaccent" unicode="&#xf6c3;" horiz-adv-x="1228" 
d="M541 -522l-25 53q49 20 76.5 64t30.5 102q-51 -7 -78 17.5t-27 64.5q0 39 22.5 60.5t61.5 21.5q94 0 94 -125q0 -93 -39.5 -163.5t-115.5 -94.5z" />
    <glyph glyph-name="doublebar" horiz-adv-x="831" 
d="M492 -133v1702h104v-1702h-104zM236 -133v1702h104v-1702h-104z" />
    <glyph glyph-name="reversequoteleft" horiz-adv-x="432" 
d="M285 1075l24 53q-48 21 -76.5 69.5t-31.5 109.5q48 -11 76 14t28 68q0 40 -23.5 62t-62.5 22q-92 0 -92 -127q0 -96 40 -170t118 -101z" />
    <glyph glyph-name="reversequotedblleft" horiz-adv-x="690" 
d="M283 1075l24 53q-48 21 -76.5 69.5t-31.5 109.5q48 -11 76 14t28 68q0 40 -23.5 62t-62.5 22q-92 0 -92 -127q0 -96 40 -170t118 -101zM541 1075l24 53q-48 21 -76.5 69.5t-31.5 109.5q48 -11 76 14t28 68q0 40 -23.5 62t-62.5 22q-92 0 -92 -127q0 -96 40 -170t118 -101
z" />
    <glyph glyph-name="aogonek.school" 
d="M932 27l-8 188q-48 -119 -144.5 -178.5t-228.5 -59.5q-204 0 -313 133.5t-109 383.5q0 251 112 383.5t324 132.5q127 0 221 -57.5t140 -170.5l12 205h96v-987q-85 -9 -142.5 -71t-57.5 -144q0 -121 131 -121q76 0 135 37l18 -74q-71 -45 -162 -45q-93 0 -152 44.5
t-59 144.5q0 95 54 161t133 95zM922 502q0 205 -93 309t-247 104q-338 0 -338 -421q0 -422 336 -422q156 0 249 107.5t93 322.5z" />
    <glyph glyph-name="a.school" 
d="M922 502q0 205 -93.5 309t-246.5 104q-338 0 -338 -421q0 -422 336 -422q154 0 248 107.5t94 322.5zM930 0l-8 217q-46 -120 -143 -180t-228 -60q-204 0 -313 134t-109 383t113 382.5t325 133.5q125 0 219 -57.5t140 -170.5l12 205h96v-987h-104z" />
    <glyph glyph-name="agrave.school" 
d="M922 502q0 205 -93.5 309t-246.5 104q-338 0 -338 -421q0 -422 336 -422q154 0 248 107.5t94 322.5zM930 0l-8 217q-46 -120 -143 -180t-228 -60q-204 0 -313 134t-109 383t113 382.5t325 133.5q125 0 219 -57.5t140 -170.5l12 205h96v-987h-104zM537 1165l-220 219v11
h152l166 -224v-6h-98z" />
    <glyph glyph-name="aacute.school" 
d="M922 502q0 205 -93.5 309t-246.5 104q-338 0 -338 -421q0 -422 336 -422q154 0 248 107.5t94 322.5zM930 0l-8 217q-46 -120 -143 -180t-228 -60q-204 0 -313 134t-109 383t113 382.5t325 133.5q125 0 219 -57.5t140 -170.5l12 205h96v-987h-104zM823 1382l-219 -219h-96
v6l164 224h151v-11z" />
    <glyph glyph-name="acircumflex.school" 
d="M575 1323l-169 -160h-127v4l245 226h107l246 -226v-4h-134zM922 502q0 205 -93.5 309t-246.5 104q-338 0 -338 -421q0 -422 336 -422q154 0 248 107.5t94 322.5zM930 0l-8 217q-46 -120 -143 -180t-228 -60q-204 0 -313 134t-109 383t113 382.5t325 133.5
q125 0 219 -57.5t140 -170.5l12 205h96v-987h-104z" />
    <glyph glyph-name="adieresis.school" 
d="M637 1274q0 41 24 63.5t66 22.5t66 -22.5t24 -63.5t-24 -63.5t-66 -22.5t-66 22.5t-24 63.5zM326 1274q0 41 24 63.5t64 22.5q42 0 66 -22.5t24 -63.5t-24 -63.5t-66 -22.5q-40 0 -64 22.5t-24 63.5zM922 502q0 205 -93.5 309t-246.5 104q-338 0 -338 -421
q0 -422 336 -422q154 0 248 107.5t94 322.5zM930 0l-8 217q-46 -120 -143 -180t-228 -60q-204 0 -313 134t-109 383t113 382.5t325 133.5q125 0 219 -57.5t140 -170.5l12 205h96v-987h-104z" />
    <glyph glyph-name="atilde.school" 
d="M922 502q0 205 -93.5 309t-246.5 104q-338 0 -338 -421q0 -422 336 -422q154 0 248 107.5t94 322.5zM930 0l-8 217q-46 -120 -143 -180t-228 -60q-204 0 -313 134t-109 383t113 382.5t325 133.5q125 0 219 -57.5t140 -170.5l12 205h96v-987h-104zM770 1370h90
q1 -50 -12 -86.5t-37 -55.5t-50 -27.5t-56 -8.5q-49 0 -94.5 25t-86 50t-75.5 25q-33 0 -52.5 -23t-19.5 -69h-90q-3 95 42 136.5t109 41.5q51 0 97.5 -25t87 -50t75.5 -25q72 0 72 92z" />
    <glyph glyph-name="aring.school" 
d="M922 502q0 205 -93.5 309t-246.5 104q-338 0 -338 -421q0 -422 336 -422q154 0 248 107.5t94 322.5zM930 0l-8 217q-46 -120 -143 -180t-228 -60q-204 0 -313 134t-109 383t113 382.5t325 133.5q125 0 219 -57.5t140 -170.5l12 205h96v-987h-104zM389 1298q0 83 52 134
t134 51q78 0 129.5 -51.5t51.5 -133.5q0 -81 -52.5 -131.5t-132.5 -50.5q-79 0 -130.5 50.5t-51.5 131.5zM455 1298q0 -53 33.5 -88.5t82.5 -35.5q51 0 85 35.5t34 88.5q0 55 -33.5 90t-81.5 35q-53 0 -86.5 -35t-33.5 -90z" />
    <glyph glyph-name="amacron.school" 
d="M922 502q0 205 -93.5 309t-246.5 104q-338 0 -338 -421q0 -422 336 -422q154 0 248 107.5t94 322.5zM930 0l-8 217q-46 -120 -143 -180t-228 -60q-204 0 -313 134t-109 383t113 382.5t325 133.5q125 0 219 -57.5t140 -170.5l12 205h96v-987h-104zM819 1313v-80h-489v80
h489z" />
    <glyph glyph-name="abreve.school" 
d="M922 502q0 205 -93.5 309t-246.5 104q-338 0 -338 -421q0 -422 336 -422q154 0 248 107.5t94 322.5zM930 0l-8 217q-46 -120 -143 -180t-228 -60q-204 0 -313 134t-109 383t113 382.5t325 133.5q125 0 219 -57.5t140 -170.5l12 205h96v-987h-104zM745 1391h91
q0 -126 -67.5 -179t-199.5 -53q-131 0 -197.5 52.5t-66.5 179.5h88q0 -86 43.5 -121t132.5 -35q90 0 133 35t43 121z" />
    <glyph glyph-name="y.school" 
d="M561 -430q-145 0 -248 51.5t-163 173.5l83 60q52 -103 133 -147t195 -44q359 0 359 344v201q-50 -105 -145.5 -159t-219.5 -54q-367 0 -367 403v588h115v-569q0 -328 275 -328q159 0 246.5 100.5t95.5 278.5v518h114v-977q0 -222 -127 -331t-346 -109z" />
    <glyph glyph-name="yacute.school" 
d="M561 -430q-145 0 -248 51.5t-163 173.5l83 60q52 -103 133 -147t195 -44q359 0 359 344v201q-50 -105 -145.5 -159t-219.5 -54q-367 0 -367 403v588h115v-569q0 -328 275 -328q159 0 246.5 100.5t95.5 278.5v518h114v-977q0 -222 -127 -331t-346 -109zM821 1382
l-219 -219h-96v6l164 224h151v-11z" />
    <glyph glyph-name="ycircumflex.school" 
d="M623 1323l-170 -160h-127v4l245 226h107l246 -226v-4h-133zM561 -430q-145 0 -248 51.5t-163 173.5l83 60q52 -103 133 -147t195 -44q359 0 359 344v201q-50 -105 -145.5 -159t-219.5 -54q-367 0 -367 403v588h115v-569q0 -328 275 -328q159 0 246.5 100.5t95.5 278.5
v518h114v-977q0 -222 -127 -331t-346 -109z" />
    <glyph glyph-name="ydieresis.school" 
d="M692 1274q0 41 24 63.5t66 22.5t66 -22.5t24 -63.5t-24 -63.5t-66 -22.5t-66 22.5t-24 63.5zM381 1274q0 41 24 63.5t64 22.5q42 0 66 -22.5t24 -63.5t-24 -63.5t-66 -22.5q-40 0 -64 22.5t-24 63.5zM561 -430q-145 0 -248 51.5t-163 173.5l83 60q52 -103 133 -147
t195 -44q359 0 359 344v201q-50 -105 -145.5 -159t-219.5 -54q-367 0 -367 403v588h115v-569q0 -328 275 -328q159 0 246.5 100.5t95.5 278.5v518h114v-977q0 -222 -127 -331t-346 -109z" />
    <glyph glyph-name="cordinal" horiz-adv-x="800" 
d="M426 727q-328 0 -328 365q0 364 330 364q199 0 279 -147l-66 -47q-58 120 -213 120q-124 0 -182 -68t-58 -224q0 -151 59 -220t181 -69q84 0 135.5 30.5t83.5 100.5l70 -35q-72 -170 -291 -170z" />
    <glyph glyph-name="ordfeminine.school" horiz-adv-x="886" 
d="M651 1096q0 142 -63 214t-168 72q-232 0 -232 -292q0 -289 230 -289q107 0 170 74t63 221zM659 743l-6 144q-66 -160 -260 -160q-143 0 -220 93t-77 270q0 178 80 272t230 94q179 0 249 -158l11 140h75v-695h-82z" />
    <glyph glyph-name="caronSlovak" horiz-adv-x="1228" 
d="M610 1024h-80l15 410h117z" />
    <glyph glyph-name="exclamdown.cap" horiz-adv-x="450" 
d="M168 0l16 1063h97l16 -1063h-129zM322 1358q0 -41 -24.5 -63.5t-66.5 -22.5q-40 0 -64 22.5t-24 63.5q0 40 24 64t64 24q41 0 66 -24t25 -64z" />
    <glyph glyph-name="questiondown.cap" horiz-adv-x="1013" 
d="M557 1069v-291h-63q-186 0 -284.5 -93t-98.5 -263q0 -163 101.5 -250.5t283.5 -87.5q142 0 235 57t158 191l86 -60q-71 -151 -190.5 -219.5t-301.5 -68.5q-224 0 -356.5 115.5t-132.5 314.5t117 315t331 123v217h115zM588 1364q0 -41 -24 -63.5t-64 -22.5
q-41 0 -64.5 22.5t-23.5 63.5q0 40 23.5 64t64.5 24q40 0 64 -24t24 -64z" />
    <glyph glyph-name="onethirdemdash" horiz-adv-x="768" 
d="M670 559v-94h-568v94h568z" />
    <glyph glyph-name="threequarteremdash" horiz-adv-x="1421" 
d="M1323 559v-94h-1221v94h1221z" />
    <glyph glyph-name="G.alt" horiz-adv-x="1490" 
d="M768 -23q-297 0 -451.5 179.5t-154.5 560.5q0 200 40.5 342.5t121 229.5t194 127t268.5 40q187 0 314 -63.5t200 -198.5l-96 -66q-63 121 -165 175.5t-253 54.5q-123 0 -212.5 -30.5t-157.5 -102.5t-101.5 -198.5t-33.5 -309.5q0 -179 33.5 -304.5t100.5 -198.5
t156 -105.5t211 -32.5q457 0 443 508h-418v94h536v-86q1 -168 -39 -289t-118 -191.5t-180.5 -102.5t-237.5 -32z" />
    <glyph glyph-name="K.alt" horiz-adv-x="1269" 
d="M1112 0l-721 700v7l688 727h138l-682 -721l729 -713h-152zM233 0v1434h121v-1434h-121z" />
    <glyph glyph-name="k.alt" horiz-adv-x="1044" 
d="M203 0v1434h114v-1434h-114zM868 0l-520 481v6l502 500h131l-496 -495l527 -492h-144z" />
    <glyph glyph-name="at.cap" horiz-adv-x="1675" 
d="M1391 221q-192 -201 -533 -201q-329 0 -516.5 189t-187.5 506q0 316 187.5 504t516.5 188q314 0 488 -170.5t174 -458.5q0 -178 -75.5 -280.5t-217.5 -102.5q-170 0 -191 156q-67 -174 -272 -174q-106 0 -169 53t-63 152q0 100 77.5 155.5t228.5 55.5h192
q-1 122 -50 169.5t-155 47.5q-81 0 -131 -24t-84 -71l-45 50q75 114 269 114q135 0 206.5 -66.5t71.5 -217.5v-187q0 -79 31.5 -117t99.5 -38q102 0 158.5 85t56.5 238q0 274 -160.5 424t-439.5 150q-296 0 -468.5 -168t-172.5 -467q0 -301 172.5 -469t468.5 -168
q322 0 496 186zM780 444q112 0 177 73t73 198v16h-188q-228 0 -228 -147q0 -140 166 -140z" />
    <glyph glyph-name="zero.LP" horiz-adv-x="1443" 
d="M168 717q0 391 135.5 565t417.5 174q283 0 418 -174t135 -565q0 -387 -136 -563.5t-417 -176.5q-282 0 -417.5 174.5t-135.5 565.5zM1157 717q0 143 -19 251.5t-54.5 182.5t-90 121t-121 67.5t-151.5 20.5q-106 0 -184 -32.5t-135.5 -106.5t-86 -199.5t-28.5 -304.5
q0 -180 28.5 -306t86 -199.5t135 -105.5t184.5 -32t185 32t136 105.5t86.5 199.5t28.5 306z" />
    <glyph glyph-name="one.LP" horiz-adv-x="632" 
d="M401 0h-116v1284l-205 -158l-53 91l297 217h77v-1434z" />
    <glyph glyph-name="two.LP" horiz-adv-x="1196" 
d="M96 0v111l537 520q161 155 224 260.5t63 200.5q1 131 -83 199.5t-241 68.5q-155 0 -249 -61t-161 -193l-86 61q79 149 197 219t307 70q213 0 322.5 -95t109.5 -263q0 -120 -75.5 -242t-258.5 -301l-466 -459l878 2v-98h-1018z" />
    <glyph glyph-name="three.LP" horiz-adv-x="1245" 
d="M588 -23q-178 0 -297.5 58.5t-192.5 183.5l84 66q64 -109 162 -160t242 -51q198 0 298.5 85.5t100.5 246.5q0 135 -78.5 215.5t-247.5 80.5h-215v101h211q127 0 206 76.5t79 207.5q0 136 -88 204.5t-256 68.5q-139 0 -229 -53t-156 -172l-82 63q75 133 187 195.5
t288 62.5q220 0 336.5 -94t116.5 -272q0 -115 -58 -202t-163 -130q139 -32 202.5 -124.5t63.5 -217.5q0 -203 -129.5 -321t-384.5 -118z" />
    <glyph glyph-name="four.LP" horiz-adv-x="1300" 
d="M90 389v82l500 963h123l-498 -945h684v703h115v-703h233v-100h-233v-389h-115v389h-809z" />
    <glyph glyph-name="five.LP" horiz-adv-x="1214" 
d="M334 1333l-55 -547q151 111 368 111q104 0 189.5 -25t151 -76t102 -136t36.5 -197q0 -221 -136.5 -353.5t-391.5 -132.5q-343 0 -485 242l86 68q127 -215 399 -215q202 0 307 106t105 281q0 170 -99.5 257t-285.5 87q-121 0 -213.5 -34.5t-180.5 -104.5l-65 32l76 738
h809v-101h-717z" />
    <glyph glyph-name="six.LP" horiz-adv-x="1335" 
d="M731 -23q-125 0 -225.5 42t-176.5 128t-117.5 228t-41.5 332q0 383 148.5 566t420.5 183q322 0 437 -225l-86 -62q-104 191 -357 191q-448 0 -448 -664q0 -83 8 -135q29 152 148.5 243t295.5 91q222 0 349.5 -116.5t127.5 -332.5t-125.5 -342.5t-357.5 -126.5zM336 424
q0 -69 25 -132t72 -112.5t122.5 -78.5t169.5 -29q172 0 272.5 93.5t100.5 272.5q0 172 -97.5 266.5t-281.5 94.5q-173 0 -278 -102t-105 -273z" />
    <glyph glyph-name="seven.LP" horiz-adv-x="1011" 
d="M338 0q0 367 143 742.5t383 590.5h-784v101h940v-101q-166 -102 -296 -318t-199 -481t-72 -534h-115z" />
    <glyph glyph-name="eight.LP" horiz-adv-x="1308" 
d="M653 -23q-240 0 -371.5 110t-131.5 304q0 150 85 245t230 124q-122 30 -191 115t-69 215q0 180 114 273t334 93t335.5 -93t115.5 -271q0 -130 -69 -215.5t-191 -116.5q144 -29 228.5 -124t84.5 -245q0 -194 -131.5 -304t-372.5 -110zM991 1090q0 133 -86 203.5t-252 70.5
t-252 -70.5t-86 -203.5q0 -131 87 -206t251 -75t251 75t87 206zM1042 395q0 148 -102.5 232t-286.5 84q-183 0 -285 -84t-102 -232q0 -154 99 -237.5t288 -83.5t289 84t100 237z" />
    <glyph glyph-name="nine.LP" horiz-adv-x="1335" 
d="M1004 1010q0 146 -103.5 249t-288.5 103q-172 0 -272 -95t-100 -278q0 -172 97.5 -267t280.5 -95q173 0 279.5 104.5t106.5 278.5zM600 -23q-323 0 -442 226l88 61q107 -190 360 -190q449 0 449 663q0 76 -8 131q-31 -153 -150 -244.5t-295 -91.5q-223 0 -350 118.5
t-127 336.5q0 216 125.5 342.5t357.5 126.5q125 0 225 -41t176.5 -126t118 -227.5t41.5 -334.5q0 -383 -148.5 -566.5t-420.5 -183.5z" />
    <glyph glyph-name="zero.OT" horiz-adv-x="1280" 
d="M100 614q0 335 136 486t403 151t403 -151.5t136 -485.5q0 -332 -136 -484.5t-403 -152.5q-266 0 -402.5 152.5t-136.5 484.5zM1063 614q0 151 -27.5 257t-83.5 167.5t-132 89t-181 27.5q-104 0 -179.5 -27t-132 -88t-84.5 -167t-28 -259q0 -152 28 -258t84.5 -167
t132 -88t179.5 -27q105 0 180.5 26.5t132 88t84 167t27.5 258.5z" />
    <glyph glyph-name="one.OT" horiz-adv-x="1280" 
d="M225 0v104h348v975l-194 -157l-51 90l286 217h74v-1125h367v-104h-830z" />
    <glyph glyph-name="two.OT" horiz-adv-x="1280" 
d="M186 0v109l478 426q160 144 217 230t57 171q1 109 -73.5 164t-215.5 55q-138 0 -222.5 -53.5t-143.5 -169.5l-84 59q72 131 179.5 195.5t276.5 64.5q200 0 300 -80.5t100 -226.5q0 -110 -67 -213t-247 -266l-409 -369l790 2v-98h-936z" />
    <glyph glyph-name="three.OT" horiz-adv-x="1280" 
d="M629 -227q-179 0 -298 58t-194 183l84 66q66 -110 163.5 -160.5t242.5 -50.5q197 0 297 86t100 246q0 136 -77.5 216.5t-246.5 80.5h-215v100h211q126 0 205.5 77t79.5 208q0 135 -88.5 203.5t-257.5 68.5q-139 0 -228.5 -53t-154.5 -172l-84 63q75 133 187 195.5
t288 62.5q220 0 337.5 -94t117.5 -272q0 -114 -59 -201.5t-165 -130.5q140 -32 204.5 -125t64.5 -217q0 -203 -130 -320.5t-384 -117.5z" />
    <glyph glyph-name="four.OT" horiz-adv-x="1280" 
d="M61 184v82l500 963h123l-498 -944h684v702h115v-702h234v-101h-234v-389h-115v389h-809z" />
    <glyph glyph-name="five.OT" horiz-adv-x="1280" 
d="M354 1128l-55 -546q150 110 369 110q82 0 153 -15.5t131.5 -49t103.5 -83.5t67 -123t24 -163q0 -220 -137.5 -352.5t-391.5 -132.5q-343 0 -485 241l86 68q127 -215 399 -215q202 0 307 106t105 281q0 170 -99.5 258t-287.5 88q-119 0 -210.5 -35.5t-180.5 -105.5l-66 33
l76 737h809v-101h-717z" />
    <glyph glyph-name="six.OT" horiz-adv-x="1280" 
d="M678 -23q-125 0 -225.5 42t-176.5 128t-117.5 228t-41.5 332q0 383 148.5 566t420.5 183q320 0 438 -225l-88 -62q-104 191 -356 191q-447 0 -447 -664q0 -67 7 -135q31 152 150 243t296 91q222 0 348.5 -116t126.5 -333q0 -216 -125.5 -342.5t-357.5 -126.5zM283 424
q0 -146 103 -249t288 -103q171 0 270.5 94t99.5 272q0 172 -96 266.5t-280 94.5q-174 0 -279.5 -102t-105.5 -273z" />
    <glyph glyph-name="seven.OT" horiz-adv-x="1280" 
d="M426 -205q1 239 62.5 488t183 475.5t282.5 369.5h-784v101h940v-101q-166 -102 -296 -318t-199 -481t-72 -534h-117z" />
    <glyph glyph-name="eight.OT" horiz-adv-x="1280" 
d="M639 -23q-240 0 -372 110t-132 304q0 150 85.5 245t230.5 124q-123 30 -193 115.5t-70 214.5q0 180 115.5 273t335.5 93t335.5 -93t115.5 -271q0 -130 -69.5 -215.5t-191.5 -116.5q143 -29 228.5 -124.5t85.5 -244.5q0 -194 -131.5 -304t-372.5 -110zM977 1090
q0 133 -86 203.5t-252 70.5t-252 -70.5t-86 -203.5q0 -131 87 -206t251 -75t251 75t87 206zM1028 395q0 148 -102.5 232t-286.5 84q-183 0 -285 -84t-102 -232q0 -154 99 -237.5t288 -83.5t289 84t100 237z" />
    <glyph glyph-name="nine.OT" horiz-adv-x="1280" 
d="M995 805q0 70 -25 132t-71.5 112t-122.5 79t-170 29q-172 0 -272.5 -95t-100.5 -278q0 -172 97.5 -267t281.5 -95q172 0 277.5 104.5t105.5 278.5zM594 -227q-324 0 -442 225l88 61q107 -190 360 -190q447 0 447 663q0 60 -7 132q-31 -153 -150 -244.5t-296 -91.5
q-222 0 -348.5 118t-126.5 336q0 217 124.5 343t356.5 126q126 0 226 -41t176 -126t117.5 -227.5t41.5 -334.5q0 -383 -147.5 -566t-419.5 -183z" />
    <glyph glyph-name="zero.OP" horiz-adv-x="1298" 
d="M141 614q0 335 128 486t380 151t379 -151.5t127 -485.5q0 -332 -127.5 -484.5t-378.5 -152.5q-252 0 -380 152t-128 485zM1040 614q0 151 -25.5 257t-77.5 167.5t-122 89t-166 27.5q-97 0 -166.5 -26.5t-121.5 -88t-77.5 -167.5t-25.5 -259q0 -152 25.5 -257.5t77.5 -167
t122 -88.5t166 -27q97 0 166.5 26.5t121.5 88t77.5 167t25.5 258.5z" />
    <glyph glyph-name="one.OP" horiz-adv-x="577" 
d="M385 0h-113v1079l-196 -157l-49 90l286 217h72v-1229z" />
    <glyph glyph-name="two.OP" horiz-adv-x="1054" 
d="M109 0v94l460 445q141 137 193.5 228.5t52.5 174.5q1 107 -68 161t-200 54q-124 0 -204 -54t-136 -165l-86 59q67 128 169.5 191t264.5 63q185 0 280 -79.5t95 -219.5q0 -106 -65.5 -216t-223.5 -265l-389 -379l723 2v-94h-866z" />
    <glyph glyph-name="three.OP" horiz-adv-x="1181" 
d="M553 -227q-169 0 -282 58t-181 183l84 64q62 -110 152.5 -161.5t224.5 -51.5q189 0 287 87.5t98 246.5q0 136 -75 216.5t-238 80.5h-205v102h203q120 0 195 76t75 207q0 136 -85 206t-247 70q-129 0 -211.5 -53.5t-144.5 -173.5l-84 63q72 133 177.5 195.5t272.5 62.5
q211 0 324 -94.5t113 -273.5q0 -114 -56.5 -201.5t-158.5 -130.5q136 -32 198 -124.5t62 -217.5q0 -203 -125 -319.5t-373 -116.5z" />
    <glyph glyph-name="four.OP" horiz-adv-x="1234" 
d="M86 184v80l475 965h115l-471 -953h649v711h113v-711h219v-92h-219v-389h-113v389h-768z" />
    <glyph glyph-name="five.OP" horiz-adv-x="1153" 
d="M324 1130l-56 -546q140 108 348 108q99 0 180.5 -25t144.5 -76.5t98.5 -137.5t35.5 -199q0 -217 -131.5 -349t-372.5 -132q-334 0 -467 241l84 66q121 -215 383 -215q187 0 287 107.5t100 279.5t-94 259t-276 87q-203 0 -367 -139l-65 33l73 737h770v-99h-675z" />
    <glyph glyph-name="six.OP" horiz-adv-x="1269" 
d="M698 -23q-120 0 -216.5 42.5t-169.5 128.5t-112.5 228t-39.5 331q0 383 143 566t404 183q305 0 417 -225l-88 -62q-102 191 -336 191q-426 0 -426 -664q0 -74 9 -139q25 152 138.5 245t283.5 93q214 0 334 -116t120 -333t-119 -343t-342 -126zM324 424q0 -145 99 -248.5
t269 -103.5q163 0 257.5 93.5t94.5 272.5q0 172 -91.5 266.5t-264.5 94.5q-164 0 -264 -102t-100 -273z" />
    <glyph glyph-name="seven.OP" horiz-adv-x="962" 
d="M322 -205q0 368 136 743t365 590h-745v101h893v-101q-158 -102 -282 -318t-190 -481t-69 -534h-108z" />
    <glyph glyph-name="eight.OP" horiz-adv-x="1243" 
d="M623 -23q-228 0 -354 110t-126 304q0 150 80.5 245t216.5 124q-116 31 -180.5 115.5t-64.5 214.5q0 180 109 273t319 93q209 0 318.5 -93t109.5 -271q0 -130 -66 -215.5t-182 -116.5q136 -29 216.5 -124t80.5 -245q0 -194 -125 -304t-352 -110zM940 1090q0 133 -80 203.5
t-237 70.5q-158 0 -238 -70.5t-80 -203.5q0 -132 81 -206.5t237 -74.5q155 0 236 74.5t81 206.5zM989 395q0 149 -96 232.5t-270 83.5t-270.5 -84t-96.5 -232q0 -154 93.5 -237.5t273.5 -83.5q178 0 272 83.5t94 237.5z" />
    <glyph glyph-name="nine.OP" horiz-adv-x="1267" 
d="M952 805q0 70 -23.5 132t-68 112t-116 79t-160.5 29q-163 0 -258 -95t-95 -278q0 -172 92 -267t267 -95q162 0 262 104.5t100 278.5zM569 -227q-309 0 -422 225l91 61q98 -190 337 -190q429 0 429 663q0 60 -11 142q-22 -152 -135 -249t-287 -97q-212 0 -333 118
t-121 336q0 217 119.5 343t341.5 126q120 0 216 -41t169 -125.5t113 -227.5t40 -335q0 -383 -143 -566t-404 -183z" />
    <glyph glyph-name="zero.inf" horiz-adv-x="862" 
d="M94 8q0 227 82.5 330.5t253.5 103.5q170 0 251 -103.5t81 -330.5q0 -226 -82 -330t-250 -104q-172 0 -254 103t-82 331zM664 8q0 190 -59 271t-175 81q-119 0 -178 -80t-59 -272t58.5 -272t176.5 -80t177 80t59 272z" />
    <glyph glyph-name="one.inf" horiz-adv-x="415" 
d="M276 -410h-98v715l-115 -84l-36 78l186 127h63v-836z" />
    <glyph glyph-name="two.inf" horiz-adv-x="735" 
d="M63 -410v82l308 291q90 87 124.5 142t34.5 108q0 145 -176 145q-85 0 -136 -33t-89 -106l-68 51q46 89 118 130.5t183 41.5q127 0 197 -57t70 -160q0 -73 -43 -143.5t-148 -169.5l-239 -236l471 5v-91h-607z" />
    <glyph glyph-name="three.inf" horiz-adv-x="751" 
d="M358 -426q-211 0 -299 145l70 54q38 -61 91 -89t130 -28q107 0 161 44.5t54 127.5q0 71 -42.5 113.5t-135.5 42.5h-119v82h119q69 0 111.5 39t42.5 108q0 147 -185 147q-77 0 -124.5 -28t-86.5 -94l-67 47q44 82 112.5 119.5t174.5 37.5q132 0 203 -57.5t71 -163.5
q0 -67 -33.5 -117t-93.5 -75q150 -40 150 -199q0 -120 -77 -188t-227 -68z" />
    <glyph glyph-name="four.inf" horiz-adv-x="792" 
d="M59 -197v72l285 549h98l-280 -535h368v383h91v-383h131v-86h-131v-213h-91v213h-471z" />
    <glyph glyph-name="five.inf" horiz-adv-x="733" 
d="M221 342l-31 -287q82 58 203 58q129 0 206 -63t77 -193q0 -129 -82 -206t-232 -77q-211 0 -294 141l67 54q69 -113 225 -113q105 0 161.5 54.5t56.5 144.5q0 184 -211 184q-115 0 -209 -72l-58 27l43 430h490v-82h-412z" />
    <glyph glyph-name="six.inf" horiz-adv-x="808" 
d="M434 -426q-160 0 -250 104t-90 324q0 223 88.5 331.5t255.5 108.5q195 0 267 -135l-68 -51q-55 104 -199 104q-251 0 -248 -360q0 -38 3 -68q19 81 86.5 130t166.5 49q129 0 203 -67.5t74 -193.5q0 -127 -74.5 -201.5t-214.5 -74.5zM219 -160q0 -77 54.5 -131.5
t152.5 -54.5q93 0 148 50t55 144q0 87 -53 136t-152 49q-95 0 -150 -52t-55 -141z" />
    <glyph glyph-name="seven.inf" horiz-adv-x="624" 
d="M303 -410h-102q0 210 82 417t219 331l-449 -2v88h563v-78q-140 -97 -225.5 -308t-87.5 -448z" />
    <glyph glyph-name="eight.inf" horiz-adv-x="794" 
d="M395 -426q-147 0 -226 64t-79 180q0 85 46.5 139.5t127.5 73.5q-66 22 -102.5 70.5t-36.5 119.5q0 109 68.5 165t201.5 56t202 -56t69 -163q0 -72 -37 -121t-103 -71q80 -19 126 -74t46 -139q0 -116 -78 -180t-225 -64zM578 219q0 69 -47 106t-136 37q-90 0 -136 -36.5
t-46 -106.5t46.5 -109.5t135.5 -39.5q88 0 135.5 39.5t47.5 109.5zM602 -180q0 78 -54.5 123t-152.5 45t-152.5 -45t-54.5 -123q0 -79 53.5 -124.5t153.5 -45.5t153.5 45.5t53.5 124.5z" />
    <glyph glyph-name="nine.inf" horiz-adv-x="808" 
d="M580 172q0 79 -55.5 133.5t-153.5 54.5q-91 0 -145 -50t-54 -142q0 -91 51.5 -141t149.5 -50q96 0 151.5 52t55.5 143zM360 -426q-196 0 -268 129l68 53q57 -100 200 -100q251 0 248 358q0 42 -2 60q-22 -80 -88.5 -127t-165.5 -47q-128 0 -202 68.5t-74 195.5
q0 129 75.5 203.5t217.5 74.5q157 0 247.5 -104.5t90.5 -323.5q0 -223 -90 -331.5t-257 -108.5z" />
    <glyph glyph-name="plus.inf" horiz-adv-x="632" 
d="M356 -279h-77v201h-201v72h201v205h77v-205h201v-72h-201v-201z" />
    <glyph glyph-name="minus.inf" horiz-adv-x="632" 
d="M557 -6v-72h-479v72h479z" />
    <glyph glyph-name="equal.inf" horiz-adv-x="632" 
d="M557 74v-74h-479v74h479zM557 -82v-74h-479v74h479z" />
    <glyph glyph-name="parenleft.inf" horiz-adv-x="438" 
d="M369 -442l-9 -80q-286 38 -286 487q0 221 72 345t214 139l9 -78q-211 -31 -211 -406q0 -194 53.5 -291.5t157.5 -115.5z" />
    <glyph glyph-name="parenright.inf" horiz-adv-x="438" 
d="M78 -522l-8 80q104 18 157.5 115.5t53.5 291.5q0 375 -211 406l10 78q141 -15 214 -139t73 -345q0 -222 -73 -345t-216 -142z" />
    <glyph glyph-name="idotaccent" horiz-adv-x="528" 
d="M176 1276q0 41 23.5 63.5t64.5 22.5t64.5 -22.5t23.5 -63.5t-23.5 -64.5t-64.5 -23.5t-64.5 23.5t-23.5 64.5zM207 987h115v-987h-115v987z" />
    <glyph glyph-name="kcommaaccent.alt" horiz-adv-x="1044" 
d="M498 -522l-25 53q49 20 76.5 64t30.5 102q-51 -7 -78 17.5t-27 64.5q0 39 22.5 60.5t61.5 21.5q94 0 94 -125q0 -93 -39.5 -163.5t-115.5 -94.5zM203 0v1434h114v-1434h-114zM868 0l-520 481v6l502 500h131l-496 -495l527 -492h-144z" />
    <glyph glyph-name="Gbreve.alt" horiz-adv-x="1490" 
d="M958 1837h93q0 -125 -68.5 -178t-198.5 -53q-132 0 -199 53t-67 178h88q0 -86 43.5 -121t132.5 -35q90 0 133 35t43 121zM768 -23q-297 0 -451.5 179.5t-154.5 560.5q0 200 40.5 342.5t121 229.5t194 127t268.5 40q187 0 314 -63.5t200 -198.5l-96 -66
q-63 121 -165 175.5t-253 54.5q-123 0 -212.5 -30.5t-157.5 -102.5t-101.5 -198.5t-33.5 -309.5q0 -179 33.5 -304.5t100.5 -198.5t156 -105.5t211 -32.5q457 0 443 508h-418v94h536v-86q1 -168 -39 -289t-118 -191.5t-180.5 -102.5t-237.5 -32z" />
    <glyph glyph-name="Gcircumflex.alt" horiz-adv-x="1490" 
d="M788 1772l-172 -162h-127v6l246 223h107l248 -223v-6h-136zM768 -23q-297 0 -451.5 179.5t-154.5 560.5q0 200 40.5 342.5t121 229.5t194 127t268.5 40q187 0 314 -63.5t200 -198.5l-96 -66q-63 121 -165 175.5t-253 54.5q-123 0 -212.5 -30.5t-157.5 -102.5
t-101.5 -198.5t-33.5 -309.5q0 -179 33.5 -304.5t100.5 -198.5t156 -105.5t211 -32.5q457 0 443 508h-418v94h536v-86q1 -168 -39 -289t-118 -191.5t-180.5 -102.5t-237.5 -32z" />
    <glyph glyph-name="Gcommaaccent.alt" horiz-adv-x="1490" 
d="M768 -23q-297 0 -451.5 179.5t-154.5 560.5q0 200 40.5 342.5t121 229.5t194 127t268.5 40q187 0 314 -63.5t200 -198.5l-96 -66q-63 121 -165 175.5t-253 54.5q-123 0 -212.5 -30.5t-157.5 -102.5t-101.5 -198.5t-33.5 -309.5q0 -179 33.5 -304.5t100.5 -198.5
t156 -105.5t211 -32.5q457 0 443 508h-418v94h536v-86q1 -168 -39 -289t-118 -191.5t-180.5 -102.5t-237.5 -32zM715 -522l-25 53q48 20 76 65t31 103q-4 -4 -17 -4q-42 0 -66 22.5t-24 61.5t23.5 60.5t62.5 21.5q92 0 92 -125q0 -93 -38.5 -163.5t-114.5 -94.5z" />
    <glyph glyph-name="Gdotaccent.alt" horiz-adv-x="1490" 
d="M698 1722q0 41 25 62.5t68 21.5q42 0 65 -21.5t23 -62.5q0 -42 -23 -65t-65 -23q-43 0 -68 23t-25 65zM768 -23q-297 0 -451.5 179.5t-154.5 560.5q0 200 40.5 342.5t121 229.5t194 127t268.5 40q187 0 314 -63.5t200 -198.5l-96 -66q-63 121 -165 175.5t-253 54.5
q-123 0 -212.5 -30.5t-157.5 -102.5t-101.5 -198.5t-33.5 -309.5q0 -179 33.5 -304.5t100.5 -198.5t156 -105.5t211 -32.5q457 0 443 508h-418v94h536v-86q1 -168 -39 -289t-118 -191.5t-180.5 -102.5t-237.5 -32z" />
    <glyph glyph-name="Kcommaaccent.alt" horiz-adv-x="1269" 
d="M649 -522l-24 53q99 41 106 166q-51 -7 -77.5 17.5t-26.5 64.5q0 39 22.5 60.5t61.5 21.5q94 0 94 -125q0 -93 -40 -163.5t-116 -94.5zM1112 0l-721 700v7l688 727h138l-682 -721l729 -713h-152zM233 0v1434h121v-1434h-121z" />
    <glyph glyph-name="hyphen.cap" horiz-adv-x="847" 
d="M748 770v-94h-646v94h646z" />
    <glyph glyph-name="endash.cap" horiz-adv-x="1204" 
d="M1104 770v-94h-1002v94h1002z" />
    <glyph glyph-name="emdash.cap" horiz-adv-x="1613" 
d="M1513 770v-94h-1411v94h1411z" />
    <glyph glyph-name="figuredash.cap" horiz-adv-x="1204" 
d="M1102 770v-94h-1000v94h1000z" />
    <glyph glyph-name="l.alt" horiz-adv-x="522" 
d="M319 1434v-1434h-114v1434h114z" />
    <glyph glyph-name="fl.alt" 
d="M258 0v897h-192v90h192v152q0 321 283 321q94 0 164 -33l-19 -96q-69 29 -135 29q-91 0 -136.5 -53.5t-45.5 -178.5v-141h319v-90h-319v-897h-111zM1032 1434v-1434h-114v1434h114zM1032 1434v-1434h-114v1434h114z" />
    </font>
</defs>
</svg>
