<?xml version="1.0" standalone="no"?>
<!DOCTYPE svg PUBLIC "-//W3C//DTD SVG 1.1//EN" "http://www.w3.org/Graphics/SVG/1.1/DTD/svg11.dtd" >
<svg xmlns="http://www.w3.org/2000/svg" xmlns:xlink="http://www.w3.org/1999/xlink" version="1.1">
<metadata>
Created by FontForge 20161003 at Thu Mar 23 21:03:04 2017
 By www-data
Generated in 2010 by FontLab Studio. Copyright info pending.
</metadata>
<defs>
<font id="Brown-Regular" horiz-adv-x="590" >
  <font-face 
    font-family="Brown"
    font-weight="400"
    font-stretch="normal"
    units-per-em="1000"
    panose-1="0 0 0 0 0 0 0 0 0 0"
    ascent="800"
    descent="-200"
    x-height="470"
    cap-height="700"
    bbox="-95 -250 1370 1110"
    underline-thickness="80"
    underline-position="-100"
    unicode-range="U+000D-FB04"
  />
<missing-glyph horiz-adv-x="539" 
d="M75 0v700h389v-700h-389zM170 610v-520h199v520h-199z" />
    <glyph glyph-name="fi" unicode="fi" horiz-adv-x="665" 
d="M470 647c0 35 27 63 62 63s63 -28 63 -63s-28 -62 -63 -62s-62 27 -62 62zM135 470v40c0 63 9 102 30 132c34 49 90 78 154 78c20 0 43 -3 56 -7l-20 -87c-7 2 -22 4 -35 4c-27 0 -56 -12 -72 -33c-13 -17 -18 -41 -18 -84v-43h350v-470h-95v385h-255v-385h-95v385h-110
v85h110z" />
    <glyph glyph-name="fl" unicode="fl" horiz-adv-x="665" 
d="M135 470v40c0 63 9 102 30 132c34 49 90 78 154 78c20 0 43 -3 56 -7l-20 -87c-7 2 -22 4 -35 4c-27 0 -56 -12 -72 -33c-13 -17 -18 -41 -18 -84v-43h255v240h95v-710h-95v385h-255v-385h-95v385h-110v85h110z" />
    <glyph glyph-name="uniFB00" unicode="ff" horiz-adv-x="755" 
d="M725 713l-20 -87c-7 2 -22 4 -35 4c-27 0 -56 -12 -72 -33c-13 -17 -18 -41 -18 -84v-43h145v-85h-145v-385h-95v385h-255v-385h-95v385h-110v85h110v40c0 63 9 102 30 132c34 49 90 78 154 78c20 0 43 -3 56 -7l-20 -87c-7 2 -22 4 -35 4c-27 0 -56 -12 -72 -33
c-13 -17 -18 -41 -18 -84v-43h255v40c0 63 9 102 30 132c34 49 90 78 154 78c20 0 43 -3 56 -7z" />
    <glyph glyph-name="uniFB03" unicode="ffi" horiz-adv-x="1015" 
d="M725 713l-20 -87c-7 2 -22 4 -35 4c-27 0 -56 -12 -72 -33c-13 -17 -18 -41 -18 -84v-43h350v-470h-95v385h-255v-385h-95v385h-255v-385h-95v385h-110v85h110v40c0 63 9 102 30 132c34 49 90 78 154 78c20 0 43 -3 56 -7l-20 -87c-7 2 -22 4 -35 4
c-27 0 -56 -12 -72 -33c-13 -17 -18 -41 -18 -84v-43h255v40c0 63 9 102 30 132c34 49 90 78 154 78c20 0 43 -3 56 -7zM820 647c0 35 27 63 62 63s63 -28 63 -63s-28 -62 -63 -62s-62 27 -62 62z" />
    <glyph glyph-name="uniFB04" unicode="ffl" horiz-adv-x="1015" 
d="M725 713l-20 -87c-7 2 -22 4 -35 4c-27 0 -56 -12 -72 -33c-13 -17 -18 -41 -18 -84v-43h255v240h95v-710h-95v385h-255v-385h-95v385h-255v-385h-95v385h-110v85h110v40c0 63 9 102 30 132c34 49 90 78 154 78c20 0 43 -3 56 -7l-20 -87c-7 2 -22 4 -35 4
c-27 0 -56 -12 -72 -33c-13 -17 -18 -41 -18 -84v-43h255v40c0 63 9 102 30 132c34 49 90 78 154 78c20 0 43 -3 56 -7z" />
    <glyph glyph-name=".notdef" horiz-adv-x="539" 
d="M75 0v700h389v-700h-389zM170 610v-520h199v520h-199z" />
    <glyph glyph-name=".null" horiz-adv-x="0" 
 />
    <glyph glyph-name=".null" horiz-adv-x="0" 
 />
    <glyph glyph-name="CR" unicode="&#xd;" horiz-adv-x="270" 
 />
    <glyph glyph-name="space" unicode=" " horiz-adv-x="270" 
 />
    <glyph glyph-name="K" unicode="K" horiz-adv-x="650" 
d="M90 0v700h100v-295l288 295h132l-316 -325l336 -375h-128l-312 350v-350h-100z" />
    <glyph glyph-name="L" unicode="L" horiz-adv-x="520" 
d="M190 700v-605h310v-95h-410v700h100z" />
    <glyph glyph-name="M" unicode="M" horiz-adv-x="860" 
d="M670 471l-205 -321h-70l-205 321v-471h-100v700h70l270 -427l270 427h70v-700h-100v471z" />
    <glyph glyph-name="N" unicode="N" horiz-adv-x="770" 
d="M610 0l-420 514v-514h-100v700h70l420 -514v514h100v-700h-70z" />
    <glyph glyph-name="O" unicode="O" horiz-adv-x="770" 
d="M35 350c0 204 152 360 350 360s350 -156 350 -360s-152 -360 -350 -360s-350 156 -350 360zM135 350c0 -152 107 -265 250 -265s250 113 250 265c0 151 -107 265 -250 265s-250 -114 -250 -265z" />
    <glyph glyph-name="P" unicode="P" horiz-adv-x="600" 
d="M190 405h160c48 0 74 12 92 31c17 18 28 42 28 69s-11 51 -28 69c-18 19 -44 31 -92 31h-160v-200zM355 310h-165v-310h-100v700h265c68 0 112 -17 146 -46c42 -36 69 -89 69 -149s-27 -113 -69 -149c-34 -29 -78 -46 -146 -46z" />
    <glyph glyph-name="Q" unicode="Q" horiz-adv-x="775" 
d="M35 350c0 204 152 360 350 360s350 -156 350 -360c0 -92 -31 -174 -83 -237l103 -113h-124l-47 51c-56 -39 -124 -61 -199 -61c-198 0 -350 156 -350 360zM135 350c0 -152 107 -265 250 -265c50 0 96 14 134 38l-168 187l70 60l164 -183c31 44 50 100 50 163
c0 151 -107 265 -250 265s-250 -114 -250 -265z" />
    <glyph glyph-name="R" unicode="R" horiz-adv-x="640" 
d="M270 330h-80v-330h-100v700h245c64 0 104 -15 136 -41c42 -34 69 -86 69 -144s-27 -110 -69 -144c-22 -18 -47 -31 -82 -37l251 -334h-121zM190 425h140c45 0 68 10 84 26s26 39 26 64s-10 48 -26 64s-39 26 -84 26h-140v-180z" />
    <glyph glyph-name="S" unicode="S" horiz-adv-x="532" 
d="M30 107l69 68c41 -50 99 -90 171 -90c65 0 122 42 122 105c0 107 -148 119 -241 180c-50 33 -89 81 -89 154c0 102 90 186 212 186c89 0 151 -39 188 -70l-59 -73c-38 32 -81 48 -125 48c-58 0 -116 -33 -116 -94c0 -89 149 -108 239 -168c47 -31 91 -80 91 -160
c0 -123 -95 -203 -217 -203c-96 0 -183 42 -245 117z" />
    <glyph glyph-name="T" unicode="T" horiz-adv-x="510" 
d="M15 605v95h480v-95h-190v-605h-100v605h-190z" />
    <glyph glyph-name="U" unicode="U" horiz-adv-x="740" 
d="M370 -10c-86 0 -164 35 -217 92c-45 49 -73 114 -73 208v410h100v-415c0 -66 16 -107 44 -138c35 -39 87 -62 146 -62s111 23 146 62c28 31 44 72 44 138v415h100v-410c0 -94 -28 -159 -73 -208c-53 -57 -131 -92 -217 -92z" />
    <glyph glyph-name="V" unicode="V" horiz-adv-x="640" 
d="M630 700l-275 -700h-70l-275 700h104l206 -528l206 528h104z" />
    <glyph glyph-name="W" unicode="W" horiz-adv-x="950" 
d="M475 518l-175 -518h-70l-220 700h102l157 -507l171 507h70l171 -507l157 507h102l-220 -700h-70z" />
    <glyph glyph-name="X" unicode="X" horiz-adv-x="659" 
d="M133 0h-118l249 383l-209 317h123l151 -233l152 233h123l-210 -317l250 -383h-118l-197 299z" />
    <glyph glyph-name="Y" unicode="Y" horiz-adv-x="600" 
d="M590 700l-240 -380v-320h-100v320l-240 380h112l178 -281l178 281h112z" />
    <glyph glyph-name="Z" unicode="Z" 
d="M70 605v95h470v-65l-364 -540h384v-95h-520v65l366 540h-336z" />
    <glyph glyph-name="bracketleft" unicode="[" horiz-adv-x="445" 
d="M150 -200v900h245v-90h-150v-720h150v-90h-245z" />
    <glyph glyph-name="bracketright" unicode="]" horiz-adv-x="445" 
d="M295 700v-900h-245v90h150v720h-150v90h245z" />
    <glyph glyph-name="AE" unicode="&#xc6;" horiz-adv-x="910" 
d="M870 0h-410v180h-258l-108 -180h-114l418 700h462v-95h-300v-180h230v-95h-230v-235h310v-95zM460 615l-202 -340h202v340z" />
    <glyph glyph-name="OE" unicode="&#x152;" horiz-adv-x="1085" 
d="M35 350c0 204 152 360 350 360c100 0 188 -41 250 -107v97h400v-95h-300v-180h230v-95h-230v-235h310v-95h-410v97c-62 -67 -150 -107 -250 -107c-198 0 -350 156 -350 360zM385 85c143 0 250 113 250 265c0 151 -107 265 -250 265s-250 -114 -250 -265
c0 -152 107 -265 250 -265z" />
    <glyph glyph-name="backslash" unicode="\" horiz-adv-x="435" 
d="M430 0h-99l-326 700h99z" />
    <glyph glyph-name="slash" unicode="/" horiz-adv-x="435" 
d="M104 0h-99l326 700h99z" />
    <glyph glyph-name="bar" unicode="|" horiz-adv-x="215" 
d="M60 -200v900h95v-900h-95z" />
    <glyph glyph-name="a" unicode="a" horiz-adv-x="605" 
d="M428 0v43c-38 -34 -89 -53 -145 -53c-42 0 -86 12 -118 31c-71 42 -120 120 -120 214s50 173 121 215c32 19 71 30 115 30c53 0 104 -16 147 -53v43h92v-470h-92zM425 147v176c-29 38 -77 67 -134 67c-91 0 -151 -73 -151 -155c0 -84 65 -155 156 -155c48 0 97 24 129 67
z" />
    <glyph glyph-name="b" unicode="b" horiz-adv-x="605" 
d="M177 43v-43h-92v710h95v-281c42 35 93 51 144 51c44 0 83 -11 115 -30c71 -42 121 -121 121 -215s-49 -172 -120 -214c-32 -19 -76 -31 -118 -31c-56 0 -107 19 -145 53zM180 323v-176c32 -43 81 -67 129 -67c91 0 156 71 156 155c0 82 -60 155 -151 155
c-57 0 -105 -29 -134 -67z" />
    <glyph glyph-name="c" unicode="c" horiz-adv-x="530" 
d="M432 153l73 -53c-39 -65 -123 -110 -209 -110c-145 0 -251 106 -251 245s104 245 245 245c82 0 156 -41 200 -102l-70 -59c-26 36 -70 71 -130 71c-85 0 -150 -66 -150 -155c0 -92 66 -155 156 -155c62 0 106 33 136 73z" />
    <glyph glyph-name="d" unicode="d" horiz-adv-x="605" 
d="M428 0v43c-38 -34 -89 -53 -145 -53c-42 0 -86 12 -118 31c-71 42 -120 120 -120 214s50 173 121 215c32 19 71 30 115 30c51 0 102 -16 144 -51v281h95v-710h-92zM425 147v176c-29 38 -77 67 -134 67c-91 0 -151 -73 -151 -155c0 -84 65 -155 156 -155
c48 0 97 24 129 67z" />
    <glyph glyph-name="e" unicode="e" horiz-adv-x="545" 
d="M499 215h-362c5 -79 70 -142 152 -142c70 0 108 34 135 64l62 -59c-35 -45 -102 -88 -198 -88c-137 0 -243 104 -243 245s96 245 229 245c131 0 226 -106 226 -245c0 -4 0 -11 -1 -20zM277 397c-61 0 -116 -41 -132 -102h256c-14 60 -68 102 -124 102z" />
    <glyph glyph-name="f" unicode="f" horiz-adv-x="405" 
d="M375 713l-20 -87c-7 2 -22 4 -35 4c-27 0 -56 -12 -72 -33c-13 -17 -18 -41 -18 -84v-43h145v-85h-145v-385h-95v385h-110v85h110v40c0 63 9 102 30 132c34 49 90 78 154 78c20 0 43 -3 56 -7z" />
    <glyph glyph-name="g" unicode="g" horiz-adv-x="605" 
d="M425 41c-38 -33 -86 -51 -142 -51c-42 0 -86 12 -118 31c-71 42 -120 120 -120 214s50 173 121 215c32 19 71 30 115 30c53 0 104 -16 147 -53v43h92v-450c0 -70 -9 -117 -28 -154c-38 -73 -110 -116 -203 -116c-122 0 -199 62 -229 109l70 65c34 -45 78 -84 155 -84
c51 0 91 19 114 54c17 26 26 62 26 121v26zM425 147v176c-29 38 -77 67 -134 67c-91 0 -151 -73 -151 -155c0 -84 65 -155 156 -155c48 0 97 24 129 67z" />
    <glyph glyph-name="h" unicode="h" horiz-adv-x="610" 
d="M180 710v-281c26 22 73 51 138 51c69 0 131 -32 171 -83c30 -38 46 -86 46 -167v-230h-95v235c0 60 -11 88 -28 109c-22 28 -58 46 -97 46c-62 0 -107 -33 -135 -67v-323h-95v710h95z" />
    <glyph glyph-name="i" unicode="i" horiz-adv-x="265" 
d="M85 0v470h95v-470h-95zM70 637c0 35 27 63 62 63s63 -28 63 -63s-28 -62 -63 -62s-62 27 -62 62z" />
    <glyph glyph-name="j" unicode="j" horiz-adv-x="285" 
d="M90 637c0 35 27 63 62 63s63 -28 63 -63s-28 -62 -63 -62s-62 27 -62 62zM105 -43v513h95v-510c0 -63 -9 -102 -30 -132c-34 -49 -90 -78 -154 -78c-20 0 -43 3 -56 7l20 87c7 -2 22 -4 35 -4c27 0 56 12 72 33c13 17 18 41 18 84z" />
    <glyph glyph-name="k" unicode="k" horiz-adv-x="550" 
d="M275 258l265 -258h-127l-233 230v-230h-95v710h95v-420l196 180h134z" />
    <glyph glyph-name="l" unicode="l" horiz-adv-x="265" 
d="M85 0v710h95v-710h-95z" />
    <glyph glyph-name="m" unicode="m" horiz-adv-x="945" 
d="M85 470h92v-45c19 21 74 55 138 55c69 0 127 -31 166 -78c43 43 94 78 179 78c67 0 128 -30 167 -79c29 -36 43 -82 43 -161v-240h-95v255c0 48 -10 74 -27 94c-21 25 -53 41 -88 41c-68 0 -112 -35 -143 -67c5 -23 8 -50 8 -83v-240h-95v255c0 48 -10 74 -27 94
c-21 25 -55 41 -91 41c-58 0 -105 -35 -132 -67v-323h-95v470z" />
    <glyph glyph-name="n" unicode="n" horiz-adv-x="610" 
d="M177 470v-45c25 24 73 55 141 55c69 0 131 -32 171 -83c30 -38 46 -86 46 -167v-230h-95v235c0 60 -11 88 -28 109c-22 28 -58 46 -97 46c-62 0 -107 -33 -135 -67v-323h-95v470h92z" />
    <glyph glyph-name="o" unicode="o" horiz-adv-x="576" 
d="M45 235c0 140 104 245 243 245s243 -105 243 -245s-104 -245 -243 -245s-243 105 -243 245zM140 235c0 -86 61 -155 148 -155s148 69 148 155s-61 155 -148 155s-148 -69 -148 -155z" />
    <glyph glyph-name="q" unicode="q" horiz-adv-x="605" 
d="M425 41c-38 -33 -86 -51 -142 -51c-42 0 -86 12 -118 31c-71 42 -120 120 -120 214s50 173 121 215c32 19 71 30 115 30c53 0 104 -16 147 -53v43h92v-710h-95v281zM425 147v176c-29 38 -77 67 -134 67c-91 0 -151 -73 -151 -155c0 -84 65 -155 156 -155
c48 0 97 24 129 67z" />
    <glyph glyph-name="p" unicode="p" horiz-adv-x="605" 
d="M180 41v-281h-95v710h92v-43c43 37 94 53 147 53c44 0 83 -11 115 -30c71 -42 121 -121 121 -215s-49 -172 -120 -214c-32 -19 -76 -31 -118 -31c-56 0 -104 18 -142 51zM180 323v-176c32 -43 81 -67 129 -67c91 0 156 71 156 155c0 82 -60 155 -151 155
c-57 0 -105 -29 -134 -67z" />
    <glyph glyph-name="r" unicode="r" horiz-adv-x="385" 
d="M355 477l-11 -91c-11 3 -22 4 -37 4c-49 0 -101 -34 -127 -79v-311h-95v470h92v-54c23 32 72 64 141 64c10 0 26 -1 37 -3z" />
    <glyph glyph-name="s" unicode="s" horiz-adv-x="455" 
d="M40 55l49 70c44 -34 92 -52 139 -52c41 0 82 22 82 59c0 54 -78 57 -147 80c-57 19 -108 55 -108 121c0 101 90 147 174 147c69 0 119 -22 156 -52l-49 -68c-29 22 -63 37 -101 37c-46 0 -85 -22 -85 -59c0 -32 37 -43 84 -55c74 -19 171 -52 171 -149
c0 -89 -83 -144 -175 -144c-75 0 -138 23 -190 65z" />
    <glyph glyph-name="t" unicode="t" horiz-adv-x="420" 
d="M356 86l19 -86c-18 -6 -47 -10 -74 -10c-59 0 -103 21 -133 55c-28 31 -38 74 -38 125v215h-120v85h120v130h95v-130h150v-85h-150v-220c0 -25 2 -46 14 -60c13 -16 40 -25 65 -25c14 0 38 2 52 6z" />
    <glyph glyph-name="u" unicode="u" horiz-adv-x="600" 
d="M285 -10c-67 0 -128 30 -167 79c-29 36 -43 82 -43 161v240h95v-255c0 -48 10 -74 27 -94c21 -25 55 -41 91 -41c58 0 105 35 132 67v323h95v-470h-92v43c-21 -20 -73 -53 -138 -53z" />
    <glyph glyph-name="v" unicode="v" horiz-adv-x="494" 
d="M214 0l-204 470h98l139 -320l139 320h98l-204 -470h-66z" />
    <glyph glyph-name="w" unicode="w" horiz-adv-x="798" 
d="M366 470h66l129 -321l129 321h98l-191 -470h-66l-132 330l-132 -330h-66l-191 470h98l129 -321z" />
    <glyph glyph-name="x" unicode="x" horiz-adv-x="510" 
d="M382 0l-127 176l-127 -176h-113l178 247l-161 223h112l111 -152l111 152h112l-161 -223l178 -247h-113z" />
    <glyph glyph-name="y" unicode="y" horiz-adv-x="509" 
d="M185 -240h-101l127 289l-201 421h102l147 -310l135 310h100z" />
    <glyph glyph-name="z" unicode="z" horiz-adv-x="470" 
d="M40 60l258 325h-243v85h375v-60l-259 -325h279v-85h-410v60z" />
    <glyph glyph-name="Adieresis" unicode="&#xc4;" horiz-adv-x="660" 
d="M175 817c0 35 27 63 62 63s63 -28 63 -63s-28 -62 -63 -62s-62 27 -62 62zM360 817c0 35 27 63 62 63s63 -28 63 -63s-28 -62 -63 -62s-62 27 -62 62zM551 0l-74 180h-295l-73 -180h-104l290 700h70l290 -700h-104zM330 535l-108 -260h216z" />
    <glyph glyph-name="Aring" unicode="&#xc5;" horiz-adv-x="660" 
d="M230 830c0 55 45 100 100 100s100 -45 100 -100s-45 -100 -100 -100s-100 45 -100 100zM290 830c0 -22 18 -40 40 -40s40 18 40 40s-18 40 -40 40s-40 -18 -40 -40zM551 0l-74 180h-295l-73 -180h-104l290 700h70l290 -700h-104zM330 535l-108 -260h216z" />
    <glyph glyph-name="Ccedilla" unicode="&#xc7;" horiz-adv-x="690" 
d="M35 350c0 202 152 360 354 360c100 0 195 -41 256 -108l-67 -66c-41 45 -114 79 -189 79c-143 0 -254 -114 -254 -265c0 -158 114 -265 263 -265c94 0 162 52 201 99l71 -64c-56 -72 -150 -122 -249 -129l-26 -131h-105l62 133c-185 20 -317 165 -317 357z" />
    <glyph glyph-name="Ntilde" unicode="&#xd1;" horiz-adv-x="770" 
d="M610 0l-420 514v-514h-100v700h70l420 -514v514h100v-700h-70zM279 760l-65 21c2 59 41 109 101 109c51 0 96 -45 136 -45c23 0 33 16 38 45l65 -21c-2 -59 -41 -109 -101 -109c-51 0 -96 45 -136 45c-23 0 -33 -16 -38 -45z" />
    <glyph glyph-name="Odieresis" unicode="&#xd6;" horiz-adv-x="770" 
d="M35 350c0 204 152 360 350 360s350 -156 350 -360s-152 -360 -350 -360s-350 156 -350 360zM135 350c0 -152 107 -265 250 -265s250 113 250 265c0 151 -107 265 -250 265s-250 -114 -250 -265zM230 817c0 35 27 63 62 63s63 -28 63 -63s-28 -62 -63 -62s-62 27 -62 62z
M415 817c0 35 27 63 62 63s63 -28 63 -63s-28 -62 -63 -62s-62 27 -62 62z" />
    <glyph glyph-name="Udieresis" unicode="&#xdc;" horiz-adv-x="740" 
d="M370 -10c-86 0 -164 35 -217 92c-45 49 -73 114 -73 208v410h100v-415c0 -66 16 -107 44 -138c35 -39 87 -62 146 -62s111 23 146 62c28 31 44 72 44 138v415h100v-410c0 -94 -28 -159 -73 -208c-53 -57 -131 -92 -217 -92zM215 817c0 35 27 63 62 63s63 -28 63 -63
s-28 -62 -63 -62s-62 27 -62 62zM400 817c0 35 27 63 62 63s63 -28 63 -63s-28 -62 -63 -62s-62 27 -62 62z" />
    <glyph glyph-name="aacute" unicode="&#xe1;" horiz-adv-x="605" 
d="M317 550h-65l65 150h105zM428 0v43c-38 -34 -89 -53 -145 -53c-42 0 -86 12 -118 31c-71 42 -120 120 -120 214s50 173 121 215c32 19 71 30 115 30c53 0 104 -16 147 -53v43h92v-470h-92zM425 147v176c-29 38 -77 67 -134 67c-91 0 -151 -73 -151 -155
c0 -84 65 -155 156 -155c48 0 97 24 129 67z" />
    <glyph glyph-name="agrave" unicode="&#xe0;" horiz-adv-x="605" 
d="M372 550h-65l-105 150h105zM428 0v43c-38 -34 -89 -53 -145 -53c-42 0 -86 12 -118 31c-71 42 -120 120 -120 214s50 173 121 215c32 19 71 30 115 30c53 0 104 -16 147 -53v43h92v-470h-92zM425 147v176c-29 38 -77 67 -134 67c-91 0 -151 -73 -151 -155
c0 -84 65 -155 156 -155c48 0 97 24 129 67z" />
    <glyph glyph-name="acircumflex" unicode="&#xe2;" horiz-adv-x="605" 
d="M222 550h-65l95 150h110l95 -150h-65l-85 94zM428 0v43c-38 -34 -89 -53 -145 -53c-42 0 -86 12 -118 31c-71 42 -120 120 -120 214s50 173 121 215c32 19 71 30 115 30c53 0 104 -16 147 -53v43h92v-470h-92zM425 147v176c-29 38 -77 67 -134 67
c-91 0 -151 -73 -151 -155c0 -84 65 -155 156 -155c48 0 97 24 129 67z" />
    <glyph glyph-name="adieresis" unicode="&#xe4;" horiz-adv-x="605" 
d="M142 617c0 35 27 63 62 63s63 -28 63 -63s-28 -62 -63 -62s-62 27 -62 62zM327 617c0 35 27 63 62 63s63 -28 63 -63s-28 -62 -63 -62s-62 27 -62 62zM428 0v43c-38 -34 -89 -53 -145 -53c-42 0 -86 12 -118 31c-71 42 -120 120 -120 214s50 173 121 215
c32 19 71 30 115 30c53 0 104 -16 147 -53v43h92v-470h-92zM425 147v176c-29 38 -77 67 -134 67c-91 0 -151 -73 -151 -155c0 -84 65 -155 156 -155c48 0 97 24 129 67z" />
    <glyph glyph-name="atilde" unicode="&#xe3;" horiz-adv-x="605" 
d="M196 560l-65 21c2 59 41 109 101 109c51 0 96 -45 136 -45c23 0 33 16 38 45l65 -21c-2 -59 -41 -109 -101 -109c-51 0 -96 45 -136 45c-23 0 -33 -16 -38 -45zM428 0v43c-38 -34 -89 -53 -145 -53c-42 0 -86 12 -118 31c-71 42 -120 120 -120 214s50 173 121 215
c32 19 71 30 115 30c53 0 104 -16 147 -53v43h92v-470h-92zM425 147v176c-29 38 -77 67 -134 67c-91 0 -151 -73 -151 -155c0 -84 65 -155 156 -155c48 0 97 24 129 67z" />
    <glyph glyph-name="aring" unicode="&#xe5;" horiz-adv-x="605" 
d="M197 630c0 55 45 100 100 100s100 -45 100 -100s-45 -100 -100 -100s-100 45 -100 100zM257 630c0 -22 18 -40 40 -40s40 18 40 40s-18 40 -40 40s-40 -18 -40 -40zM428 0v43c-38 -34 -89 -53 -145 -53c-42 0 -86 12 -118 31c-71 42 -120 120 -120 214s50 173 121 215
c32 19 71 30 115 30c53 0 104 -16 147 -53v43h92v-470h-92zM425 147v176c-29 38 -77 67 -134 67c-91 0 -151 -73 -151 -155c0 -84 65 -155 156 -155c48 0 97 24 129 67z" />
    <glyph glyph-name="eacute" unicode="&#xe9;" horiz-adv-x="545" 
d="M302 550h-65l65 150h105zM499 215h-362c5 -79 70 -142 152 -142c70 0 108 34 135 64l62 -59c-35 -45 -102 -88 -198 -88c-137 0 -243 104 -243 245s96 245 229 245c131 0 226 -106 226 -245c0 -4 0 -11 -1 -20zM277 397c-61 0 -116 -41 -132 -102h256
c-14 60 -68 102 -124 102z" />
    <glyph glyph-name="egrave" unicode="&#xe8;" horiz-adv-x="545" 
d="M327 550h-65l-105 150h105zM499 215h-362c5 -79 70 -142 152 -142c70 0 108 34 135 64l62 -59c-35 -45 -102 -88 -198 -88c-137 0 -243 104 -243 245s96 245 229 245c131 0 226 -106 226 -245c0 -4 0 -11 -1 -20zM277 397c-61 0 -116 -41 -132 -102h256
c-14 60 -68 102 -124 102z" />
    <glyph glyph-name="ecircumflex" unicode="&#xea;" horiz-adv-x="545" 
d="M192 550h-65l95 150h110l95 -150h-65l-85 94zM499 215h-362c5 -79 70 -142 152 -142c70 0 108 34 135 64l62 -59c-35 -45 -102 -88 -198 -88c-137 0 -243 104 -243 245s96 245 229 245c131 0 226 -106 226 -245c0 -4 0 -11 -1 -20zM277 397c-61 0 -116 -41 -132 -102h256
c-14 60 -68 102 -124 102z" />
    <glyph glyph-name="edieresis" unicode="&#xeb;" horiz-adv-x="545" 
d="M117 617c0 35 27 63 62 63s63 -28 63 -63s-28 -62 -63 -62s-62 27 -62 62zM302 617c0 35 27 63 62 63s63 -28 63 -63s-28 -62 -63 -62s-62 27 -62 62zM499 215h-362c5 -79 70 -142 152 -142c70 0 108 34 135 64l62 -59c-35 -45 -102 -88 -198 -88
c-137 0 -243 104 -243 245s96 245 229 245c131 0 226 -106 226 -245c0 -4 0 -11 -1 -20zM277 397c-61 0 -116 -41 -132 -102h256c-14 60 -68 102 -124 102z" />
    <glyph glyph-name="iacute" unicode="&#xed;" horiz-adv-x="265" 
d="M85 0v470h95v-470h-95zM150 550h-65l65 150h105z" />
    <glyph glyph-name="dotlessi" unicode="&#x131;" horiz-adv-x="265" 
d="M85 0v470h95v-470h-95z" />
    <glyph glyph-name="igrave" unicode="&#xec;" horiz-adv-x="265" 
d="M85 0v470h95v-470h-95zM180 550h-65l-105 150h105z" />
    <glyph glyph-name="icircumflex" unicode="&#xee;" horiz-adv-x="265" 
d="M85 0v470h95v-470h-95zM47 550h-65l95 150h110l95 -150h-65l-85 94z" />
    <glyph glyph-name="idieresis" unicode="&#xef;" horiz-adv-x="265" 
d="M85 0v470h95v-470h-95zM-23 617c0 35 27 63 62 63s63 -28 63 -63s-28 -62 -63 -62s-62 27 -62 62zM162 617c0 35 27 63 62 63s63 -28 63 -63s-28 -62 -63 -62s-62 27 -62 62z" />
    <glyph glyph-name="ntilde" unicode="&#xf1;" horiz-adv-x="610" 
d="M177 470v-45c25 24 73 55 141 55c69 0 131 -32 171 -83c30 -38 46 -86 46 -167v-230h-95v235c0 60 -11 88 -28 109c-22 28 -58 46 -97 46c-62 0 -107 -33 -135 -67v-323h-95v470h92zM206 560l-65 21c2 59 41 109 101 109c51 0 96 -45 136 -45c23 0 33 16 38 45l65 -21
c-2 -59 -41 -109 -101 -109c-51 0 -96 45 -136 45c-23 0 -33 -16 -38 -45z" />
    <glyph glyph-name="oacute" unicode="&#xf3;" horiz-adv-x="576" 
d="M45 235c0 140 104 245 243 245s243 -105 243 -245s-104 -245 -243 -245s-243 105 -243 245zM140 235c0 -86 61 -155 148 -155s148 69 148 155s-61 155 -148 155s-148 -69 -148 -155zM318 550h-65l65 150h105z" />
    <glyph glyph-name="ograve" unicode="&#xf2;" horiz-adv-x="576" 
d="M45 235c0 140 104 245 243 245s243 -105 243 -245s-104 -245 -243 -245s-243 105 -243 245zM140 235c0 -86 61 -155 148 -155s148 69 148 155s-61 155 -148 155s-148 -69 -148 -155zM323 550h-65l-105 150h105z" />
    <glyph glyph-name="ocircumflex" unicode="&#xf4;" horiz-adv-x="576" 
d="M45 235c0 140 104 245 243 245s243 -105 243 -245s-104 -245 -243 -245s-243 105 -243 245zM140 235c0 -86 61 -155 148 -155s148 69 148 155s-61 155 -148 155s-148 -69 -148 -155zM203 550h-65l95 150h110l95 -150h-65l-85 94z" />
    <glyph glyph-name="odieresis" unicode="&#xf6;" horiz-adv-x="576" 
d="M45 235c0 140 104 245 243 245s243 -105 243 -245s-104 -245 -243 -245s-243 105 -243 245zM140 235c0 -86 61 -155 148 -155s148 69 148 155s-61 155 -148 155s-148 -69 -148 -155zM133 617c0 35 27 63 62 63s63 -28 63 -63s-28 -62 -63 -62s-62 27 -62 62zM318 617
c0 35 27 63 62 63s63 -28 63 -63s-28 -62 -63 -62s-62 27 -62 62z" />
    <glyph glyph-name="otilde" unicode="&#xf5;" horiz-adv-x="576" 
d="M45 235c0 140 104 245 243 245s243 -105 243 -245s-104 -245 -243 -245s-243 105 -243 245zM140 235c0 -86 61 -155 148 -155s148 69 148 155s-61 155 -148 155s-148 -69 -148 -155zM184 560l-65 21c2 59 41 109 101 109c51 0 96 -45 136 -45c23 0 33 16 38 45l65 -21
c-2 -59 -41 -109 -101 -109c-51 0 -96 45 -136 45c-23 0 -33 -16 -38 -45z" />
    <glyph glyph-name="uacute" unicode="&#xfa;" horiz-adv-x="600" 
d="M325 550h-65l65 150h105zM285 -10c-67 0 -128 30 -167 79c-29 36 -43 82 -43 161v240h95v-255c0 -48 10 -74 27 -94c21 -25 55 -41 91 -41c58 0 105 35 132 67v323h95v-470h-92v43c-21 -20 -73 -53 -138 -53z" />
    <glyph glyph-name="ugrave" unicode="&#xf9;" horiz-adv-x="600" 
d="M340 550h-65l-105 150h105zM285 -10c-67 0 -128 30 -167 79c-29 36 -43 82 -43 161v240h95v-255c0 -48 10 -74 27 -94c21 -25 55 -41 91 -41c58 0 105 35 132 67v323h95v-470h-92v43c-21 -20 -73 -53 -138 -53z" />
    <glyph glyph-name="ucircumflex" unicode="&#xfb;" horiz-adv-x="600" 
d="M210 550h-65l95 150h110l95 -150h-65l-85 94zM285 -10c-67 0 -128 30 -167 79c-29 36 -43 82 -43 161v240h95v-255c0 -48 10 -74 27 -94c21 -25 55 -41 91 -41c58 0 105 35 132 67v323h95v-470h-92v43c-21 -20 -73 -53 -138 -53z" />
    <glyph glyph-name="udieresis" unicode="&#xfc;" horiz-adv-x="600" 
d="M140 617c0 35 27 63 62 63s63 -28 63 -63s-28 -62 -63 -62s-62 27 -62 62zM325 617c0 35 27 63 62 63s63 -28 63 -63s-28 -62 -63 -62s-62 27 -62 62zM285 -10c-67 0 -128 30 -167 79c-29 36 -43 82 -43 161v240h95v-255c0 -48 10 -74 27 -94c21 -25 55 -41 91 -41
c58 0 105 35 132 67v323h95v-470h-92v43c-21 -20 -73 -53 -138 -53z" />
    <glyph glyph-name="dagger" unicode="&#x2020;" horiz-adv-x="525" 
d="M50 460h165v240h95v-240h165v-90h-165v-570h-95v570h-165v90z" />
    <glyph glyph-name="daggerdbl" unicode="&#x2021;" horiz-adv-x="525" 
d="M50 460h165v240h95v-240h165v-90h-165v-150h165v-90h-165v-330h-95v330h-165v90h165v150h-165v90z" />
    <glyph glyph-name="Agrave" unicode="&#xc0;" horiz-adv-x="660" 
d="M360 750h-65l-105 150h105zM551 0l-74 180h-295l-73 -180h-104l290 700h70l290 -700h-104zM330 535l-108 -260h216z" />
    <glyph glyph-name="Atilde" unicode="&#xc3;" horiz-adv-x="660" 
d="M551 0l-74 180h-295l-73 -180h-104l290 700h70l290 -700h-104zM330 535l-108 -260h216zM225 760l-65 21c2 59 41 109 101 109c51 0 96 -45 136 -45c23 0 33 16 38 45l65 -21c-2 -59 -41 -109 -101 -109c-51 0 -96 45 -136 45c-23 0 -33 -16 -38 -45z" />
    <glyph glyph-name="Otilde" unicode="&#xd5;" horiz-adv-x="770" 
d="M35 350c0 204 152 360 350 360s350 -156 350 -360s-152 -360 -350 -360s-350 156 -350 360zM135 350c0 -152 107 -265 250 -265s250 113 250 265c0 151 -107 265 -250 265s-250 -114 -250 -265zM280 760l-65 21c2 59 41 109 101 109c51 0 96 -45 136 -45
c23 0 33 16 38 45l65 -21c-2 -59 -41 -109 -101 -109c-51 0 -96 45 -136 45c-23 0 -33 -16 -38 -45z" />
    <glyph glyph-name="Ydieresis" unicode="&#x178;" horiz-adv-x="600" 
d="M590 700l-240 -380v-320h-100v320l-240 380h112l178 -281l178 281h112zM145 817c0 35 27 63 62 63s63 -28 63 -63s-28 -62 -63 -62s-62 27 -62 62zM330 817c0 35 27 63 62 63s63 -28 63 -63s-28 -62 -63 -62s-62 27 -62 62z" />
    <glyph glyph-name="ydieresis" unicode="&#xff;" horiz-adv-x="509" 
d="M185 -240h-101l127 289l-201 421h102l147 -310l135 310h100zM94 617c0 35 27 63 62 63s63 -28 63 -63s-28 -62 -63 -62s-62 27 -62 62zM279 617c0 35 27 63 62 63s63 -28 63 -63s-28 -62 -63 -62s-62 27 -62 62z" />
    <glyph glyph-name="Scaron" unicode="&#x160;" horiz-adv-x="532" 
d="M134 900h65l85 -94l85 94h65l-95 -150h-110zM30 107l69 68c41 -50 99 -90 171 -90c65 0 122 42 122 105c0 107 -148 119 -241 180c-50 33 -89 81 -89 154c0 102 90 186 212 186c89 0 151 -39 188 -70l-59 -73c-38 32 -81 48 -125 48c-58 0 -116 -33 -116 -94
c0 -89 149 -108 239 -168c47 -31 91 -80 91 -160c0 -123 -95 -203 -217 -203c-96 0 -183 42 -245 117z" />
    <glyph glyph-name="scaron" unicode="&#x161;" horiz-adv-x="455" 
d="M40 55l49 70c44 -34 92 -52 139 -52c41 0 82 22 82 59c0 54 -78 57 -147 80c-57 19 -108 55 -108 121c0 101 90 147 174 147c69 0 119 -22 156 -52l-49 -68c-29 22 -63 37 -101 37c-46 0 -85 -22 -85 -59c0 -32 37 -43 84 -55c74 -19 171 -52 171 -149
c0 -89 -83 -144 -175 -144c-75 0 -138 23 -190 65zM82 700h65l85 -94l85 94h65l-95 -150h-110z" />
    <glyph glyph-name="Yacute" unicode="&#xdd;" horiz-adv-x="600" 
d="M590 700l-240 -380v-320h-100v320l-240 380h112l178 -281l178 281h112zM330 750h-65l65 150h105z" />
    <glyph glyph-name="yacute" unicode="&#xfd;" horiz-adv-x="509" 
d="M185 -240h-101l127 289l-201 421h102l147 -310l135 310h100zM287 550h-65l65 150h105z" />
    <glyph glyph-name="Acircumflex" unicode="&#xc2;" horiz-adv-x="660" 
d="M245 750h-65l95 150h110l95 -150h-65l-85 94zM551 0l-74 180h-295l-73 -180h-104l290 700h70l290 -700h-104zM330 535l-108 -260h216z" />
    <glyph glyph-name="Ecircumflex" unicode="&#xca;" horiz-adv-x="540" 
d="M190 425h230v-95h-230v-235h310v-95h-410v700h400v-95h-300v-180zM205 750h-65l95 150h110l95 -150h-65l-85 94z" />
    <glyph glyph-name="Aacute" unicode="&#xc1;" horiz-adv-x="660" 
d="M365 750h-65l65 150h105zM551 0l-74 180h-295l-73 -180h-104l290 700h70l290 -700h-104zM330 535l-108 -260h216z" />
    <glyph glyph-name="Edieresis" unicode="&#xcb;" horiz-adv-x="540" 
d="M190 425h230v-95h-230v-235h310v-95h-410v700h400v-95h-300v-180zM135 817c0 35 27 63 62 63s63 -28 63 -63s-28 -62 -63 -62s-62 27 -62 62zM320 817c0 35 27 63 62 63s63 -28 63 -63s-28 -62 -63 -62s-62 27 -62 62z" />
    <glyph glyph-name="Egrave" unicode="&#xc8;" horiz-adv-x="540" 
d="M190 425h230v-95h-230v-235h310v-95h-410v700h400v-95h-300v-180zM335 750h-65l-105 150h105z" />
    <glyph glyph-name="Iacute" unicode="&#xcd;" horiz-adv-x="280" 
d="M90 0v700h100v-700h-100zM165 750h-65l65 150h105z" />
    <glyph glyph-name="Icircumflex" unicode="&#xce;" horiz-adv-x="280" 
d="M90 0v700h100v-700h-100zM55 750h-65l95 150h110l95 -150h-65l-85 94z" />
    <glyph glyph-name="Idieresis" unicode="&#xcf;" horiz-adv-x="280" 
d="M90 0v700h100v-700h-100zM-15 817c0 35 27 63 62 63s63 -28 63 -63s-28 -62 -63 -62s-62 27 -62 62zM170 817c0 35 27 63 62 63s63 -28 63 -63s-28 -62 -63 -62s-62 27 -62 62z" />
    <glyph glyph-name="Igrave" unicode="&#xcc;" horiz-adv-x="280" 
d="M90 0v700h100v-700h-100zM180 750h-65l-105 150h105z" />
    <glyph glyph-name="Oacute" unicode="&#xd3;" horiz-adv-x="770" 
d="M35 350c0 204 152 360 350 360s350 -156 350 -360s-152 -360 -350 -360s-350 156 -350 360zM135 350c0 -152 107 -265 250 -265s250 113 250 265c0 151 -107 265 -250 265s-250 -114 -250 -265zM415 750h-65l65 150h105z" />
    <glyph glyph-name="Ocircumflex" unicode="&#xd4;" horiz-adv-x="770" 
d="M35 350c0 204 152 360 350 360s350 -156 350 -360s-152 -360 -350 -360s-350 156 -350 360zM135 350c0 -152 107 -265 250 -265s250 113 250 265c0 151 -107 265 -250 265s-250 -114 -250 -265zM300 750h-65l95 150h110l95 -150h-65l-85 94z" />
    <glyph glyph-name="Ograve" unicode="&#xd2;" horiz-adv-x="770" 
d="M35 350c0 204 152 360 350 360s350 -156 350 -360s-152 -360 -350 -360s-350 156 -350 360zM135 350c0 -152 107 -265 250 -265s250 113 250 265c0 151 -107 265 -250 265s-250 -114 -250 -265zM420 750h-65l-105 150h105z" />
    <glyph glyph-name="Uacute" unicode="&#xda;" horiz-adv-x="740" 
d="M370 -10c-86 0 -164 35 -217 92c-45 49 -73 114 -73 208v410h100v-415c0 -66 16 -107 44 -138c35 -39 87 -62 146 -62s111 23 146 62c28 31 44 72 44 138v415h100v-410c0 -94 -28 -159 -73 -208c-53 -57 -131 -92 -217 -92zM400 750h-65l65 150h105z" />
    <glyph glyph-name="Ucircumflex" unicode="&#xdb;" horiz-adv-x="740" 
d="M370 -10c-86 0 -164 35 -217 92c-45 49 -73 114 -73 208v410h100v-415c0 -66 16 -107 44 -138c35 -39 87 -62 146 -62s111 23 146 62c28 31 44 72 44 138v415h100v-410c0 -94 -28 -159 -73 -208c-53 -57 -131 -92 -217 -92zM285 750h-65l95 150h110l95 -150h-65l-85 94z
" />
    <glyph glyph-name="Ugrave" unicode="&#xd9;" horiz-adv-x="740" 
d="M370 -10c-86 0 -164 35 -217 92c-45 49 -73 114 -73 208v410h100v-415c0 -66 16 -107 44 -138c35 -39 87 -62 146 -62s111 23 146 62c28 31 44 72 44 138v415h100v-410c0 -94 -28 -159 -73 -208c-53 -57 -131 -92 -217 -92zM405 750h-65l-105 150h105z" />
    <glyph glyph-name="period" unicode="." horiz-adv-x="340" 
d="M110 60c0 39 31 70 70 70s70 -31 70 -70s-31 -70 -70 -70s-70 31 -70 70z" />
    <glyph glyph-name="E" unicode="E" horiz-adv-x="540" 
d="M190 425h230v-95h-230v-235h310v-95h-410v700h400v-95h-300v-180z" />
    <glyph glyph-name="ellipsis" unicode="&#x2026;" horiz-adv-x="930" 
d="M110 60c0 39 31 70 70 70s70 -31 70 -70s-31 -70 -70 -70s-70 31 -70 70zM405 60c0 39 31 70 70 70s70 -31 70 -70s-31 -70 -70 -70s-70 31 -70 70zM700 60c0 39 31 70 70 70s70 -31 70 -70s-31 -70 -70 -70s-70 31 -70 70z" />
    <glyph glyph-name="periodcentered" unicode="&#xb7;" horiz-adv-x="340" 
d="M100 235c0 39 31 70 70 70s70 -31 70 -70s-31 -70 -70 -70s-70 31 -70 70z" />
    <glyph glyph-name="hyphen" unicode="-" horiz-adv-x="460" 
d="M80 295h300v-80h-300v80z" />
    <glyph glyph-name="endash" unicode="&#x2013;" horiz-adv-x="490" 
d="M20 295h450v-80h-450v80z" />
    <glyph glyph-name="emdash" unicode="&#x2014;" horiz-adv-x="790" 
d="M20 295h750v-80h-750v80z" />
    <glyph glyph-name="dieresis" unicode="&#xa8;" horiz-adv-x="450" 
d="M70 617c0 35 27 63 62 63s63 -28 63 -63s-28 -62 -63 -62s-62 27 -62 62zM255 617c0 35 27 63 62 63s63 -28 63 -63s-28 -62 -63 -62s-62 27 -62 62z" />
    <glyph glyph-name="acute" unicode="&#xb4;" horiz-adv-x="310" 
d="M135 550h-65l65 150h105z" />
    <glyph glyph-name="grave" unicode="`" horiz-adv-x="310" 
d="M240 550h-65l-105 150h105z" />
    <glyph glyph-name="dotaccent" unicode="&#x2d9;" horiz-adv-x="265" 
d="M70 637c0 35 27 63 62 63s63 -28 63 -63s-28 -62 -63 -62s-62 27 -62 62z" />
    <glyph glyph-name="colon" unicode=":" horiz-adv-x="340" 
d="M110 410c0 39 31 70 70 70s70 -31 70 -70s-31 -70 -70 -70s-70 31 -70 70zM110 60c0 39 31 70 70 70s70 -31 70 -70s-31 -70 -70 -70s-70 31 -70 70z" />
    <glyph glyph-name="semicolon" unicode=";" horiz-adv-x="340" 
d="M110 410c0 39 31 70 70 70s70 -31 70 -70s-31 -70 -70 -70s-70 31 -70 70zM120 120h110l-120 -260h-65z" />
    <glyph glyph-name="comma" unicode="," horiz-adv-x="340" 
d="M120 120h110l-120 -260h-65z" />
    <glyph glyph-name="brokenbar" unicode="&#xa6;" horiz-adv-x="255" 
d="M80 -200v390h95v-390h-95zM80 310v390h95v-390h-95z" />
    <glyph glyph-name="bullet" unicode="&#x2022;" horiz-adv-x="560" 
d="M80 235c0 110 90 200 200 200s200 -90 200 -200s-90 -200 -200 -200s-200 90 -200 200z" />
    <glyph glyph-name="underscore" unicode="_" horiz-adv-x="490" 
d="M20 0h450v-80h-450v80z" />
    <glyph glyph-name="Zcaron" unicode="&#x17d;" 
d="M70 605v95h470v-65l-364 -540h384v-95h-520v65l366 540h-336zM150 900h65l85 -94l85 94h65l-95 -150h-110z" />
    <glyph glyph-name="zcaron" unicode="&#x17e;" horiz-adv-x="470" 
d="M105 700h65l85 -94l85 94h65l-95 -150h-110zM40 60l258 325h-243v85h375v-60l-259 -325h279v-85h-410v60z" />
    <glyph glyph-name="guillemotleft" unicode="&#xab;" horiz-adv-x="600" 
d="M176 240l154 -190h-116l-134 165v50l134 165h116zM406 240l154 -190h-116l-134 165v50l134 165h116z" />
    <glyph glyph-name="guilsinglleft" unicode="&#x2039;" horiz-adv-x="370" 
d="M176 240l154 -190h-116l-134 165v50l134 165h116z" />
    <glyph glyph-name="guilsinglright" unicode="&#x203a;" horiz-adv-x="370" 
d="M40 50l154 190l-154 190h116l134 -165v-50l-134 -165h-116z" />
    <glyph glyph-name="quotesingle" unicode="'" horiz-adv-x="255" 
d="M95 450l-15 250h95l-15 -250h-65z" />
    <glyph glyph-name="quotesinglbase" unicode="&#x201a;" horiz-adv-x="285" 
d="M125 120h110l-120 -260h-65z" />
    <glyph glyph-name="quoteright" unicode="&#x2019;" horiz-adv-x="285" 
d="M125 710h110l-120 -260h-65z" />
    <glyph glyph-name="quoteleft" unicode="&#x2018;" horiz-adv-x="285" 
d="M160 450h-110l120 260h65z" />
    <glyph glyph-name="quotedblleft" unicode="&#x201c;" horiz-adv-x="495" 
d="M370 450h-110l120 260h65zM160 450h-110l120 260h65z" />
    <glyph glyph-name="quotedblright" unicode="&#x201d;" horiz-adv-x="495" 
d="M125 710h110l-120 -260h-65zM335 710h110l-120 -260h-65z" />
    <glyph glyph-name="quotedblbase" unicode="&#x201e;" horiz-adv-x="495" 
d="M125 120h110l-120 -260h-65zM335 120h110l-120 -260h-65z" />
    <glyph glyph-name="circumflex" unicode="&#x2c6;" horiz-adv-x="440" 
d="M135 550h-65l95 150h110l95 -150h-65l-85 94z" />
    <glyph glyph-name="caron" unicode="&#x2c7;" horiz-adv-x="440" 
d="M70 700h65l85 -94l85 94h65l-95 -150h-110z" />
    <glyph glyph-name="quotedbl" unicode="&#x22;" horiz-adv-x="460" 
d="M95 450l-15 250h95l-15 -250h-65zM300 450l-15 250h95l-15 -250h-65z" />
    <glyph glyph-name="one" unicode="1" horiz-adv-x="405" 
d="M185 575l-135 -68v99l165 94h70v-700h-100v575z" />
    <glyph glyph-name="A" unicode="A" horiz-adv-x="660" 
d="M551 0l-74 180h-295l-73 -180h-104l290 700h70l290 -700h-104zM330 535l-108 -260h216z" />
    <glyph glyph-name="tilde" unicode="&#x2dc;" horiz-adv-x="480" 
d="M135 560l-65 21c2 59 41 109 101 109c51 0 96 -45 136 -45c23 0 33 16 38 45l65 -21c-2 -59 -41 -109 -101 -109c-51 0 -96 45 -136 45c-23 0 -33 -16 -38 -45z" />
    <glyph glyph-name="ring" unicode="&#x2da;" horiz-adv-x="340" 
d="M70 630c0 55 45 100 100 100s100 -45 100 -100s-45 -100 -100 -100s-100 45 -100 100zM130 630c0 -22 18 -40 40 -40s40 18 40 40s-18 40 -40 40s-40 -18 -40 -40z" />
    <glyph glyph-name="oe" unicode="&#x153;" horiz-adv-x="936" 
d="M890 215h-362c5 -79 70 -142 152 -142c70 0 108 34 135 64l62 -59c-35 -45 -102 -88 -198 -88c-84 0 -154 39 -196 101c-41 -61 -111 -101 -195 -101c-139 0 -243 105 -243 245s104 245 243 245c82 0 151 -39 193 -98c39 60 104 98 184 98c131 0 226 -106 226 -245
c0 -4 0 -11 -1 -20zM140 235c0 -86 61 -155 148 -155s148 69 148 155s-61 155 -148 155s-148 -69 -148 -155zM668 397c-61 0 -116 -41 -132 -102h256c-14 60 -68 102 -124 102z" />
    <glyph glyph-name="parenleft" unicode="(" horiz-adv-x="445" 
d="M245 250c0 -151 49 -293 130 -407l-77 -53c-93 130 -148 288 -148 460s55 330 148 460l77 -53c-81 -114 -130 -256 -130 -407z" />
    <glyph glyph-name="thorn" unicode="&#xfe;" horiz-adv-x="605" 
d="M85 710h95v-281c42 35 93 51 144 51c44 0 83 -11 115 -30c71 -42 121 -121 121 -215s-49 -172 -120 -214c-32 -19 -76 -31 -118 -31c-56 0 -104 18 -142 51v-281h-95v950zM180 323v-176c32 -43 81 -67 129 -67c91 0 156 71 156 155c0 82 -60 155 -151 155
c-57 0 -105 -29 -134 -67z" />
    <glyph glyph-name="parenright" unicode=")" horiz-adv-x="445" 
d="M200 250c0 151 -49 293 -130 407l77 53c93 -130 148 -288 148 -460s-55 -330 -148 -460l-77 53c81 114 130 256 130 407z" />
    <glyph glyph-name="two" unicode="2" horiz-adv-x="520" 
d="M125 522l-89 29c37 132 144 159 206 159c122 0 213 -96 213 -211c0 -81 -40 -147 -91 -205l-176 -199h267v-95h-420v65l239 273c55 63 81 102 81 161c0 60 -45 116 -111 116c-63 0 -101 -39 -119 -93z" />
    <glyph glyph-name="three" unicode="3" horiz-adv-x="540" 
d="M25 110l83 48c23 -44 74 -73 132 -73c79 0 145 61 145 145s-63 145 -151 145c-39 0 -70 -8 -81 -11v65l149 176h-242v95h390v-65l-154 -177c106 -16 189 -111 189 -228c0 -138 -109 -240 -239 -240c-96 0 -180 42 -221 120z" />
    <glyph glyph-name="four" unicode="4" horiz-adv-x="565" 
d="M15 170v65l360 465h70v-435h110v-95h-110v-170h-100v170h-330zM157 265h188v236z" />
    <glyph glyph-name="five" unicode="5" horiz-adv-x="550" 
d="M446 605h-246l-20 -147c21 7 43 12 66 12c137 0 239 -109 239 -240s-102 -240 -240 -240c-86 0 -162 39 -205 100l76 59c27 -35 74 -64 130 -64c84 0 139 66 139 145s-56 145 -142 145c-42 0 -80 -16 -106 -40l-69 10l50 355h328v-95z" />
    <glyph glyph-name="six" unicode="6" horiz-adv-x="585" 
d="M189 338c-24 -37 -35 -68 -35 -108c0 -83 62 -145 143 -145c84 0 143 65 143 143c0 79 -59 147 -141 147c-45 0 -85 -13 -110 -37zM423 700l-153 -235c13 2 26 2 38 2c128 0 232 -102 232 -237c0 -134 -103 -240 -243 -240c-141 0 -242 106 -242 237c0 33 5 66 23 107
c14 32 38 72 66 114l166 252h113z" />
    <glyph glyph-name="seven" unicode="7" horiz-adv-x="520" 
d="M172 0h-107l300 605h-320v95h440v-65z" />
    <glyph glyph-name="eight" unicode="8" horiz-adv-x="580" 
d="M290 -10c-135 0 -240 99 -240 222c0 80 47 149 111 183c-39 26 -66 79 -66 130c0 102 84 185 195 185s195 -83 195 -185c0 -51 -27 -104 -66 -130c64 -34 111 -103 111 -183c0 -123 -105 -222 -240 -222zM290 340c-80 0 -140 -57 -140 -128s60 -127 140 -127
s140 56 140 127s-60 128 -140 128zM290 615c-55 0 -95 -40 -95 -90s40 -90 95 -90s95 40 95 90s-40 90 -95 90z" />
    <glyph glyph-name="zero" unicode="0" 
d="M435 350c0 140 -30 265 -140 265s-140 -125 -140 -265s30 -265 140 -265s140 125 140 265zM55 350c0 199 65 360 240 360s240 -161 240 -360s-65 -360 -240 -360s-240 161 -240 360z" />
    <glyph glyph-name="nine" unicode="9" horiz-adv-x="585" 
d="M396 362c24 37 35 68 35 108c0 83 -62 145 -143 145c-84 0 -143 -65 -143 -143c0 -79 59 -147 141 -147c45 0 85 13 110 37zM162 0l153 235c-13 -2 -26 -2 -38 -2c-128 0 -232 102 -232 237c0 134 103 240 243 240c141 0 242 -106 242 -237c0 -33 -5 -66 -23 -107
c-14 -32 -38 -72 -66 -114l-166 -252h-113z" />
    <glyph glyph-name="Thorn" unicode="&#xde;" horiz-adv-x="600" 
d="M190 250h160c48 0 74 12 92 31c17 18 28 42 28 69s-11 51 -28 69c-18 19 -44 31 -92 31h-160v-200zM190 545h165c68 0 112 -17 146 -46c42 -36 69 -89 69 -149s-27 -113 -69 -149c-34 -29 -78 -46 -146 -46h-165v-155h-100v700h100v-155z" />
    <glyph glyph-name="ccedilla" unicode="&#xe7;" horiz-adv-x="530" 
d="M432 153l73 -53c-34 -56 -101 -98 -175 -107l-26 -133h-105l61 133c-126 15 -215 114 -215 242c0 139 104 245 245 245c82 0 156 -41 200 -102l-70 -59c-26 36 -70 71 -130 71c-85 0 -150 -66 -150 -155c0 -92 66 -155 156 -155c62 0 106 33 136 73z" />
    <glyph glyph-name="Oslash" unicode="&#xd8;" horiz-adv-x="770" 
d="M35 350c0 204 152 360 350 360c73 0 139 -21 194 -58l49 58h119l-99 -119c54 -63 87 -147 87 -241c0 -204 -152 -360 -350 -360c-73 0 -139 21 -194 57l-49 -57h-120l100 118c-55 63 -87 147 -87 242zM135 350c0 -64 19 -121 51 -165l331 392c-38 24 -83 38 -132 38
c-143 0 -250 -114 -250 -265zM635 350c0 63 -19 120 -52 165l-330 -393c38 -24 83 -37 132 -37c143 0 250 113 250 265z" />
    <glyph glyph-name="dollar" unicode="$" horiz-adv-x="532" 
d="M270 85c65 0 122 42 122 105c0 107 -148 119 -241 180c-50 33 -89 81 -89 154c0 88 67 163 165 181v110h95v-109c64 -11 110 -41 140 -66l-59 -73c-38 32 -81 48 -125 48c-58 0 -116 -33 -116 -94c0 -89 149 -108 239 -168c47 -31 91 -80 91 -160
c0 -107 -72 -181 -170 -199v-109h-95v109c-77 11 -146 50 -197 113l69 68c41 -50 99 -90 171 -90z" />
    <glyph glyph-name="Eth" unicode="&#xd0;" horiz-adv-x="715" 
d="M300 0h-210v330h-100v95h100v275h210c111 0 183 -24 240 -66c86 -64 140 -168 140 -284s-53 -220 -139 -284c-57 -42 -130 -66 -241 -66zM580 350c0 78 -32 149 -85 196c-44 38 -102 59 -200 59h-105v-180h200v-95h-200v-235h105c98 0 156 21 200 59c53 47 85 118 85 196
z" />
    <glyph glyph-name="oslash" unicode="&#xf8;" horiz-adv-x="576" 
d="M45 235c0 140 104 245 243 245c46 0 87 -12 123 -32l28 32h111l-74 -87c34 -42 55 -97 55 -158c0 -140 -104 -245 -243 -245c-46 0 -88 11 -123 31l-26 -31h-112l72 86c-34 42 -54 97 -54 159zM140 235c0 -31 8 -60 22 -84l189 225c-19 9 -40 14 -63 14
c-87 0 -148 -69 -148 -155zM436 235c0 31 -8 59 -22 83l-189 -225c18 -8 40 -13 63 -13c87 0 148 69 148 155z" />
    <glyph glyph-name="cent" unicode="&#xa2;" horiz-adv-x="530" 
d="M242 -115v111c-117 22 -197 118 -197 239c0 122 81 219 197 240v110h95v-110c62 -12 117 -48 153 -97l-70 -59c-26 36 -70 71 -130 71c-85 0 -150 -66 -150 -155c0 -92 66 -155 156 -155c62 0 106 33 136 73l73 -53c-33 -55 -97 -95 -168 -106v-109h-95z" />
    <glyph glyph-name="paragraph" unicode="&#xb6;" horiz-adv-x="685" 
d="M440 -200v810h-100v-810h-95v470c-119 0 -215 96 -215 215c0 72 34 135 88 174c36 26 80 41 147 41h370v-90h-100v-810h-95zM125 485c0 -69 51 -125 120 -125v250c-69 0 -120 -56 -120 -125z" />
    <glyph glyph-name="section" unicode="&#xa7;" horiz-adv-x="580" 
d="M92 524c0 102 90 186 212 186c89 0 151 -39 188 -70l-59 -73c-38 32 -81 48 -125 48c-58 0 -116 -29 -116 -88c0 -76 137 -90 238 -145c59 -32 105 -83 105 -160c0 -64 -39 -126 -89 -163c25 -26 42 -59 42 -103c0 -102 -90 -186 -212 -186c-89 0 -151 39 -188 70l59 73
c38 -32 81 -48 125 -48c58 0 116 29 116 88c0 76 -137 90 -238 145c-59 32 -105 83 -105 160c0 63 39 125 89 163c-26 25 -42 58 -42 103zM145 262c0 -86 119 -106 216 -149c35 17 74 59 74 105c0 86 -119 105 -217 149c-35 -18 -73 -59 -73 -105z" />
    <glyph glyph-name="sterling" unicode="&#xa3;" horiz-adv-x="530" 
d="M237 400h148v-85h-120c4 -19 6 -39 6 -60c0 -62 -24 -126 -58 -165h292v-90h-465v60c89 34 136 127 136 195c0 21 -4 41 -9 60h-107v85h76c-16 39 -30 78 -30 124c0 110 93 186 193 186c82 0 141 -47 174 -94l-75 -54c-19 30 -52 58 -99 58c-48 0 -98 -37 -98 -98
c0 -40 19 -79 36 -122z" />
    <glyph glyph-name="ae" unicode="&#xe6;" horiz-adv-x="929" 
d="M428 0v43c-38 -34 -89 -53 -145 -53c-42 0 -86 12 -118 31c-71 42 -120 120 -120 214s50 173 121 215c32 19 71 30 115 30c53 0 104 -16 147 -53v43h84v-43c37 33 85 53 141 53c128 0 231 -107 231 -245c0 -4 0 -11 -1 -20h-367c7 -79 74 -142 160 -142
c67 0 106 35 132 64l62 -59c-35 -44 -99 -88 -192 -88c-63 0 -122 23 -166 64v-54h-84zM425 147v176c-29 38 -77 67 -134 67c-91 0 -151 -73 -151 -155c0 -84 65 -155 156 -155c48 0 97 24 129 67zM657 397c-63 0 -119 -41 -136 -102h264c-15 60 -70 102 -128 102z" />
    <glyph glyph-name="yen" unicode="&#xa5;" horiz-adv-x="600" 
d="M350 315h190v-85h-190v-230h-100v230h-190v85h190l-44 70h-146v85h93l-143 230h114l176 -286l176 286h114l-144 -230h94v-85h-147z" />
    <glyph glyph-name="degree" unicode="&#xb0;" horiz-adv-x="400" 
d="M40 550c0 88 72 160 160 160s160 -72 160 -160s-72 -160 -160 -160s-160 72 -160 160zM120 550c0 -44 36 -80 80 -80s80 36 80 80s-36 80 -80 80s-80 -36 -80 -80z" />
    <glyph glyph-name="germandbls" unicode="&#xdf;" 
d="M229 12l36 79c16 -7 34 -11 53 -11c77 0 130 58 130 130c0 34 -13 65 -34 88c-24 26 -58 42 -116 42h-38v90h4c43 0 69 10 87 26c20 18 33 45 33 74c0 54 -43 100 -98 100c-31 0 -61 -12 -80 -35c-15 -17 -26 -40 -26 -85v-510h-95v510c0 68 19 113 49 146
c36 40 89 64 148 64c108 0 197 -85 197 -190c0 -47 -20 -95 -53 -125c71 -37 119 -110 119 -195c0 -121 -94 -220 -220 -220c-34 0 -67 8 -96 22z" />
    <glyph glyph-name="cedilla" unicode="&#xb8;" horiz-adv-x="275" 
d="M140 10h65l-30 -150h-105z" />
    <glyph glyph-name="ampersand" unicode="&#x26;" horiz-adv-x="655" 
d="M541 143l144 -143h-128l-71 70c-52 -49 -124 -80 -210 -80c-138 0 -246 83 -246 214c0 98 59 156 122 203c-44 46 -77 91 -77 146c0 84 65 157 161 157c80 0 158 -62 158 -157c0 -75 -46 -123 -99 -164l175 -175c10 26 15 54 15 84c0 64 -13 104 -18 119l90 25
c6 -17 23 -70 23 -144c0 -56 -14 -109 -39 -155zM125 204c0 -73 63 -124 151 -124c58 0 108 21 144 56l-204 205c-51 -35 -91 -77 -91 -137zM299 553c0 37 -28 67 -63 67c-42 0 -66 -33 -66 -67c0 -33 30 -70 58 -99c41 31 71 61 71 99z" />
    <glyph glyph-name="exclam" unicode="!" horiz-adv-x="340" 
d="M138 220l-15 250v230h95v-230l-15 -250h-65zM100 60c0 39 31 70 70 70s70 -31 70 -70s-31 -70 -70 -70s-70 31 -70 70z" />
    <glyph glyph-name="exclamdown" unicode="&#xa1;" horiz-adv-x="340" 
d="M123 -10l15 250h65l15 -250v-230h-95v230zM100 410c0 39 31 70 70 70s70 -31 70 -70s-31 -70 -70 -70s-70 31 -70 70z" />
    <glyph glyph-name="numbersign" unicode="#" horiz-adv-x="580" 
d="M537 195h-127l-53 -195h-93l53 195h-137l-53 -195h-93l53 195h-102v90h126l34 130h-103v90h127l53 195h93l-53 -195h137l53 195h93l-53 -195h103v-90h-127l-34 -130h103v-90zM238 415l-34 -130h137l34 130h-137z" />
    <glyph glyph-name="macron" unicode="&#xaf;" horiz-adv-x="440" 
d="M70 660h300v-85h-300v85z" />
    <glyph glyph-name="asciitilde.tf" 
d="M473 338l77 -39c-24 -60 -71 -128 -152 -128c-94 0 -145 88 -202 88c-36 0 -63 -41 -79 -77l-77 39c24 60 71 128 152 128c94 0 145 -88 202 -88c36 0 63 41 79 77z" />
    <glyph glyph-name="asciicircum" unicode="^" horiz-adv-x="540" 
d="M160 350h-100l177 350h66l177 -350h-100l-110 217z" />
    <glyph glyph-name="asterisk" unicode="*" horiz-adv-x="500" 
d="M40 518l24 75l146 -47v154h80v-153l146 48l25 -76l-147 -48l91 -124l-64 -47l-91 125l-90 -125l-64 46l90 125z" />
    <glyph glyph-name="plus" unicode="+" horiz-adv-x="540" 
d="M50 305h175v175h90v-175h175v-90h-175v-175h-90v175h-175v90z" />
    <glyph glyph-name="minus" unicode="&#x2212;" horiz-adv-x="540" 
d="M50 305h440v-90h-440v90z" />
    <glyph glyph-name="equal" unicode="=" horiz-adv-x="540" 
d="M50 395h440v-90h-440v90zM50 215h440v-90h-440v90z" />
    <glyph glyph-name="approxequal.tf" 
d="M473 428l77 -39c-24 -60 -71 -128 -152 -128c-94 0 -145 88 -202 88c-36 0 -63 -41 -79 -77l-77 39c24 60 71 128 152 128c94 0 145 -88 202 -88c36 0 63 41 79 77zM473 248l77 -39c-24 -60 -71 -128 -152 -128c-94 0 -145 88 -202 88c-36 0 -63 -41 -79 -77l-77 39
c24 60 71 128 152 128c94 0 145 -88 202 -88c36 0 63 41 79 77z" />
    <glyph glyph-name="Lslash" unicode="&#x141;" horiz-adv-x="520" 
d="M190 700v-240l150 87v-108l-150 -87v-257h310v-95h-410v294l-100 -57v108l100 57v298h100z" />
    <glyph glyph-name="lslash" unicode="&#x142;" horiz-adv-x="265" 
d="M85 0v298l-100 -58v104l100 58v308h95v-253l100 58v-104l-100 -58v-353h-95z" />
    <glyph glyph-name="logicalnot" unicode="&#xac;" horiz-adv-x="530" 
d="M480 395v-270h-90v180h-350v90h440z" />
    <glyph glyph-name="Delta" unicode="&#x2206;" horiz-adv-x="570" 
d="M252 700h66l247 -640v-60h-560v60zM113 90h344l-172 446z" />
    <glyph glyph-name="notequal" unicode="&#x2260;" horiz-adv-x="540" 
d="M50 395h245l61 105h104l-61 -105h91v-90h-142l-52 -90h194v-90h-246l-60 -105h-104l60 105h-90v90h142l52 90h-194v90z" />
    <glyph glyph-name="multiply" unicode="&#xd7;" horiz-adv-x="548" 
d="M129 469l145 -145l145 145l64 -64l-145 -145l145 -145l-64 -64l-145 145l-145 -145l-64 64l145 145l-145 145z" />
    <glyph glyph-name="fraction" unicode="&#x2044;" horiz-adv-x="505" 
d="M91 0h-86l409 700h86z" />
    <glyph glyph-name="mu" unicode="&#xb5;" horiz-adv-x="610" 
d="M295 -10c-52 0 -96 26 -115 45v-275h-95v710h95v-255c0 -48 10 -74 27 -94c21 -25 53 -41 88 -41c62 0 105 34 135 67v323h95v-470h-92v43c-21 -20 -73 -53 -138 -53z" />
    <glyph glyph-name="divide" unicode="&#xf7;" horiz-adv-x="540" 
d="M50 305h440v-90h-440v90zM200 100c0 39 31 70 70 70s70 -31 70 -70s-31 -70 -70 -70s-70 31 -70 70zM200 420c0 39 31 70 70 70s70 -31 70 -70s-31 -70 -70 -70s-70 31 -70 70z" />
    <glyph glyph-name="partialdiff" unicode="&#x2202;" horiz-adv-x="576" 
d="M158 710h111l191 -289c42 -64 71 -128 71 -186c0 -135 -104 -245 -243 -245s-243 109 -243 245c0 135 102 245 243 245c7 0 15 -1 23 -2zM288 390c-87 0 -148 -69 -148 -155s61 -155 148 -155s148 69 148 155c0 42 -21 95 -52 132c-23 12 -60 23 -96 23z" />
    <glyph glyph-name="eth" unicode="&#xf0;" horiz-adv-x="576" 
d="M262 552l-80 -51l-45 68l80 51l-59 90h111l26 -41l80 51l45 -68l-80 -51l120 -180c42 -64 71 -128 71 -186c0 -135 -104 -245 -243 -245s-243 109 -243 245c0 135 102 245 243 245c7 0 15 -1 23 -2zM288 390c-87 0 -148 -69 -148 -155s61 -155 148 -155s148 69 148 155
c0 42 -21 95 -52 132c-23 12 -60 23 -96 23z" />
    <glyph glyph-name="percent" unicode="%" horiz-adv-x="945" 
d="M316 0h-96l409 700h96zM420 525c0 -102 -76 -185 -180 -185s-180 83 -180 185s76 185 180 185s180 -83 180 -185zM150 525c0 -55 35 -100 90 -100s90 45 90 100s-35 100 -90 100s-90 -45 -90 -100zM885 175c0 -102 -76 -185 -180 -185s-180 83 -180 185s76 185 180 185
s180 -83 180 -185zM615 175c0 -55 35 -100 90 -100s90 45 90 100s-35 100 -90 100s-90 -45 -90 -100z" />
    <glyph glyph-name="summation" unicode="&#x2211;" horiz-adv-x="560" 
d="M430 500v110h-267l211 -220v-60l-224 -240h290v110h90v-200h-530v60l280 300l-270 280v60h510v-200h-90z" />
    <glyph glyph-name="product" unicode="&#x220f;" horiz-adv-x="570" 
d="M205 0h-95v610h-100v90h550v-90h-100v-610h-95v610h-160v-610z" />
    <glyph glyph-name="pi" unicode="&#x3c0;" horiz-adv-x="575" 
d="M487 68l-54 -78c-64 32 -73 94 -73 160v230h-100v-380h-95v374c-11 -2 -20 -5 -28 -9c-25 -12 -41 -31 -55 -51l-77 46c18 35 51 71 102 92c27 11 60 18 107 18h341v-90h-100v-227c0 -40 0 -67 32 -85z" />
    <glyph glyph-name="integral" unicode="&#x222b;" horiz-adv-x="526" 
d="M157 -44c35 121 33 421 69 563c12 48 31 94 61 127c37 41 89 64 154 64c24 0 50 -4 75 -14l-26 -83c-14 4 -29 7 -49 7c-35 0 -62 -11 -83 -35c-16 -19 -30 -48 -39 -81c-35 -121 -33 -421 -69 -563c-12 -48 -31 -94 -61 -127c-37 -41 -89 -64 -154 -64
c-24 0 -50 4 -75 14l26 83c14 -4 29 -7 49 -7c35 0 62 11 83 35c16 19 30 48 39 81z" />
    <glyph glyph-name="plusminus" unicode="&#xb1;" horiz-adv-x="540" 
d="M50 365h175v135h90v-135h175v-90h-175v-135h-90v135h-175v90zM50 110h440v-90h-440v90z" />
    <glyph glyph-name="florin" unicode="&#x192;" horiz-adv-x="526" 
d="M157 -44c22 76 29 224 41 359h-152v85h160c5 45 11 86 20 119c12 48 31 94 61 127c37 41 89 64 154 64c24 0 50 -4 75 -14l-26 -83c-14 4 -29 7 -49 7c-35 0 -62 -11 -83 -35c-16 -19 -30 -48 -39 -81c-8 -27 -14 -63 -19 -104h152v-85h-161c-11 -131 -18 -284 -41 -374
c-12 -48 -31 -94 -61 -127c-37 -41 -89 -64 -154 -64c-24 0 -50 4 -75 14l26 83c14 -4 29 -7 49 -7c35 0 62 11 83 35c16 19 30 48 39 81z" />
    <glyph glyph-name="question" unicode="?" horiz-adv-x="500" 
d="M155 544l-90 26c20 81 102 140 199 140c113 0 196 -82 196 -182c0 -154 -174 -199 -174 -251c0 -13 9 -27 26 -42l-63 -66c-41 31 -58 70 -58 107c0 124 174 144 174 252c0 51 -41 92 -101 92c-53 0 -99 -34 -109 -76zM190 60c0 39 31 70 70 70s70 -31 70 -70
s-31 -70 -70 -70s-70 31 -70 70z" />
    <glyph glyph-name="questiondown" unicode="&#xbf;" horiz-adv-x="500" 
d="M345 -84l90 -26c-20 -81 -102 -140 -199 -140c-113 0 -196 82 -196 182c0 154 174 199 174 251c0 13 -9 27 -26 42l63 66c41 -31 58 -70 58 -107c0 -124 -174 -144 -174 -252c0 -51 41 -92 101 -92c53 0 99 34 109 76zM310 410c0 -39 -31 -70 -70 -70s-70 31 -70 70
s31 70 70 70s70 -31 70 -70z" />
    <glyph glyph-name="greater" unicode="&#x3e;" horiz-adv-x="545" 
d="M55 140l281 120l-281 120v98l440 -188v-60l-440 -188v98z" />
    <glyph glyph-name="less" unicode="&#x3c;" horiz-adv-x="545" 
d="M209 260l281 -120v-98l-440 188v60l440 188v-98z" />
    <glyph glyph-name="braceleft" unicode="{" horiz-adv-x="445" 
d="M192 250c27 -14 53 -37 53 -103c0 -63 -10 -118 -10 -174c0 -26 4 -48 17 -63c12 -13 31 -20 59 -20h34v-90h-30c-61 0 -96 10 -123 32c-33 26 -52 70 -52 135c0 66 10 130 10 183c0 52 -24 70 -80 70v60c56 0 80 18 80 70c0 53 -10 117 -10 183c0 65 19 109 52 135
c27 22 62 32 123 32h30v-90h-34c-28 0 -47 -7 -59 -20c-13 -15 -17 -37 -17 -63c0 -56 10 -111 10 -174c0 -66 -26 -89 -53 -103z" />
    <glyph glyph-name="braceright" unicode="}" horiz-adv-x="445" 
d="M253 250c-27 14 -53 37 -53 103c0 63 10 118 10 174c0 26 -4 48 -17 63c-12 13 -31 20 -59 20h-34v90h30c61 0 96 -10 123 -32c33 -26 52 -70 52 -135c0 -66 -10 -130 -10 -183c0 -52 24 -70 80 -70v-60c-56 0 -80 -18 -80 -70c0 -53 10 -117 10 -183
c0 -65 -19 -109 -52 -135c-27 -22 -62 -32 -123 -32h-30v90h34c28 0 47 7 59 20c13 15 17 37 17 63c0 56 -10 111 -10 174c0 66 26 89 53 103z" />
    <glyph glyph-name="infinity" unicode="&#x221e;" horiz-adv-x="770" 
d="M740 277c0 -115 -75 -197 -187 -197c-86 0 -133 48 -168 107c-35 -59 -83 -107 -168 -107c-112 0 -187 82 -187 197s75 197 187 197c85 0 133 -49 168 -107c35 58 82 107 168 107c112 0 187 -82 187 -197zM645 277c0 61 -33 107 -92 107c-60 0 -91 -49 -121 -107
c30 -59 61 -107 121 -107c59 0 92 46 92 107zM217 384c-59 0 -92 -46 -92 -107s33 -107 92 -107s91 48 121 107c-30 58 -62 107 -121 107z" />
    <glyph glyph-name="greaterequal" unicode="&#x2265;" horiz-adv-x="545" 
d="M55 110h440v-90h-440v90zM55 237l246 83l-246 83v95l440 -148v-60l-440 -148v95z" />
    <glyph glyph-name="lessequal" unicode="&#x2264;" horiz-adv-x="545" 
d="M50 110h440v-90h-440v90zM244 320l246 -83v-95l-440 148v60l440 148v-95z" />
    <glyph glyph-name="lozenge" unicode="&#x25ca;" horiz-adv-x="550" 
d="M242 0l-207 320v60l207 320h66l207 -320v-60l-207 -320h-66zM275 587l-152 -237l152 -237l152 237z" />
    <glyph glyph-name="perthousand" unicode="&#x2030;" horiz-adv-x="1215" 
d="M1155 175c0 -102 -76 -185 -180 -185c-56 0 -103 23 -135 61c-33 -38 -80 -61 -135 -61c-104 0 -180 83 -180 185s76 185 180 185c55 0 102 -24 135 -61c32 37 79 61 135 61c104 0 180 -83 180 -185zM420 525c0 -102 -76 -185 -180 -185s-180 83 -180 185s76 185 180 185
s180 -83 180 -185zM316 0h-96l409 700h96zM150 525c0 -55 35 -100 90 -100s90 45 90 100s-35 100 -90 100s-90 -45 -90 -100zM705 75c55 0 90 45 90 100s-35 100 -90 100s-90 -45 -90 -100s35 -100 90 -100zM975 75c55 0 90 45 90 100s-35 100 -90 100s-90 -45 -90 -100
s35 -100 90 -100z" />
    <glyph glyph-name="radical" unicode="&#x221a;" horiz-adv-x="580" 
d="M494 700h96l-249 -700h-66l-156 380h-109v90h170l125 -304z" />
    <glyph glyph-name="ogonek" unicode="&#x2db;" horiz-adv-x="320" 
d="M108 10h95c-14 -19 -38 -62 -38 -96c0 -29 20 -44 47 -44c11 0 18 2 23 4l15 -85c-7 -3 -26 -9 -55 -9c-73 0 -125 53 -125 120c0 51 23 92 38 110z" />
    <glyph glyph-name="Omega" unicode="&#x2126;" horiz-adv-x="760" 
d="M380 620c-143 0 -255 -116 -255 -258c0 -195 153 -302 153 -302v-60h-248v90h92s-92 112 -92 272c0 197 157 348 350 348s350 -151 350 -348c0 -160 -92 -272 -92 -272h92v-90h-248v60s153 107 153 302c0 142 -112 258 -255 258z" />
    <glyph glyph-name="Euro" unicode="&#x20ac;" horiz-adv-x="580" 
d="M159 350c0 -12 0 -24 1 -35h267v-85h-250c29 -85 91 -145 186 -145c65 0 115 28 149 73l78 -51c-53 -74 -127 -117 -227 -117c-154 0 -255 102 -291 240h-82v85h68c-1 11 -1 23 -1 35s0 23 1 35h-68v85h82c35 137 134 240 286 240c97 0 169 -43 222 -117l-78 -51
c-34 45 -80 73 -144 73c-93 0 -153 -60 -181 -145h250v-85h-267c-1 -12 -1 -23 -1 -35z" />
    <glyph glyph-name="hungarumlaut" unicode="&#x2dd;" horiz-adv-x="515" 
d="M155 550h-65l65 150h105zM340 550h-65l65 150h105z" />
    <glyph glyph-name="breve" unicode="&#x2d8;" horiz-adv-x="420" 
d="M270 700h80c0 -77 -63 -140 -140 -140s-140 63 -140 140h80c0 -33 27 -60 60 -60s60 27 60 60z" />
    <glyph glyph-name="at" unicode="@" horiz-adv-x="1000" 
d="M591 170v165c-22 24 -53 45 -103 45c-59 0 -121 -42 -121 -130c0 -89 62 -130 123 -130c48 0 78 27 101 50zM713 -36l47 -70c-69 -53 -158 -84 -253 -84c-242 0 -437 197 -437 440s195 440 437 440c234 0 423 -162 423 -400c0 -136 -62 -255 -192 -255
c-55 0 -98 22 -124 59c-19 -24 -62 -59 -138 -59c-98 0 -199 76 -199 215c0 140 102 215 202 215c63 0 99 -27 117 -44v34h85v-243c0 -23 1 -46 10 -62c10 -17 27 -30 54 -30c62 0 97 69 97 172c0 182 -144 313 -335 313c-192 0 -347 -159 -347 -355s155 -355 347 -355
c77 0 148 26 206 69z" />
    <glyph glyph-name="ordmasculine" unicode="&#xba;" horiz-adv-x="416" 
d="M292 549c0 54 -33 94 -84 94s-84 -40 -84 -94c0 -52 33 -92 84 -92s84 40 84 92zM50 550c0 88 65 160 158 160s158 -72 158 -160s-65 -160 -158 -160s-158 72 -158 160z" />
    <glyph glyph-name="ordfeminine" unicode="&#xaa;" horiz-adv-x="416" 
d="M292 496v108c-17 23 -42 39 -77 39c-52 0 -91 -42 -91 -93s39 -93 91 -93c35 0 60 16 77 39zM366 703v-306h-72v25c-25 -22 -53 -32 -90 -32c-82 0 -154 70 -154 160s72 160 154 160c37 0 65 -10 90 -32v25h72z" />
    <glyph glyph-name="registered" unicode="&#xae;" horiz-adv-x="840" 
d="M546 438c0 -43 -29 -89 -72 -102l122 -175h-83l-119 170h-19v-170h-72v383h128c33 0 56 -8 74 -23c26 -20 41 -49 41 -83zM375 476v-77h50c22 0 32 4 39 12c6 7 9 17 9 26s-3 18 -9 25c-7 8 -17 14 -39 14h-50zM70 350c0 193 157 350 350 350s350 -157 350 -350
s-157 -350 -350 -350s-350 157 -350 350zM135 350c0 -157 127 -284 284 -284s285 127 285 284s-128 285 -285 285s-284 -128 -284 -285z" />
    <glyph glyph-name="copyright" unicode="&#xa9;" horiz-adv-x="840" 
d="M556 501l-39 -51c-23 18 -50 35 -90 35c-69 0 -120 -55 -120 -132c0 -75 50 -133 126 -133c43 0 70 17 95 36l39 -52c-34 -30 -81 -52 -136 -52c-116 0 -197 88 -197 201s82 200 193 200c54 0 96 -22 129 -52zM70 350c0 193 157 350 350 350s350 -157 350 -350
s-157 -350 -350 -350s-350 157 -350 350zM135 350c0 -157 127 -284 284 -284s285 127 285 284s-128 285 -285 285s-284 -128 -284 -285z" />
    <glyph glyph-name="trademark" unicode="&#x2122;" horiz-adv-x="845" 
d="M397 700h46l143 -216l144 216h45v-383h-72v222l-95 -141h-44l-94 141v-222h-73v383zM70 700h272v-68h-100v-315h-72v315h-100v68z" />
    <glyph glyph-name="B" unicode="B" horiz-adv-x="625" 
d="M190 95h152c63 0 93 14 115 36c20 21 33 50 33 82s-13 60 -33 81c-22 22 -52 36 -115 36h-152v-235zM190 425h120c56 0 80 11 96 29c15 16 24 37 24 61s-9 45 -24 61c-16 18 -40 29 -96 29h-120v-180zM360 0h-270v700h238c68 0 111 -19 144 -49c36 -33 58 -81 58 -133
c0 -48 -22 -94 -55 -125c66 -33 115 -105 115 -184c0 -65 -30 -124 -77 -162c-36 -30 -82 -47 -153 -47z" />
    <glyph glyph-name="parenleft.ss03" horiz-adv-x="445" 
d="M245 350c0 -115 31 -223 80 -319l-86 -41c-55 108 -89 230 -89 360s34 252 89 360l86 -41c-49 -96 -80 -204 -80 -319z" />
    <glyph glyph-name="parenright.ss03" horiz-adv-x="445" 
d="M200 350c0 115 -31 223 -80 319l86 41c55 -108 89 -230 89 -360s-34 -252 -89 -360l-86 41c49 96 80 204 80 319z" />
    <glyph glyph-name="bracketleft.ss03" horiz-adv-x="445" 
d="M150 0v700h245v-90h-150v-520h150v-90h-245z" />
    <glyph glyph-name="bracketright.ss03" horiz-adv-x="445" 
d="M295 700v-700h-245v90h150v520h-150v90h245z" />
    <glyph glyph-name="braceleft.ss03" horiz-adv-x="445" 
d="M192 350c29 -15 53 -40 53 -97c0 -40 -5 -66 -5 -93c0 -52 24 -70 76 -70h29v-90h-45c-116 0 -155 52 -155 150c0 34 5 78 5 100c0 52 -24 70 -80 70v60c56 0 80 18 80 70c0 22 -5 66 -5 100c0 98 39 150 155 150h45v-90h-29c-52 0 -76 -18 -76 -70c0 -27 5 -53 5 -93
c0 -57 -24 -82 -53 -97z" />
    <glyph glyph-name="braceright.ss03" horiz-adv-x="445" 
d="M253 350c-29 15 -53 40 -53 97c0 40 5 66 5 93c0 52 -24 70 -76 70h-29v90h45c116 0 155 -52 155 -150c0 -34 -5 -78 -5 -100c0 -52 24 -70 80 -70v-60c-56 0 -80 -18 -80 -70c0 -22 5 -66 5 -100c0 -98 -39 -150 -155 -150h-45v90h29c52 0 76 18 76 70c0 27 -5 53 -5 93
c0 57 24 82 53 97z" />
    <glyph glyph-name="bar.ss03" horiz-adv-x="215" 
d="M60 0v700h95v-700h-95z" />
    <glyph glyph-name="zero.tf" 
d="M435 350c0 140 -30 265 -140 265s-140 -125 -140 -265s30 -265 140 -265s140 125 140 265zM55 350c0 199 65 360 240 360s240 -161 240 -360s-65 -360 -240 -360s-240 161 -240 360z" />
    <glyph glyph-name="one.tf" 
d="M75 0v95h190v480l-155 -80v99l185 106h70v-605h160v-95h-450z" />
    <glyph glyph-name="two.tf" 
d="M165 522l-89 29c38 134 148 159 209 159c121 0 210 -98 210 -211c0 -81 -37 -141 -81 -192l-186 -212h267v-95h-420v65l239 273c55 63 81 102 81 161c0 60 -45 116 -111 116c-63 0 -101 -39 -119 -93z" />
    <glyph glyph-name="three.tf" 
d="M45 110l83 48c23 -44 74 -73 132 -73c79 0 145 61 145 145s-63 145 -151 145c-39 0 -70 -8 -81 -11v65l149 176h-242v95h390v-65l-154 -177c106 -16 189 -111 189 -228c0 -138 -109 -240 -239 -240c-96 0 -180 42 -221 120z" />
    <glyph glyph-name="four.tf" 
d="M40 170v65l360 465h70v-435h110v-95h-110v-170h-100v170h-330zM182 265h188v236z" />
    <glyph glyph-name="five.tf" 
d="M486 605h-246l-20 -147c21 7 43 12 66 12c137 0 239 -109 239 -240s-102 -240 -240 -240c-86 0 -162 39 -205 100l76 59c27 -35 74 -64 130 -64c84 0 139 66 139 145s-56 145 -142 145c-42 0 -80 -16 -106 -40l-69 10l50 355h328v-95z" />
    <glyph glyph-name="six.tf" 
d="M189 338c-24 -37 -35 -68 -35 -108c0 -83 62 -145 143 -145c84 0 143 65 143 143c0 79 -59 147 -141 147c-45 0 -85 -13 -110 -37zM423 700l-153 -235c13 2 26 2 38 2c128 0 232 -102 232 -237c0 -134 -103 -240 -243 -240c-141 0 -242 106 -242 237c0 33 5 66 23 107
c14 32 38 72 66 114l166 252h113z" />
    <glyph glyph-name="seven.tf" 
d="M202 0h-107l300 605h-320v95h440v-65z" />
    <glyph glyph-name="eight.tf" 
d="M295 -10c-135 0 -240 99 -240 222c0 80 47 149 111 183c-39 26 -66 79 -66 130c0 102 84 185 195 185s195 -83 195 -185c0 -51 -27 -104 -66 -130c64 -34 111 -103 111 -183c0 -123 -105 -222 -240 -222zM295 340c-80 0 -140 -57 -140 -128s60 -127 140 -127
s140 56 140 127s-60 128 -140 128zM295 615c-55 0 -95 -40 -95 -90s40 -90 95 -90s95 40 95 90s-40 90 -95 90z" />
    <glyph glyph-name="nine.tf" 
d="M401 362c24 37 35 68 35 108c0 83 -62 145 -143 145c-84 0 -143 -65 -143 -143c0 -79 59 -147 141 -147c45 0 85 13 110 37zM167 0l153 235c-13 -2 -26 -2 -38 -2c-128 0 -232 102 -232 237c0 134 103 240 243 240c141 0 242 -106 242 -237c0 -33 -5 -66 -23 -107
c-14 -32 -38 -72 -66 -114l-166 -252h-113z" />
    <glyph glyph-name="guillemotright" unicode="&#xbb;" horiz-adv-x="600" 
d="M270 50l154 190l-154 190h116l134 -165v-50l-134 -165h-116zM40 50l154 190l-154 190h116l134 -165v-50l-134 -165h-116z" />
    <glyph glyph-name="parenleft.case" horiz-adv-x="445" 
d="M245 350c0 -151 49 -293 130 -407l-77 -53c-93 130 -148 288 -148 460s55 330 148 460l77 -53c-81 -114 -130 -256 -130 -407z" />
    <glyph glyph-name="parenright.case" horiz-adv-x="445" 
d="M200 350c0 151 -49 293 -130 407l77 53c93 -130 148 -288 148 -460s-55 -330 -148 -460l-77 53c81 114 130 256 130 407z" />
    <glyph glyph-name="bracketleft.case" horiz-adv-x="445" 
d="M150 -100v900h245v-90h-150v-720h150v-90h-245z" />
    <glyph glyph-name="bracketright.case" horiz-adv-x="445" 
d="M295 800v-900h-245v90h150v720h-150v90h245z" />
    <glyph glyph-name="Eacute" unicode="&#xc9;" horiz-adv-x="540" 
d="M190 425h230v-95h-230v-235h310v-95h-410v700h400v-95h-300v-180zM320 750h-65l65 150h105z" />
    <glyph glyph-name="braceleft.case" horiz-adv-x="445" 
d="M192 350c27 -14 53 -37 53 -103c0 -63 -10 -118 -10 -174c0 -26 4 -48 17 -63c12 -13 31 -20 59 -20h34v-90h-30c-61 0 -96 10 -123 32c-33 26 -52 70 -52 135c0 66 10 130 10 183c0 52 -24 70 -80 70v60c56 0 80 18 80 70c0 53 -10 117 -10 183c0 65 19 109 52 135
c27 22 62 32 123 32h30v-90h-34c-28 0 -47 -7 -59 -20c-13 -15 -17 -37 -17 -63c0 -56 10 -111 10 -174c0 -66 -26 -89 -53 -103z" />
    <glyph glyph-name="braceright.case" horiz-adv-x="445" 
d="M253 350c-27 14 -53 37 -53 103c0 63 10 118 10 174c0 26 -4 48 -17 63c-12 13 -31 20 -59 20h-34v90h30c61 0 96 -10 123 -32c33 -26 52 -70 52 -135c0 -66 -10 -130 -10 -183c0 -52 24 -70 80 -70v-60c-56 0 -80 -18 -80 -70c0 -53 10 -117 10 -183
c0 -65 -19 -109 -52 -135c-27 -22 -62 -32 -123 -32h-30v90h34c28 0 47 7 59 20c13 15 17 37 17 63c0 56 -10 111 -10 174c0 66 26 89 53 103z" />
    <glyph glyph-name="a.ss01" horiz-adv-x="540" 
d="M370 142v63c-27 14 -57 19 -85 19c-50 0 -130 -17 -130 -81c0 -40 41 -68 89 -68c45 0 92 25 126 67zM131 351l-46 77c32 23 94 52 176 52c67 0 130 -30 168 -80c25 -33 36 -76 36 -140v-260h-92v43c-22 -24 -65 -53 -138 -53c-98 0 -175 65 -175 155
c0 104 90 163 194 163c45 0 77 -7 115 -20c0 28 -9 48 -20 62c-21 28 -55 40 -92 40c-47 0 -92 -18 -126 -39z" />
    <glyph glyph-name="zero.tf.zero" 
d="M55 350c0 199 65 360 240 360s240 -161 240 -360s-65 -360 -240 -360s-240 161 -240 360zM435 350c0 46 -3 91 -12 130l-209 -362c20 -21 46 -33 81 -33c110 0 140 125 140 265zM295 615c-110 0 -140 -125 -140 -265c0 -46 3 -89 11 -128l209 360c-20 21 -46 33 -80 33z
" />
    <glyph glyph-name="endash.ss04" horiz-adv-x="1090" 
d="M20 295h1050v-80h-1050v80z" />
    <glyph glyph-name="arrowleft" unicode="&#x2190;" horiz-adv-x="719" 
d="M374 29h-113l-201 201v50l201 201h113l-188 -186h473v-80h-473z" />
    <glyph glyph-name="arrowright" unicode="&#x2192;" horiz-adv-x="719" 
d="M458 29h-113l188 186h-473v80h473l-188 186h113l201 -201v-50z" />
    <glyph glyph-name="uni2196" unicode="&#x2196;" horiz-adv-x="589" 
d="M140 70l-80 80v284l35 36h285l80 -80h-265l334 -333l-56 -57l-333 334v-264z" />
    <glyph glyph-name="uni2197" unicode="&#x2197;" horiz-adv-x="589" 
d="M529 150l-80 -80v264l-333 -334l-56 57l334 333h-265l80 80h285l35 -36v-284z" />
    <glyph glyph-name="uni2070" unicode="&#x2070;" horiz-adv-x="326" 
d="M221 520c0 67 -15 120 -60 120c-41 0 -56 -53 -56 -120s15 -120 56 -120c45 0 60 53 60 120zM296 520c0 -118 -48 -190 -134 -190c-85 0 -132 72 -132 190s47 190 132 190c86 0 134 -72 134 -190z" />
    <glyph glyph-name="uni2074" unicode="&#x2074;" horiz-adv-x="337" 
d="M216 700h45v-213h61v-70h-61v-77h-75v77h-161v40zM136 487h50v66z" />
    <glyph glyph-name="uni2075" unicode="&#x2075;" horiz-adv-x="295" 
d="M88 495l-47 7l28 198h190v-70h-124l-7 -50c10 1 11 1 16 1c73 0 126 -58 126 -124c0 -72 -58 -127 -132 -127c-49 0 -91 24 -113 58l58 40c13 -17 33 -28 55 -28c32 0 57 24 57 57c0 30 -22 58 -59 58c-17 0 -33 -7 -48 -20z" />
    <glyph glyph-name="uni2076" unicode="&#x2076;" horiz-adv-x="309" 
d="M238 700l-75 -119c76 -3 126 -60 126 -126c0 -71 -60 -125 -131 -125c-77 0 -133 56 -133 125c0 28 8 53 26 81l104 164h83zM157 512c-15 0 -28 -4 -38 -10c-9 -11 -19 -26 -19 -47c0 -32 25 -57 58 -57c32 0 56 25 56 57s-24 57 -57 57z" />
    <glyph glyph-name="uni2077" unicode="&#x2077;" horiz-adv-x="267" 
d="M10 630v70h247v-40l-145 -320h-79l133 290h-156z" />
    <glyph glyph-name="uni2078" unicode="&#x2078;" horiz-adv-x="308" 
d="M213 454c0 30 -22 55 -58 55c-37 0 -60 -25 -60 -55c0 -31 23 -54 60 -54c36 0 58 23 58 54zM119 604c0 -20 13 -36 35 -36c23 0 35 16 35 36c0 21 -12 36 -35 36c-22 0 -35 -15 -35 -36zM44 608c0 57 47 102 111 102c62 0 109 -45 109 -102c0 -25 -11 -48 -26 -65
c30 -22 50 -56 50 -93c0 -66 -58 -120 -133 -120c-76 0 -135 54 -135 120c0 37 21 71 50 93c-15 17 -26 40 -26 65z" />
    <glyph glyph-name="uni2079" unicode="&#x2079;" horiz-adv-x="309" 
d="M71 340l75 119c-76 3 -126 60 -126 126c0 71 60 125 131 125c77 0 133 -56 133 -125c0 -28 -8 -53 -26 -81l-104 -164h-83zM152 526c15 0 28 4 38 10c9 11 19 26 19 47c0 32 -25 57 -58 57c-32 0 -56 -25 -56 -57s24 -57 57 -57z" />
    <glyph glyph-name="uni2080" unicode="&#x2080;" horiz-adv-x="326" 
d="M221 180c0 67 -15 120 -60 120c-41 0 -56 -53 -56 -120s15 -120 56 -120c45 0 60 53 60 120zM296 180c0 -118 -48 -190 -134 -190c-85 0 -132 72 -132 190s47 190 132 190c86 0 134 -72 134 -190z" />
    <glyph glyph-name="uni2081" unicode="&#x2081;" horiz-adv-x="235" 
d="M30 229v75l110 56h45v-360h-75v266z" />
    <glyph glyph-name="uni2082" unicode="&#x2082;" horiz-adv-x="311" 
d="M101 255l-70 21c15 57 61 94 121 94c65 0 122 -48 122 -117c0 -37 -19 -68 -43 -95l-79 -88h124v-70h-246v40l136 152c14 15 33 37 33 61c0 25 -18 47 -47 47c-25 0 -43 -18 -51 -45z" />
    <glyph glyph-name="uni2083" unicode="&#x2083;" horiz-adv-x="303" 
d="M20 54l60 38c11 -19 33 -34 58 -34c35 0 60 27 60 60c0 32 -23 62 -61 62c-16 0 -32 -4 -49 -11v40l61 81h-115v70h223v-40l-64 -88c46 -16 80 -63 80 -114c0 -72 -59 -128 -135 -128c-54 0 -95 28 -118 64z" />
    <glyph glyph-name="uni2084" unicode="&#x2084;" horiz-adv-x="337" 
d="M216 360h45v-213h61v-70h-61v-77h-75v77h-161v40zM136 147h50v66z" />
    <glyph glyph-name="uni2085" unicode="&#x2085;" horiz-adv-x="295" 
d="M88 155l-47 7l28 198h190v-70h-124l-7 -50c10 1 11 1 16 1c73 0 126 -58 126 -124c0 -72 -58 -127 -132 -127c-49 0 -91 24 -113 58l58 40c13 -17 33 -28 55 -28c32 0 57 24 57 57c0 30 -22 58 -59 58c-17 0 -33 -7 -48 -20z" />
    <glyph glyph-name="uni2086" unicode="&#x2086;" horiz-adv-x="309" 
d="M238 360l-75 -119c76 -3 126 -60 126 -126c0 -71 -60 -125 -131 -125c-77 0 -133 56 -133 125c0 28 8 53 26 81l104 164h83zM157 174c-15 0 -28 -4 -38 -10c-9 -11 -19 -26 -19 -47c0 -32 25 -57 58 -57c32 0 56 25 56 57s-24 57 -57 57z" />
    <glyph glyph-name="uni2087" unicode="&#x2087;" horiz-adv-x="267" 
d="M10 290v70h247v-40l-145 -320h-79l133 290h-156z" />
    <glyph glyph-name="uni2088" unicode="&#x2088;" horiz-adv-x="308" 
d="M213 114c0 30 -22 55 -58 55c-37 0 -60 -25 -60 -55c0 -31 23 -54 60 -54c36 0 58 23 58 54zM119 264c0 -20 13 -36 35 -36c23 0 35 16 35 36c0 21 -12 36 -35 36c-22 0 -35 -15 -35 -36zM44 268c0 57 47 102 111 102c62 0 109 -45 109 -102c0 -25 -11 -48 -26 -65
c30 -22 50 -56 50 -93c0 -66 -58 -120 -133 -120c-76 0 -135 54 -135 120c0 37 21 71 50 93c-15 17 -26 40 -26 65z" />
    <glyph glyph-name="uni2089" unicode="&#x2089;" horiz-adv-x="309" 
d="M71 0l75 119c-76 3 -126 60 -126 126c0 71 60 125 131 125c77 0 133 -56 133 -125c0 -28 -8 -53 -26 -81l-104 -164h-83zM152 186c15 0 28 4 38 10c9 11 19 26 19 47c0 32 -25 57 -58 57c-32 0 -56 -25 -56 -57s24 -57 57 -57z" />
    <glyph glyph-name="onesuperior" unicode="&#xb9;" horiz-adv-x="235" 
d="M30 569v75l110 56h45v-360h-75v266z" />
    <glyph glyph-name="twosuperior" unicode="&#xb2;" horiz-adv-x="311" 
d="M101 595l-70 21c15 57 61 94 121 94c65 0 122 -48 122 -117c0 -37 -19 -68 -43 -95l-79 -88h124v-70h-246v40l136 152c14 15 33 37 33 61c0 25 -18 47 -47 47c-25 0 -43 -18 -51 -45z" />
    <glyph glyph-name="threequarters" unicode="&#xbe;" horiz-adv-x="670" 
d="M189 0h-86l409 700h86zM549 360h45v-213h61v-70h-61v-77h-75v77h-161v40zM469 147h50v66zM20 394l60 38c11 -19 33 -34 58 -34c35 0 60 27 60 60c0 32 -23 62 -61 62c-16 0 -32 -4 -49 -11v40l61 81h-115v70h223v-40l-64 -88c46 -16 80 -63 80 -114
c0 -72 -59 -128 -135 -128c-54 0 -95 28 -118 64z" />
    <glyph glyph-name="threesuperior" unicode="&#xb3;" horiz-adv-x="303" 
d="M20 394l60 38c11 -19 33 -34 58 -34c35 0 60 27 60 60c0 32 -23 62 -61 62c-16 0 -32 -4 -49 -11v40l61 81h-115v70h223v-40l-64 -88c46 -16 80 -63 80 -114c0 -72 -59 -128 -135 -128c-54 0 -95 28 -118 64z" />
    <glyph glyph-name="onehalf" unicode="&#xbd;" horiz-adv-x="676" 
d="M151 0h-86l409 700h86zM30 569v75l110 56h45v-360h-75v266zM466 255l-70 21c15 57 61 94 121 94c65 0 122 -48 122 -117c0 -37 -19 -68 -43 -95l-79 -88h124v-70h-246v40l136 152c14 15 33 37 33 61c0 25 -18 47 -47 47c-25 0 -43 -18 -51 -45z" />
    <glyph glyph-name="onequarter" unicode="&#xbc;" horiz-adv-x="632" 
d="M151 0h-86l409 700h86zM30 569v75l110 56h45v-360h-75v266zM511 360h45v-213h61v-70h-61v-77h-75v77h-161v40zM431 147h50v66z" />
    <glyph glyph-name="uni2199" unicode="&#x2199;" horiz-adv-x="589" 
d="M60 320l80 80v-264l333 334l56 -57l-334 -333h265l-80 -80h-285l-35 36v284z" />
    <glyph glyph-name="uni2198" unicode="&#x2198;" horiz-adv-x="589" 
d="M449 400l80 -80v-284l-35 -36h-285l-80 80h265l-334 333l56 57l333 -334v264z" />
    <glyph glyph-name="periodcentered.case" horiz-adv-x="340" 
d="M100 350c0 39 31 70 70 70s70 -31 70 -70s-31 -70 -70 -70s-70 31 -70 70z" />
    <glyph glyph-name="bullet.case" horiz-adv-x="560" 
d="M80 350c0 110 90 200 200 200s200 -90 200 -200s-90 -200 -200 -200s-200 90 -200 200z" />
    <glyph glyph-name="asterisk.ss05" horiz-adv-x="500" 
d="M48 420l122 70l-122 70l40 70l122 -71v141h80v-141l122 71l40 -70l-121 -70l121 -70l-40 -70l-122 70v-140h-80v140l-122 -70z" />
    <glyph glyph-name="zero.zero" 
d="M55 350c0 199 65 360 240 360s240 -161 240 -360s-65 -360 -240 -360s-240 161 -240 360zM435 350c0 46 -3 91 -12 130l-209 -362c20 -21 46 -33 81 -33c110 0 140 125 140 265zM295 615c-110 0 -140 -125 -140 -265c0 -46 3 -89 11 -128l209 360c-20 21 -46 33 -80 33z
" />
    <glyph glyph-name="uni2070.zero" horiz-adv-x="326" 
d="M296 520c0 -118 -48 -190 -134 -190c-85 0 -132 72 -132 190s47 190 132 190c86 0 134 -72 134 -190zM221 520c0 12 -1 24 -2 35l-85 -145c7 -7 16 -10 27 -10c45 0 60 53 60 120zM161 640c-41 0 -56 -53 -56 -120c0 -11 0 -22 1 -32l83 143c-8 6 -17 9 -28 9z" />
    <glyph glyph-name="uni2080.zero" horiz-adv-x="326" 
d="M296 180c0 -118 -48 -190 -134 -190c-85 0 -132 72 -132 190s47 190 132 190c86 0 134 -72 134 -190zM221 180c0 12 -1 24 -2 35l-85 -145c7 -7 16 -10 27 -10c45 0 60 53 60 120zM161 300c-41 0 -56 -53 -56 -120c0 -11 0 -22 1 -32l83 143c-8 6 -17 9 -28 9z" />
    <glyph glyph-name="emdash.ss04" horiz-adv-x="1390" 
d="M20 295h1350v-80h-1350v80z" />
    <glyph glyph-name="C" unicode="C" horiz-adv-x="690" 
d="M35 350c0 202 152 360 354 360c100 0 195 -41 256 -108l-67 -66c-41 45 -114 79 -189 79c-143 0 -254 -114 -254 -265c0 -158 114 -265 263 -265c94 0 162 52 201 99l71 -64c-60 -77 -164 -130 -272 -130c-209 0 -363 153 -363 360z" />
    <glyph glyph-name="D" unicode="D" horiz-adv-x="715" 
d="M580 350c0 78 -32 149 -85 196c-44 38 -102 59 -200 59h-105v-510h105c98 0 156 21 200 59c53 47 85 118 85 196zM300 0h-210v700h210c111 0 183 -24 240 -66c86 -64 140 -168 140 -284s-53 -220 -139 -284c-57 -42 -130 -66 -241 -66z" />
    <glyph glyph-name="hyphen.case" horiz-adv-x="460" 
d="M80 420h300v-80h-300v80z" />
    <glyph glyph-name="endash.case" horiz-adv-x="490" 
d="M20 420h450v-80h-450v80z" />
    <glyph glyph-name="emdash.case" horiz-adv-x="790" 
d="M20 420h750v-80h-750v80z" />
    <glyph glyph-name="endash.case.ss04" horiz-adv-x="1090" 
d="M20 420h1050v-80h-1050v80z" />
    <glyph glyph-name="emdash.case.ss04" horiz-adv-x="1390" 
d="M20 420h1350v-80h-1350v80z" />
    <glyph glyph-name="guillemotleft.case" horiz-adv-x="600" 
d="M176 335l154 -190h-116l-134 165v50l134 165h116zM406 335l154 -190h-116l-134 165v50l134 165h116z" />
    <glyph glyph-name="guillemotright.case" horiz-adv-x="600" 
d="M270 145l154 190l-154 190h116l134 -165v-50l-134 -165h-116zM40 145l154 190l-154 190h116l134 -165v-50l-134 -165h-116z" />
    <glyph glyph-name="guilsinglleft.case" horiz-adv-x="370" 
d="M176 335l154 -190h-116l-134 165v50l134 165h116z" />
    <glyph glyph-name="guilsinglright.case" horiz-adv-x="370" 
d="M40 145l154 190l-154 190h116l134 -165v-50l-134 -165h-116z" />
    <glyph glyph-name="bar.case" horiz-adv-x="215" 
d="M60 -100v900h95v-900h-95z" />
    <glyph glyph-name="aacute.ss01" horiz-adv-x="540" 
d="M302 550h-65l65 150h105zM370 142v63c-27 14 -57 19 -85 19c-50 0 -130 -17 -130 -81c0 -40 41 -68 89 -68c45 0 92 25 126 67zM131 351l-46 77c32 23 94 52 176 52c67 0 130 -30 168 -80c25 -33 36 -76 36 -140v-260h-92v43c-22 -24 -65 -53 -138 -53
c-98 0 -175 65 -175 155c0 104 90 163 194 163c45 0 77 -7 115 -20c0 28 -9 48 -20 62c-21 28 -55 40 -92 40c-47 0 -92 -18 -126 -39z" />
    <glyph glyph-name="agrave.ss01" horiz-adv-x="540" 
d="M338 550h-65l-105 150h105zM370 142v63c-27 14 -57 19 -85 19c-50 0 -130 -17 -130 -81c0 -40 41 -68 89 -68c45 0 92 25 126 67zM131 351l-46 77c32 23 94 52 176 52c67 0 130 -30 168 -80c25 -33 36 -76 36 -140v-260h-92v43c-22 -24 -65 -53 -138 -53
c-98 0 -175 65 -175 155c0 104 90 163 194 163c45 0 77 -7 115 -20c0 28 -9 48 -20 62c-21 28 -55 40 -92 40c-47 0 -92 -18 -126 -39z" />
    <glyph glyph-name="acircumflex.ss01" horiz-adv-x="540" 
d="M186 550h-65l95 150h110l95 -150h-65l-85 94zM370 142v63c-27 14 -57 19 -85 19c-50 0 -130 -17 -130 -81c0 -40 41 -68 89 -68c45 0 92 25 126 67zM131 351l-46 77c32 23 94 52 176 52c67 0 130 -30 168 -80c25 -33 36 -76 36 -140v-260h-92v43
c-22 -24 -65 -53 -138 -53c-98 0 -175 65 -175 155c0 104 90 163 194 163c45 0 77 -7 115 -20c0 28 -9 48 -20 62c-21 28 -55 40 -92 40c-47 0 -92 -18 -126 -39z" />
    <glyph glyph-name="adieresis.ss01" horiz-adv-x="540" 
d="M127 617c0 35 27 63 62 63s63 -28 63 -63s-28 -62 -63 -62s-62 27 -62 62zM312 617c0 35 27 63 62 63s63 -28 63 -63s-28 -62 -63 -62s-62 27 -62 62zM370 142v63c-27 14 -57 19 -85 19c-50 0 -130 -17 -130 -81c0 -40 41 -68 89 -68c45 0 92 25 126 67zM131 351l-46 77
c32 23 94 52 176 52c67 0 130 -30 168 -80c25 -33 36 -76 36 -140v-260h-92v43c-22 -24 -65 -53 -138 -53c-98 0 -175 65 -175 155c0 104 90 163 194 163c45 0 77 -7 115 -20c0 28 -9 48 -20 62c-21 28 -55 40 -92 40c-47 0 -92 -18 -126 -39z" />
    <glyph glyph-name="atilde.ss01" horiz-adv-x="540" 
d="M370 690l69 -21c-2 -59 -41 -109 -101 -109c-51 0 -94 45 -136 45c-23 0 -33 -16 -38 -45l-67 21c2 59 39 109 99 109c51 0 94 -45 136 -45c23 0 33 16 38 45zM370 142v63c-27 14 -57 19 -85 19c-50 0 -130 -17 -130 -81c0 -40 41 -68 89 -68c45 0 92 25 126 67zM131 351
l-46 77c32 23 94 52 176 52c67 0 130 -30 168 -80c25 -33 36 -76 36 -140v-260h-92v43c-22 -24 -65 -53 -138 -53c-98 0 -175 65 -175 155c0 104 90 163 194 163c45 0 77 -7 115 -20c0 28 -9 48 -20 62c-21 28 -55 40 -92 40c-47 0 -92 -18 -126 -39z" />
    <glyph glyph-name="aring.ss01" horiz-adv-x="540" 
d="M182 630c0 55 45 100 100 100s100 -45 100 -100s-45 -100 -100 -100s-100 45 -100 100zM242 630c0 -22 18 -40 40 -40s40 18 40 40s-18 40 -40 40s-40 -18 -40 -40zM370 142v63c-27 14 -57 19 -85 19c-50 0 -130 -17 -130 -81c0 -40 41 -68 89 -68c45 0 92 25 126 67z
M131 351l-46 77c32 23 94 52 176 52c67 0 130 -30 168 -80c25 -33 36 -76 36 -140v-260h-92v43c-22 -24 -65 -53 -138 -53c-98 0 -175 65 -175 155c0 104 90 163 194 163c45 0 77 -7 115 -20c0 28 -9 48 -20 62c-21 28 -55 40 -92 40c-47 0 -92 -18 -126 -39z" />
    <glyph glyph-name="ae.ss01" horiz-adv-x="867" 
d="M599 397c-61 0 -116 -41 -132 -102h256c-14 60 -68 102 -124 102zM244 75c45 0 92 25 126 67v63c-27 14 -57 19 -85 19c-50 0 -130 -17 -130 -81c0 -40 41 -68 89 -68zM465 0h-92v43c-22 -24 -65 -53 -138 -53c-98 0 -175 65 -175 155c0 104 90 163 194 163
c45 0 77 -5 115 -18c-2 28 -9 46 -20 60c-21 28 -55 40 -92 40c-47 0 -92 -18 -126 -39l-46 77c32 23 94 52 176 52c67 0 132 -30 170 -82c35 52 95 82 165 82c131 0 226 -106 226 -245c0 -4 0 -11 -1 -20h-362c9 -84 72 -142 152 -142c71 0 107 33 137 61l60 -56
c-35 -45 -104 -88 -195 -88c-58 0 -109 20 -148 55v-45z" />
    <glyph glyph-name="zero.dnom" horiz-adv-x="326" 
d="M221 180c0 67 -15 120 -60 120c-41 0 -56 -53 -56 -120s15 -120 56 -120c45 0 60 53 60 120zM296 180c0 -118 -48 -190 -134 -190c-85 0 -132 72 -132 190s47 190 132 190c86 0 134 -72 134 -190z" />
    <glyph glyph-name="one.dnom" horiz-adv-x="235" 
d="M30 229v75l110 56h45v-360h-75v266z" />
    <glyph glyph-name="two.dnom" horiz-adv-x="311" 
d="M101 255l-70 21c15 57 61 94 121 94c65 0 122 -48 122 -117c0 -37 -19 -68 -43 -95l-79 -88h124v-70h-246v40l136 152c14 15 33 37 33 61c0 25 -18 47 -47 47c-25 0 -43 -18 -51 -45z" />
    <glyph glyph-name="three.dnom" horiz-adv-x="303" 
d="M20 54l60 38c11 -19 33 -34 58 -34c35 0 60 27 60 60c0 32 -23 62 -61 62c-16 0 -32 -4 -49 -11v40l61 81h-115v70h223v-40l-64 -88c46 -16 80 -63 80 -114c0 -72 -59 -128 -135 -128c-54 0 -95 28 -118 64z" />
    <glyph glyph-name="four.dnom" horiz-adv-x="337" 
d="M216 360h45v-213h61v-70h-61v-77h-75v77h-161v40zM136 147h50v66z" />
    <glyph glyph-name="five.dnom" horiz-adv-x="295" 
d="M88 155l-47 7l28 198h190v-70h-124l-7 -50c10 1 11 1 16 1c73 0 126 -58 126 -124c0 -72 -58 -127 -132 -127c-49 0 -91 24 -113 58l58 40c13 -17 33 -28 55 -28c32 0 57 24 57 57c0 30 -22 58 -59 58c-17 0 -33 -7 -48 -20z" />
    <glyph glyph-name="six.dnom" horiz-adv-x="309" 
d="M238 360l-75 -119c76 -3 126 -60 126 -126c0 -71 -60 -125 -131 -125c-77 0 -133 56 -133 125c0 28 8 53 26 81l104 164h83zM157 172c-15 0 -28 -4 -38 -10c-9 -11 -19 -26 -19 -47c0 -32 25 -57 58 -57c32 0 56 25 56 57s-24 57 -57 57z" />
    <glyph glyph-name="seven.dnom" horiz-adv-x="267" 
d="M10 290v70h247v-40l-145 -320h-79l133 290h-156z" />
    <glyph glyph-name="eight.dnom" horiz-adv-x="308" 
d="M213 114c0 30 -22 55 -58 55c-37 0 -60 -25 -60 -55c0 -31 23 -54 60 -54c36 0 58 23 58 54zM119 264c0 -20 13 -36 35 -36c23 0 35 16 35 36c0 21 -12 36 -35 36c-22 0 -35 -15 -35 -36zM44 268c0 57 47 102 111 102c62 0 109 -45 109 -102c0 -25 -11 -48 -26 -65
c30 -22 50 -56 50 -93c0 -66 -58 -120 -133 -120c-76 0 -135 54 -135 120c0 37 21 71 50 93c-15 17 -26 40 -26 65z" />
    <glyph glyph-name="nine.dnom" horiz-adv-x="309" 
d="M71 0l75 119c-76 3 -126 60 -126 126c0 71 60 125 131 125c77 0 133 -56 133 -125c0 -28 -8 -53 -26 -81l-104 -164h-83zM152 188c15 0 28 4 38 10c9 11 19 26 19 47c0 32 -25 57 -58 57c-32 0 -56 -25 -56 -57s24 -57 57 -57z" />
    <glyph glyph-name="zero.numr" horiz-adv-x="326" 
d="M221 520c0 67 -15 120 -60 120c-41 0 -56 -53 -56 -120s15 -120 56 -120c45 0 60 53 60 120zM296 520c0 -118 -48 -190 -134 -190c-85 0 -132 72 -132 190s47 190 132 190c86 0 134 -72 134 -190z" />
    <glyph glyph-name="one.numr" horiz-adv-x="235" 
d="M30 569v75l110 56h45v-360h-75v266z" />
    <glyph glyph-name="two.numr" horiz-adv-x="311" 
d="M101 595l-70 21c15 57 61 94 121 94c65 0 122 -48 122 -117c0 -37 -19 -68 -43 -95l-79 -88h124v-70h-246v40l136 152c14 15 33 37 33 61c0 25 -18 47 -47 47c-25 0 -43 -18 -51 -45z" />
    <glyph glyph-name="three.numr" horiz-adv-x="303" 
d="M20 394l60 38c11 -19 33 -34 58 -34c35 0 60 27 60 60c0 32 -23 62 -61 62c-16 0 -32 -4 -49 -11v40l61 81h-115v70h223v-40l-64 -88c46 -16 80 -63 80 -114c0 -72 -59 -128 -135 -128c-54 0 -95 28 -118 64z" />
    <glyph glyph-name="four.numr" horiz-adv-x="337" 
d="M216 700h45v-213h61v-70h-61v-77h-75v77h-161v40zM136 487h50v66z" />
    <glyph glyph-name="five.numr" horiz-adv-x="295" 
d="M88 495l-47 7l28 198h190v-70h-124l-7 -50c10 1 11 1 16 1c73 0 126 -58 126 -124c0 -72 -58 -127 -132 -127c-49 0 -91 24 -113 58l58 40c13 -17 33 -28 55 -28c32 0 57 24 57 57c0 30 -22 58 -59 58c-17 0 -33 -7 -48 -20z" />
    <glyph glyph-name="six.numr" horiz-adv-x="309" 
d="M238 700l-75 -119c76 -3 126 -60 126 -126c0 -71 -60 -125 -131 -125c-77 0 -133 56 -133 125c0 28 8 53 26 81l104 164h83zM157 512c-15 0 -28 -4 -38 -10c-9 -11 -19 -26 -19 -47c0 -32 25 -57 58 -57c32 0 56 25 56 57s-24 57 -57 57z" />
    <glyph glyph-name="seven.numr" horiz-adv-x="267" 
d="M10 630v70h247v-40l-145 -320h-79l133 290h-156z" />
    <glyph glyph-name="eight.numr" horiz-adv-x="308" 
d="M213 454c0 30 -22 55 -58 55c-37 0 -60 -25 -60 -55c0 -31 23 -54 60 -54c36 0 58 23 58 54zM119 604c0 -20 13 -36 35 -36c23 0 35 16 35 36c0 21 -12 36 -35 36c-22 0 -35 -15 -35 -36zM44 608c0 57 47 102 111 102c62 0 109 -45 109 -102c0 -25 -11 -48 -26 -65
c30 -22 50 -56 50 -93c0 -66 -58 -120 -133 -120c-76 0 -135 54 -135 120c0 37 21 71 50 93c-15 17 -26 40 -26 65z" />
    <glyph glyph-name="nine.numr" horiz-adv-x="309" 
d="M71 340l75 119c-76 3 -126 60 -126 126c0 71 60 125 131 125c77 0 133 -56 133 -125c0 -28 -8 -53 -26 -81l-104 -164h-83zM152 526c15 0 28 4 38 10c9 11 19 26 19 47c0 32 -25 57 -58 57c-32 0 -56 -25 -56 -57s24 -57 57 -57z" />
    <glyph glyph-name="zero.dnom.zero" horiz-adv-x="326" 
d="M296 180c0 -118 -48 -190 -134 -190c-85 0 -132 72 -132 190s47 190 132 190c86 0 134 -72 134 -190zM221 180c0 12 -1 24 -2 35l-85 -145c7 -7 16 -10 27 -10c45 0 60 53 60 120zM161 300c-41 0 -56 -53 -56 -120c0 -11 0 -22 1 -32l83 143c-8 6 -17 9 -28 9z" />
    <glyph glyph-name="zero.numr.zero" horiz-adv-x="326" 
d="M296 520c0 -118 -48 -190 -134 -190c-85 0 -132 72 -132 190s47 190 132 190c86 0 134 -72 134 -190zM221 520c0 12 -1 24 -2 35l-85 -145c7 -7 16 -10 27 -10c45 0 60 53 60 120zM161 640c-41 0 -56 -53 -56 -120c0 -11 0 -22 1 -32l83 143c-8 6 -17 9 -28 9z" />
    <glyph glyph-name="uni2215" unicode="&#x2215;" horiz-adv-x="505" 
d="M91 0h-86l409 700h86z" />
    <glyph glyph-name="minus.tf" 
d="M75 305h440v-90h-440v90z" />
    <glyph glyph-name="multiply.tf" 
d="M150 469l145 -145l145 145l64 -64l-145 -145l145 -145l-64 -64l-145 145l-145 -145l-64 64l145 145l-145 145z" />
    <glyph glyph-name="numbersign.tf" 
d="M542 195h-127l-53 -195h-93l53 195h-137l-53 -195h-93l53 195h-102v90h126l34 130h-103v90h127l53 195h93l-53 -195h137l53 195h93l-53 -195h103v-90h-127l-34 -130h103v-90zM243 415l-34 -130h137l34 130h-137z" />
    <glyph glyph-name="dollar.tf" 
d="M298 85c65 0 122 42 122 105c0 107 -148 119 -241 180c-50 33 -89 81 -89 154c0 88 67 163 165 181v110h95v-109c64 -11 110 -41 140 -66l-59 -73c-38 32 -81 48 -125 48c-58 0 -116 -33 -116 -94c0 -89 149 -108 239 -168c47 -31 91 -80 91 -160
c0 -107 -72 -181 -170 -199v-109h-95v109c-77 11 -146 50 -197 113l69 68c41 -50 99 -90 171 -90z" />
    <glyph glyph-name="plus.tf" 
d="M75 305h175v175h90v-175h175v-90h-175v-175h-90v175h-175v90z" />
    <glyph glyph-name="less.tf" 
d="M234 260l281 -120v-98l-440 188v60l440 188v-98z" />
    <glyph glyph-name="equal.tf" 
d="M75 395h440v-90h-440v90zM75 215h440v-90h-440v90z" />
    <glyph glyph-name="greater.tf" 
d="M75 140l281 120l-281 120v98l440 -188v-60l-440 -188v98z" />
    <glyph glyph-name="cent.tf" 
d="M262 -115v111c-117 22 -197 118 -197 239c0 122 81 219 197 240v110h95v-110c62 -12 117 -48 153 -97l-70 -59c-26 36 -70 71 -130 71c-85 0 -150 -66 -150 -155c0 -92 66 -155 156 -155c62 0 106 33 136 73l73 -53c-33 -55 -97 -95 -168 -106v-109h-95z" />
    <glyph glyph-name="sterling.tf" 
d="M267 400h148v-85h-120c4 -19 6 -39 6 -60c0 -62 -24 -126 -58 -165h292v-90h-465v60c89 34 136 127 136 195c0 21 -4 41 -9 60h-107v85h76c-16 39 -30 78 -30 124c0 110 93 186 193 186c82 0 141 -47 174 -94l-75 -54c-19 30 -52 58 -99 58c-48 0 -98 -37 -98 -98
c0 -40 19 -79 36 -122z" />
    <glyph glyph-name="section.tf" 
d="M97 524c0 102 90 186 212 186c89 0 151 -39 188 -70l-59 -73c-38 32 -81 48 -125 48c-58 0 -116 -29 -116 -88c0 -76 137 -90 238 -145c59 -32 105 -83 105 -160c0 -64 -39 -126 -89 -163c25 -26 42 -59 42 -103c0 -102 -90 -186 -212 -186c-89 0 -151 39 -188 70l59 73
c38 -32 81 -48 125 -48c58 0 116 29 116 88c0 76 -137 90 -238 145c-59 32 -105 83 -105 160c0 63 39 125 89 163c-26 25 -42 58 -42 103zM150 262c0 -86 119 -106 216 -149c35 17 74 59 74 105c0 86 -119 105 -217 149c-35 -18 -73 -59 -73 -105z" />
    <glyph glyph-name="notequal.tf" 
d="M75 395h245l61 105h104l-61 -105h91v-90h-142l-52 -90h194v-90h-246l-60 -105h-104l60 105h-90v90h142l52 90h-194v90z" />
    <glyph glyph-name="plusminus.tf" 
d="M75 365h175v135h90v-135h175v-90h-175v-135h-90v135h-175v90zM75 110h440v-90h-440v90z" />
    <glyph glyph-name="lessequal.tf" 
d="M75 110h440v-90h-440v90zM269 320l246 -83v-95l-440 148v60l440 148v-95z" />
    <glyph glyph-name="greaterequal.tf" 
d="M75 110h440v-90h-440v90zM75 237l246 83l-246 83v95l440 -148v-60l-440 -148v95z" />
    <glyph glyph-name="yen.tf" 
d="M345 315h190v-85h-190v-230h-100v230h-190v85h190l-44 70h-146v85h93l-143 230h114l176 -286l176 286h114l-144 -230h94v-85h-147z" />
    <glyph glyph-name="mu.tf" 
d="M285 -10c-52 0 -96 26 -115 45v-275h-95v710h95v-255c0 -48 10 -74 27 -94c21 -25 53 -41 88 -41c62 0 105 34 135 67v323h95v-470h-92v43c-21 -20 -73 -53 -138 -53z" />
    <glyph glyph-name="partialdiff.tf" 
d="M165 710h111l191 -289c42 -64 71 -128 71 -186c0 -135 -104 -245 -243 -245s-243 109 -243 245c0 135 102 245 243 245c7 0 15 -1 23 -2zM295 390c-87 0 -148 -69 -148 -155s61 -155 148 -155s148 69 148 155c0 42 -21 95 -52 132c-23 12 -60 23 -96 23z" />
    <glyph glyph-name="summation.tf" 
d="M460 500v110h-267l211 -220v-60l-224 -240h290v110h90v-200h-530v60l280 300l-270 280v60h510v-200h-90z" />
    <glyph glyph-name="product.tf" 
d="M215 0h-95v610h-100v90h550v-90h-100v-610h-95v610h-160v-610z" />
    <glyph glyph-name="pi.tf" 
d="M502 68l-54 -78c-64 32 -73 94 -73 160v230h-100v-380h-95v374c-11 -2 -20 -5 -28 -9c-25 -12 -41 -31 -55 -51l-77 46c18 35 51 71 102 92c27 11 60 18 107 18h341v-90h-100v-227c0 -40 0 -67 32 -85z" />
    <glyph glyph-name="integral.tf" 
d="M177 -44c35 121 33 421 69 563c12 48 31 94 61 127c37 41 89 64 154 64c24 0 50 -4 75 -14l-26 -83c-14 4 -29 7 -49 7c-35 0 -62 -11 -83 -35c-16 -19 -30 -48 -39 -81c-35 -121 -33 -421 -69 -563c-12 -48 -31 -94 -61 -127c-37 -41 -89 -64 -154 -64
c-24 0 -50 4 -75 14l26 83c14 -4 29 -7 49 -7c35 0 62 11 83 35c16 19 30 48 39 81z" />
    <glyph glyph-name="logicalnot.tf" 
d="M515 395v-270h-90v180h-350v90h440z" />
    <glyph glyph-name="radical.tf" 
d="M464 700h96l-249 -700h-66l-156 380h-109v90h170l125 -304z" />
    <glyph glyph-name="florin.tf" 
d="M177 -44c22 76 29 224 41 359h-152v85h160c5 45 11 86 20 119c12 48 31 94 61 127c37 41 89 64 154 64c24 0 50 -4 75 -14l-26 -83c-14 4 -29 7 -49 7c-35 0 -62 -11 -83 -35c-16 -19 -30 -48 -39 -81c-8 -27 -14 -63 -19 -104h152v-85h-161c-11 -131 -18 -284 -41 -374
c-12 -48 -31 -94 -61 -127c-37 -41 -89 -64 -154 -64c-24 0 -50 4 -75 14l26 83c14 -4 29 -7 49 -7c35 0 62 11 83 35c16 19 30 48 39 81z" />
    <glyph glyph-name="asciicircum.tf" 
d="M185 350h-100l177 350h66l177 -350h-100l-110 217z" />
    <glyph glyph-name="asciitilde" unicode="~" horiz-adv-x="560" 
d="M458 338l77 -39c-24 -60 -71 -128 -152 -128c-94 0 -145 88 -202 88c-36 0 -63 -41 -79 -77l-77 39c24 60 71 128 152 128c94 0 145 -88 202 -88c36 0 63 41 79 77z" />
    <glyph glyph-name="approxequal" unicode="&#x2248;" horiz-adv-x="580" 
d="M468 428l77 -39c-24 -60 -71 -128 -152 -128c-94 0 -145 88 -202 88c-36 0 -63 -41 -79 -77l-77 39c24 60 71 128 152 128c94 0 145 -88 202 -88c36 0 63 41 79 77zM468 248l77 -39c-24 -60 -71 -128 -152 -128c-94 0 -145 88 -202 88c-36 0 -63 -41 -79 -77l-77 39
c24 60 71 128 152 128c94 0 145 -88 202 -88c36 0 63 41 79 77z" />
    <glyph glyph-name="Delta.tf" 
d="M262 700h66l247 -640v-60h-560v60zM123 90h344l-172 446z" />
    <glyph glyph-name="Euro.tf" 
d="M159 350c0 -12 0 -24 1 -35h267v-85h-250c29 -85 91 -145 186 -145c65 0 115 28 149 73l78 -51c-53 -74 -127 -117 -227 -117c-154 0 -255 102 -291 240h-82v85h68c-1 11 -1 23 -1 35s0 23 1 35h-68v85h82c35 137 134 240 286 240c97 0 169 -43 222 -117l-78 -51
c-34 45 -80 73 -144 73c-93 0 -153 -60 -181 -145h250v-85h-267c-1 -12 -1 -23 -1 -35z" />
    <glyph glyph-name="currency" unicode="&#xa4;" horiz-adv-x="560" 
d="M74 351c0 41 12 79 32 111l-76 76l63 63l76 -76c32 20 70 32 111 32s79 -12 111 -32l76 76l63 -63l-76 -76c21 -32 32 -70 32 -111s-11 -79 -32 -111l76 -76l-63 -63l-76 76c-32 -21 -70 -32 -111 -32s-79 11 -111 32l-76 -76l-63 63l76 76c-20 32 -32 70 -32 111z
M169 351c0 -61 50 -111 111 -111s111 50 111 111s-50 111 -111 111s-111 -50 -111 -111z" />
    <glyph glyph-name="currency.tf" 
d="M89 351c0 41 12 79 32 111l-76 76l63 63l76 -76c32 20 70 32 111 32s79 -12 111 -32l76 76l63 -63l-76 -76c21 -32 32 -70 32 -111s-11 -79 -32 -111l76 -76l-63 -63l-76 76c-32 -21 -70 -32 -111 -32s-79 11 -111 32l-76 -76l-63 63l76 76c-20 32 -32 70 -32 111z
M184 351c0 -61 50 -111 111 -111s111 50 111 111s-50 111 -111 111s-111 -50 -111 -111z" />
    <glyph glyph-name="lozenge.tf" 
d="M262 0l-207 320v60l207 320h66l207 -320v-60l-207 -320h-66zM295 587l-152 -237l152 -237l152 237z" />
    <glyph glyph-name="divide.tf" 
d="M75 305h440v-90h-440v90zM225 100c0 39 31 70 70 70s70 -31 70 -70s-31 -70 -70 -70s-70 31 -70 70zM225 420c0 39 31 70 70 70s70 -31 70 -70s-31 -70 -70 -70s-70 31 -70 70z" />
    <glyph glyph-name="quotedbl.tf" 
d="M160 450l-15 250h95l-15 -250h-65zM365 450l-15 250h95l-15 -250h-65z" />
    <glyph glyph-name="quotesingle.tf" 
d="M263 450l-15 250h95l-15 -250h-65z" />
    <glyph glyph-name="at.case" horiz-adv-x="1000" 
d="M591 270v165c-22 24 -53 45 -103 45c-59 0 -121 -42 -121 -130c0 -89 62 -130 123 -130c48 0 78 27 101 50zM713 64l47 -70c-69 -53 -158 -84 -253 -84c-242 0 -437 197 -437 440s195 440 437 440c234 0 423 -162 423 -400c0 -136 -62 -255 -192 -255
c-55 0 -98 22 -124 59c-19 -24 -62 -59 -138 -59c-98 0 -199 76 -199 215c0 140 102 215 202 215c63 0 99 -27 117 -44v34h85v-243c0 -23 1 -46 10 -62c10 -17 27 -30 54 -30c62 0 97 69 97 172c0 182 -144 313 -335 313c-192 0 -347 -159 -347 -355s155 -355 347 -355
c77 0 148 26 206 69z" />
    <glyph glyph-name="Amacron" unicode="&#x100;" horiz-adv-x="660" 
d="M180 860h300v-85h-300v85zM551 0l-74 180h-295l-73 -180h-104l290 700h70l290 -700h-104zM330 535l-108 -260h216z" />
    <glyph glyph-name="amacron" unicode="&#x101;" horiz-adv-x="605" 
d="M160 660h300v-85h-300v85zM428 0v43c-38 -34 -89 -53 -145 -53c-42 0 -86 12 -118 31c-71 42 -120 120 -120 214s50 173 121 215c32 19 71 30 115 30c53 0 104 -16 147 -53v43h92v-470h-92zM425 147v176c-29 38 -77 67 -134 67c-91 0 -151 -73 -151 -155
c0 -84 65 -155 156 -155c48 0 97 24 129 67z" />
    <glyph glyph-name="Abreve" unicode="&#x102;" horiz-adv-x="660" 
d="M390 900h80c0 -77 -63 -140 -140 -140s-140 63 -140 140h80c0 -33 27 -60 60 -60s60 27 60 60zM551 0l-74 180h-295l-73 -180h-104l290 700h70l290 -700h-104zM330 535l-108 -260h216z" />
    <glyph glyph-name="abreve" unicode="&#x103;" horiz-adv-x="605" 
d="M365 700h80c0 -77 -63 -140 -140 -140s-140 63 -140 140h80c0 -33 27 -60 60 -60s60 27 60 60zM428 0v43c-38 -34 -89 -53 -145 -53c-42 0 -86 12 -118 31c-71 42 -120 120 -120 214s50 173 121 215c32 19 71 30 115 30c53 0 104 -16 147 -53v43h92v-470h-92zM425 147
v176c-29 38 -77 67 -134 67c-91 0 -151 -73 -151 -155c0 -84 65 -155 156 -155c48 0 97 24 129 67z" />
    <glyph glyph-name="Aogonek" unicode="&#x104;" horiz-adv-x="660" 
d="M365 700l290 -700c-14 -22 -33 -57 -33 -86s20 -44 47 -44c11 0 18 2 23 4l15 -85c-7 -3 -26 -9 -55 -9c-73 0 -125 53 -125 120c0 39 13 73 26 94l-76 186h-295l-73 -180h-104l290 700h70zM330 535l-108 -260h216z" />
    <glyph glyph-name="aogonek" unicode="&#x105;" horiz-adv-x="605" 
d="M387 -100c0 50 24 96 41 114v29c-38 -34 -89 -53 -145 -53c-42 0 -86 12 -118 31c-71 42 -120 120 -120 214s50 173 121 215c32 19 71 30 115 30c53 0 104 -16 147 -53v43h92v-470h-7c-14 -21 -31 -57 -31 -86s20 -44 47 -44c11 0 18 2 23 4l15 -85c-7 -3 -26 -9 -55 -9
c-73 0 -125 53 -125 120zM425 147v176c-29 38 -77 67 -134 67c-91 0 -151 -73 -151 -155c0 -84 65 -155 156 -155c48 0 97 24 129 67z" />
    <glyph glyph-name="Cacute" unicode="&#x106;" horiz-adv-x="690" 
d="M35 350c0 202 152 360 354 360c100 0 195 -41 256 -108l-67 -66c-41 45 -114 79 -189 79c-143 0 -254 -114 -254 -265c0 -176 119 -265 263 -265c94 0 162 52 201 99l71 -64c-60 -77 -164 -130 -272 -130c-209 0 -363 153 -363 360zM405 750h-65l65 150h105z" />
    <glyph glyph-name="cacute" unicode="&#x107;" horiz-adv-x="530" 
d="M432 153l73 -53c-39 -65 -123 -110 -209 -110c-145 0 -251 106 -251 245s104 245 245 245c82 0 156 -41 200 -102l-70 -59c-26 36 -70 71 -130 71c-85 0 -150 -66 -150 -155c0 -92 66 -155 156 -155c62 0 106 33 136 73zM310 550h-65l65 150h105z" />
    <glyph glyph-name="Ccircumflex" unicode="&#x108;" horiz-adv-x="690" 
d="M35 350c0 202 152 360 354 360c100 0 195 -41 256 -108l-67 -66c-41 45 -114 79 -189 79c-143 0 -254 -114 -254 -265c0 -176 119 -265 263 -265c94 0 162 52 201 99l71 -64c-60 -77 -164 -130 -272 -130c-209 0 -363 153 -363 360zM299 750h-65l95 150h110l95 -150h-65
l-85 94z" />
    <glyph glyph-name="ccircumflex" unicode="&#x109;" horiz-adv-x="530" 
d="M432 153l73 -53c-39 -65 -123 -110 -209 -110c-145 0 -251 106 -251 245s104 245 245 245c82 0 156 -41 200 -102l-70 -59c-26 36 -70 71 -130 71c-85 0 -150 -66 -150 -155c0 -92 66 -155 156 -155c62 0 106 33 136 73zM195 550h-65l95 150h110l95 -150h-65l-85 94z" />
    <glyph glyph-name="Cdotaccent" unicode="&#x10a;" horiz-adv-x="690" 
d="M35 350c0 202 152 360 354 360c100 0 195 -41 256 -108l-67 -66c-41 45 -114 79 -189 79c-143 0 -254 -114 -254 -265c0 -176 119 -265 263 -265c94 0 162 52 201 99l71 -64c-60 -77 -164 -130 -272 -130c-209 0 -363 153 -363 360zM322 837c0 35 27 63 62 63
s63 -28 63 -63s-28 -62 -63 -62s-62 27 -62 62z" />
    <glyph glyph-name="cdotaccent" unicode="&#x10b;" horiz-adv-x="530" 
d="M432 153l73 -53c-39 -65 -123 -110 -209 -110c-145 0 -251 106 -251 245s104 245 245 245c82 0 156 -41 200 -102l-70 -59c-26 36 -70 71 -130 71c-85 0 -150 -66 -150 -155c0 -92 66 -155 156 -155c62 0 106 33 136 73zM217 637c0 35 27 63 62 63s63 -28 63 -63
s-28 -62 -63 -62s-62 27 -62 62z" />
    <glyph glyph-name="Ccaron" unicode="&#x10c;" horiz-adv-x="690" 
d="M35 350c0 202 152 360 354 360c100 0 195 -41 256 -108l-67 -66c-41 45 -114 79 -189 79c-143 0 -254 -114 -254 -265c0 -176 119 -265 263 -265c94 0 162 52 201 99l71 -64c-60 -77 -164 -130 -272 -130c-209 0 -363 153 -363 360zM224 900h65l85 -94l85 94h65l-95 -150
h-110z" />
    <glyph glyph-name="ccaron" unicode="&#x10d;" horiz-adv-x="530" 
d="M432 153l73 -53c-39 -65 -123 -110 -209 -110c-145 0 -251 106 -251 245s104 245 245 245c82 0 156 -41 200 -102l-70 -59c-26 36 -70 71 -130 71c-85 0 -150 -66 -150 -155c0 -92 66 -155 156 -155c62 0 106 33 136 73zM135 700h65l85 -94l85 94h65l-95 -150h-110z" />
    <glyph glyph-name="Dcaron" unicode="&#x10e;" horiz-adv-x="715" 
d="M580 350c0 78 -32 149 -85 196c-44 38 -102 59 -200 59h-105v-510h105c98 0 156 21 200 59c53 47 85 118 85 196zM300 0h-210v700h210c111 0 183 -24 240 -66c86 -64 140 -168 140 -284s-53 -220 -139 -284c-57 -42 -130 -66 -241 -66zM154 900h65l85 -94l85 94h65
l-95 -150h-110z" />
    <glyph glyph-name="dcaron" unicode="&#x10f;" horiz-adv-x="665" 
d="M615 550h-65l65 150h105zM428 0v43c-38 -34 -89 -53 -145 -53c-42 0 -86 12 -118 31c-71 42 -120 120 -120 214s50 173 121 215c32 19 71 30 115 30c51 0 102 -16 144 -51v281h95v-710h-92zM425 147v176c-29 38 -77 67 -134 67c-91 0 -151 -73 -151 -155
c0 -84 65 -155 156 -155c48 0 97 24 129 67z" />
    <glyph glyph-name="Dcroat" unicode="&#x110;" horiz-adv-x="715" 
d="M300 0h-210v330h-100v95h100v275h210c111 0 183 -24 240 -66c86 -64 140 -168 140 -284s-53 -220 -139 -284c-57 -42 -130 -66 -241 -66zM580 350c0 78 -32 149 -85 196c-44 38 -102 59 -200 59h-105v-180h200v-95h-200v-235h105c98 0 156 21 200 59c53 47 85 118 85 196
z" />
    <glyph glyph-name="dcroat" unicode="&#x111;" horiz-adv-x="605" 
d="M428 0v43c-38 -34 -89 -53 -145 -53c-42 0 -86 12 -118 31c-71 42 -120 120 -120 214s50 173 121 215c32 19 71 30 115 30c51 0 102 -16 144 -51v106h-120v85h120v90h95v-90h80v-85h-80v-535h-92zM425 147v176c-29 38 -77 67 -134 67c-91 0 -151 -73 -151 -155
c0 -84 65 -155 156 -155c48 0 97 24 129 67z" />
    <glyph glyph-name="Emacron" unicode="&#x112;" horiz-adv-x="540" 
d="M190 425h230v-95h-230v-235h310v-95h-410v700h400v-95h-300v-180zM140 860h300v-85h-300v85z" />
    <glyph glyph-name="emacron" unicode="&#x113;" horiz-adv-x="545" 
d="M124 660h300v-85h-300v85zM499 215h-362c5 -79 70 -142 152 -142c70 0 108 34 135 64l62 -59c-35 -45 -102 -88 -198 -88c-137 0 -243 104 -243 245s96 245 229 245c131 0 226 -106 226 -245c0 -4 0 -11 -1 -20zM277 397c-61 0 -116 -41 -132 -102h256
c-14 60 -68 102 -124 102z" />
    <glyph glyph-name="Edotaccent" unicode="&#x116;" horiz-adv-x="540" 
d="M190 425h230v-95h-230v-235h310v-95h-410v700h400v-95h-300v-180zM228 837c0 35 27 63 62 63s63 -28 63 -63s-28 -62 -63 -62s-62 27 -62 62z" />
    <glyph glyph-name="edotaccent" unicode="&#x117;" horiz-adv-x="545" 
d="M212 637c0 35 27 63 62 63s63 -28 63 -63s-28 -62 -63 -62s-62 27 -62 62zM499 215h-362c5 -79 70 -142 152 -142c70 0 108 34 135 64l62 -59c-35 -45 -102 -88 -198 -88c-137 0 -243 104 -243 245s96 245 229 245c131 0 226 -106 226 -245c0 -4 0 -11 -1 -20zM277 397
c-61 0 -116 -41 -132 -102h256c-14 60 -68 102 -124 102z" />
    <glyph glyph-name="Eogonek" unicode="&#x118;" horiz-adv-x="540" 
d="M190 425h230v-95h-230v-235h310v-95h-154c-14 -21 -31 -57 -31 -86s20 -44 47 -44c11 0 18 2 23 4l15 -85c-7 -3 -26 -9 -55 -9c-73 0 -125 53 -125 120c0 43 16 79 30 100h-160v700h400v-95h-300v-180z" />
    <glyph glyph-name="eogonek" unicode="&#x119;" horiz-adv-x="545" 
d="M499 215h-362c5 -79 70 -142 152 -142c70 0 108 34 135 64l62 -59c-22 -29 -57 -56 -101 -72c-14 -20 -35 -60 -35 -92c0 -29 20 -44 47 -44c11 0 18 2 23 4l15 -85c-7 -3 -26 -9 -55 -9c-73 0 -125 53 -125 120c0 37 11 69 24 90c-133 5 -234 107 -234 245
c0 141 96 245 229 245c131 0 226 -106 226 -245c0 -4 0 -11 -1 -20zM277 397c-61 0 -116 -41 -132 -102h256c-14 60 -68 102 -124 102z" />
    <glyph glyph-name="Ecaron" unicode="&#x11a;" horiz-adv-x="540" 
d="M190 425h230v-95h-230v-235h310v-95h-410v700h400v-95h-300v-180zM140 900h65l85 -94l85 94h65l-95 -150h-110z" />
    <glyph glyph-name="ecaron" unicode="&#x11b;" horiz-adv-x="545" 
d="M127 700h65l85 -94l85 94h65l-95 -150h-110zM499 215h-362c5 -79 70 -142 152 -142c70 0 108 34 135 64l62 -59c-35 -45 -102 -88 -198 -88c-137 0 -243 104 -243 245s96 245 229 245c131 0 226 -106 226 -245c0 -4 0 -11 -1 -20zM277 397c-61 0 -116 -41 -132 -102h256
c-14 60 -68 102 -124 102z" />
    <glyph glyph-name="Gcircumflex" unicode="&#x11c;" horiz-adv-x="735" 
d="M670 425v-305c-60 -76 -164 -130 -272 -130c-209 0 -363 153 -363 360c0 202 152 360 354 360c100 0 195 -41 256 -108l-67 -66c-41 45 -114 79 -189 79c-143 0 -254 -114 -254 -265c0 -158 114 -265 263 -265c74 0 135 28 172 65v180h-200v95h300zM289 750h-65l95 150
h110l95 -150h-65l-85 94z" />
    <glyph glyph-name="gcircumflex" unicode="&#x11d;" horiz-adv-x="605" 
d="M222 550h-65l95 150h110l95 -150h-65l-85 94zM425 41c-38 -33 -86 -51 -142 -51c-42 0 -86 12 -118 31c-71 42 -120 120 -120 214s50 173 121 215c32 19 71 30 115 30c53 0 104 -16 147 -53v43h92v-450c0 -70 -9 -117 -28 -154c-38 -73 -110 -116 -203 -116
c-122 0 -199 62 -229 109l70 65c34 -45 78 -84 155 -84c51 0 91 19 114 54c17 26 26 62 26 121v26zM425 147v176c-29 38 -77 67 -134 67c-91 0 -151 -73 -151 -155c0 -84 65 -155 156 -155c48 0 97 24 129 67z" />
    <glyph glyph-name="Gbreve" unicode="&#x11e;" horiz-adv-x="735" 
d="M670 425v-305c-60 -76 -164 -130 -272 -130c-209 0 -363 153 -363 360c0 202 152 360 354 360c100 0 195 -41 256 -108l-67 -66c-41 45 -114 79 -189 79c-143 0 -254 -114 -254 -265c0 -158 114 -265 263 -265c74 0 135 28 172 65v180h-200v95h300zM434 900h80
c0 -77 -63 -140 -140 -140s-140 63 -140 140h80c0 -33 27 -60 60 -60s60 27 60 60z" />
    <glyph glyph-name="gbreve" unicode="&#x11f;" horiz-adv-x="605" 
d="M365 700h80c0 -77 -63 -140 -140 -140s-140 63 -140 140h80c0 -33 27 -60 60 -60s60 27 60 60zM425 41c-38 -33 -86 -51 -142 -51c-42 0 -86 12 -118 31c-71 42 -120 120 -120 214s50 173 121 215c32 19 71 30 115 30c53 0 104 -16 147 -53v43h92v-450
c0 -70 -9 -117 -28 -154c-38 -73 -110 -116 -203 -116c-122 0 -199 62 -229 109l70 65c34 -45 78 -84 155 -84c51 0 91 19 114 54c17 26 26 62 26 121v26zM425 147v176c-29 38 -77 67 -134 67c-91 0 -151 -73 -151 -155c0 -84 65 -155 156 -155c48 0 97 24 129 67z" />
    <glyph glyph-name="Gdotaccent" unicode="&#x120;" horiz-adv-x="735" 
d="M670 425v-305c-60 -76 -164 -130 -272 -130c-209 0 -363 153 -363 360c0 202 152 360 354 360c100 0 195 -41 256 -108l-67 -66c-41 45 -114 79 -189 79c-143 0 -254 -114 -254 -265c0 -158 114 -265 263 -265c74 0 135 28 172 65v180h-200v95h300zM312 837
c0 35 27 63 62 63s63 -28 63 -63s-28 -62 -63 -62s-62 27 -62 62z" />
    <glyph glyph-name="gdotaccent" unicode="&#x121;" horiz-adv-x="605" 
d="M218 637c0 35 27 63 62 63s63 -28 63 -63s-28 -62 -63 -62s-62 27 -62 62zM425 41c-38 -33 -86 -51 -142 -51c-42 0 -86 12 -118 31c-71 42 -120 120 -120 214s50 173 121 215c32 19 71 30 115 30c53 0 104 -16 147 -53v43h92v-450c0 -70 -9 -117 -28 -154
c-38 -73 -110 -116 -203 -116c-122 0 -199 62 -229 109l70 65c34 -45 78 -84 155 -84c51 0 91 19 114 54c17 26 26 62 26 121v26zM425 147v176c-29 38 -77 67 -134 67c-91 0 -151 -73 -151 -155c0 -84 65 -155 156 -155c48 0 97 24 129 67z" />
    <glyph glyph-name="Gcommaaccent" unicode="&#x122;" horiz-adv-x="735" 
d="M670 425v-305c-60 -76 -164 -130 -272 -130c-209 0 -363 153 -363 360c0 202 152 360 354 360c100 0 195 -41 256 -108l-67 -66c-41 45 -114 79 -189 79c-143 0 -254 -114 -254 -265c0 -158 114 -265 263 -265c74 0 135 28 172 65v180h-200v95h300zM348 -200h-65l65 150
h105z" />
    <glyph glyph-name="gcommaaccent" unicode="&#x123;" horiz-adv-x="605" 
d="M334 700h65l-65 -150h-105zM425 41c-38 -33 -86 -51 -142 -51c-42 0 -86 12 -118 31c-71 42 -120 120 -120 214s50 173 121 215c32 19 71 30 115 30c53 0 104 -16 147 -53v43h92v-450c0 -70 -9 -117 -28 -154c-38 -73 -110 -116 -203 -116c-122 0 -199 62 -229 109l70 65
c34 -45 78 -84 155 -84c51 0 91 19 114 54c17 26 26 62 26 121v26zM425 147v176c-29 38 -77 67 -134 67c-91 0 -151 -73 -151 -155c0 -84 65 -155 156 -155c48 0 97 24 129 67z" />
    <glyph glyph-name="Hcircumflex" unicode="&#x124;" horiz-adv-x="770" 
d="M580 0v330h-390v-330h-100v700h100v-275h390v275h100v-700h-100zM300 750h-65l95 150h110l95 -150h-65l-85 94z" />
    <glyph glyph-name="hcircumflex" unicode="&#x125;" horiz-adv-x="610" 
d="M67 760h-65l95 150h110l95 -150h-65l-85 94zM180 710v-281c26 22 73 51 138 51c69 0 131 -32 171 -83c30 -38 46 -86 46 -167v-230h-95v235c0 60 -11 88 -28 109c-22 28 -58 46 -97 46c-62 0 -107 -33 -135 -67v-323h-95v710h95z" />
    <glyph glyph-name="Hbar" unicode="&#x126;" horiz-adv-x="770" 
d="M680 525v-525h-100v330h-390v-330h-100v525h-90v95h90v80h100v-80h390v80h100v-80h90v-95h-90zM190 425h390v100h-390v-100z" />
    <glyph glyph-name="hbar" unicode="&#x127;" horiz-adv-x="610" 
d="M180 710v-90h120v-85h-120v-106c26 22 73 51 138 51c69 0 131 -32 171 -83c30 -38 46 -86 46 -167v-230h-95v235c0 60 -11 88 -28 109c-22 28 -58 46 -97 46c-62 0 -107 -33 -135 -67v-323h-95v535h-80v85h80v90h95z" />
    <glyph glyph-name="Itilde" unicode="&#x128;" horiz-adv-x="280" 
d="M95 0v700h100v-700h-100zM35 760l-65 21c2 59 41 109 101 109c51 0 96 -45 136 -45c23 0 33 16 38 45l65 -21c-2 -59 -41 -109 -101 -109c-51 0 -96 45 -136 45c-23 0 -33 -16 -38 -45z" />
    <glyph glyph-name="Imacron" unicode="&#x12a;" horiz-adv-x="280" 
d="M95 0v700h100v-700h-100zM-10 860h300v-85h-300v85z" />
    <glyph glyph-name="imacron" unicode="&#x12b;" horiz-adv-x="265" 
d="M85 0v470h95v-470h-95zM-18 660h300v-85h-300v85z" />
    <glyph glyph-name="Iogonek" unicode="&#x12e;" horiz-adv-x="280" 
d="M90 10v690h100v-700h-12c-14 -21 -31 -57 -31 -86s20 -44 47 -44c11 0 18 2 23 4l15 -85c-7 -3 -26 -9 -55 -9c-73 0 -125 53 -125 120c0 51 23 92 38 110z" />
    <glyph glyph-name="iogonek" unicode="&#x12f;" horiz-adv-x="265" 
d="M85 10v460h95v-470h-7c-14 -21 -31 -57 -31 -86s20 -44 47 -44c11 0 18 2 23 4l15 -85c-7 -3 -26 -9 -55 -9c-73 0 -125 53 -125 120c0 51 23 92 38 110zM70 637c0 35 27 63 62 63s63 -28 63 -63s-28 -62 -63 -62s-62 27 -62 62z" />
    <glyph glyph-name="Idotaccent" unicode="&#x130;" horiz-adv-x="280" 
d="M95 0v700h100v-700h-100zM83 837c0 35 27 63 62 63s63 -28 63 -63s-28 -62 -63 -62s-62 27 -62 62z" />
    <glyph glyph-name="Jcircumflex" unicode="&#x134;" horiz-adv-x="460" 
d="M0 103l89 38c16 -34 51 -56 93 -56c31 0 62 16 79 39c12 16 19 37 19 79v497h100v-490c0 -55 -8 -90 -24 -119c-34 -60 -100 -101 -174 -101c-81 0 -152 42 -182 113zM225 750h-65l95 150h110l95 -150h-65l-85 94z" />
    <glyph glyph-name="jcircumflex" unicode="&#x135;" horiz-adv-x="285" 
d="M47 550h-65l95 150h110l95 -150h-65l-85 94zM105 -43v513h95v-510c0 -63 -9 -102 -30 -132c-34 -49 -90 -78 -154 -78c-20 0 -43 3 -56 7l20 87c7 -2 22 -4 35 -4c27 0 56 12 72 33c13 17 18 41 18 84z" />
    <glyph glyph-name="Kcommaaccent" unicode="&#x136;" horiz-adv-x="650" 
d="M90 0v700h100v-295l288 295h132l-316 -325l336 -375h-128l-312 350v-350h-100zM294 -200h-65l65 150h105z" />
    <glyph glyph-name="kcommaaccent" unicode="&#x137;" horiz-adv-x="550" 
d="M275 258l265 -258h-127l-233 230v-230h-95v710h95v-420l196 180h134zM234 -200h-65l65 150h105z" />
    <glyph glyph-name="Lacute" unicode="&#x139;" horiz-adv-x="520" 
d="M190 700v-605h310v-95h-410v700h100zM165 750h-65l65 150h105z" />
    <glyph glyph-name="lacute" unicode="&#x13a;" horiz-adv-x="265" 
d="M85 0v710h95v-710h-95zM156 760h-65l65 150h105z" />
    <glyph glyph-name="Lcommaaccent" unicode="&#x13b;" horiz-adv-x="520" 
d="M190 700v-605h310v-95h-410v700h100zM244 -200h-65l65 150h105z" />
    <glyph glyph-name="lcommaaccent" unicode="&#x13c;" horiz-adv-x="265" 
d="M85 0v710h95v-710h-95zM80 -200h-65l65 150h105z" />
    <glyph glyph-name="Lcaron" unicode="&#x13d;" horiz-adv-x="520" 
d="M190 700v-605h310v-95h-410v700h100zM285 550h-65l65 150h105z" />
    <glyph glyph-name="lcaron" unicode="&#x13e;" horiz-adv-x="335" 
d="M85 0v710h95v-710h-95zM285 550h-65l65 150h105z" />
    <glyph glyph-name="Nacute" unicode="&#x143;" horiz-adv-x="770" 
d="M610 0l-420 514v-514h-100v700h70l420 -514v514h100v-700h-70zM405 750h-65l65 150h105z" />
    <glyph glyph-name="nacute" unicode="&#x144;" horiz-adv-x="610" 
d="M320 550h-65l65 150h105zM177 470v-45c25 24 73 55 141 55c69 0 131 -32 171 -83c30 -38 46 -86 46 -167v-230h-95v235c0 60 -11 88 -28 109c-22 28 -58 46 -97 46c-62 0 -107 -33 -135 -67v-323h-95v470h92z" />
    <glyph glyph-name="Ncommaaccent" unicode="&#x145;" horiz-adv-x="770" 
d="M610 0l-420 514v-514h-100v700h70l420 -514v514h100v-700h-70zM334 -200h-65l65 150h105z" />
    <glyph glyph-name="ncommaaccent" unicode="&#x146;" horiz-adv-x="610" 
d="M254 -200h-65l65 150h105zM177 470v-45c25 24 73 55 141 55c69 0 131 -32 171 -83c30 -38 46 -86 46 -167v-230h-95v235c0 60 -11 88 -28 109c-22 28 -58 46 -97 46c-62 0 -107 -33 -135 -67v-323h-95v470h92z" />
    <glyph glyph-name="Ncaron" unicode="&#x147;" horiz-adv-x="770" 
d="M610 0l-420 514v-514h-100v700h70l420 -514v514h100v-700h-70zM225 900h65l85 -94l85 94h65l-95 -150h-110z" />
    <glyph glyph-name="ncaron" unicode="&#x148;" horiz-adv-x="610" 
d="M165 700h65l85 -94l85 94h65l-95 -150h-110zM177 470v-45c25 24 73 55 141 55c69 0 131 -32 171 -83c30 -38 46 -86 46 -167v-230h-95v235c0 60 -11 88 -28 109c-22 28 -58 46 -97 46c-62 0 -107 -33 -135 -67v-323h-95v470h92z" />
    <glyph glyph-name="Omacron" unicode="&#x14c;" horiz-adv-x="770" 
d="M35 350c0 204 152 360 350 360s350 -156 350 -360s-152 -360 -350 -360s-350 156 -350 360zM135 350c0 -152 107 -265 250 -265s250 113 250 265c0 151 -107 265 -250 265s-250 -114 -250 -265zM235 860h300v-85h-300v85z" />
    <glyph glyph-name="omacron" unicode="&#x14d;" horiz-adv-x="576" 
d="M45 235c0 140 104 245 243 245s243 -105 243 -245s-104 -245 -243 -245s-243 105 -243 245zM140 235c0 -86 61 -155 148 -155s148 69 148 155s-61 155 -148 155s-148 -69 -148 -155zM138 660h300v-85h-300v85z" />
    <glyph glyph-name="Ohungarumlaut" unicode="&#x150;" horiz-adv-x="770" 
d="M35 350c0 204 152 360 350 360s350 -156 350 -360s-152 -360 -350 -360s-350 156 -350 360zM135 350c0 -152 107 -265 250 -265s250 113 250 265c0 151 -107 265 -250 265s-250 -114 -250 -265zM325 750h-65l65 150h105zM510 750h-65l65 150h105z" />
    <glyph glyph-name="ohungarumlaut" unicode="&#x151;" horiz-adv-x="576" 
d="M45 235c0 140 104 245 243 245s243 -105 243 -245s-104 -245 -243 -245s-243 105 -243 245zM140 235c0 -86 61 -155 148 -155s148 69 148 155s-61 155 -148 155s-148 -69 -148 -155zM228 550h-65l65 150h105zM413 550h-65l65 150h105z" />
    <glyph glyph-name="Racute" unicode="&#x154;" horiz-adv-x="640" 
d="M270 330h-80v-330h-100v700h245c64 0 104 -15 136 -41c42 -34 69 -86 69 -144s-27 -110 -69 -144c-22 -18 -47 -31 -82 -37l251 -334h-121zM190 425h140c45 0 68 10 84 26s26 39 26 64s-10 48 -26 64s-39 26 -84 26h-140v-180zM325 750h-65l65 150h105z" />
    <glyph glyph-name="racute" unicode="&#x155;" horiz-adv-x="370" 
d="M215 550h-65l65 150h105zM355 477l-11 -91c-11 3 -22 4 -37 4c-49 0 -101 -34 -127 -79v-311h-95v470h92v-54c23 32 72 64 141 64c10 0 26 -1 37 -3z" />
    <glyph glyph-name="Rcommaaccent" unicode="&#x156;" horiz-adv-x="640" 
d="M270 330h-80v-330h-100v700h245c64 0 104 -15 136 -41c42 -34 69 -86 69 -144s-27 -110 -69 -144c-22 -18 -47 -31 -82 -37l251 -334h-121zM190 425h140c45 0 68 10 84 26s26 39 26 64s-10 48 -26 64s-39 26 -84 26h-140v-180zM294 -200h-65l65 150h105z" />
    <glyph glyph-name="rcommaaccent" unicode="&#x157;" horiz-adv-x="370" 
d="M80 -200h-65l65 150h105zM355 477l-11 -91c-11 3 -22 4 -37 4c-49 0 -101 -34 -127 -79v-311h-95v470h92v-54c23 32 72 64 141 64c10 0 26 -1 37 -3z" />
    <glyph glyph-name="Rcaron" unicode="&#x158;" horiz-adv-x="640" 
d="M270 330h-80v-330h-100v700h245c64 0 104 -15 136 -41c42 -34 69 -86 69 -144s-27 -110 -69 -144c-22 -18 -47 -31 -82 -37l251 -334h-121zM190 425h140c45 0 68 10 84 26s26 39 26 64s-10 48 -26 64s-39 26 -84 26h-140v-180zM149 900h65l85 -94l85 94h65l-95 -150h-110
z" />
    <glyph glyph-name="rcaron" unicode="&#x159;" horiz-adv-x="370" 
d="M80 700h65l85 -94l85 94h65l-95 -150h-110zM355 477l-11 -91c-11 3 -22 4 -37 4c-49 0 -101 -34 -127 -79v-311h-95v470h92v-54c23 32 72 64 141 64c10 0 26 -1 37 -3z" />
    <glyph glyph-name="Sacute" unicode="&#x15a;" horiz-adv-x="532" 
d="M30 107l69 68c41 -50 99 -90 171 -90c65 0 122 42 122 105c0 107 -148 119 -241 180c-50 33 -89 81 -89 154c0 102 90 186 212 186c89 0 151 -39 188 -70l-59 -73c-38 32 -81 48 -125 48c-58 0 -116 -33 -116 -94c0 -89 149 -108 239 -168c47 -31 91 -80 91 -160
c0 -123 -95 -203 -217 -203c-96 0 -183 42 -245 117zM285 750h-65l65 150h105z" />
    <glyph glyph-name="sacute" unicode="&#x15b;" horiz-adv-x="455" 
d="M40 55l49 70c44 -34 92 -52 139 -52c41 0 82 22 82 59c0 54 -78 57 -147 80c-57 19 -108 55 -108 121c0 101 90 147 174 147c69 0 119 -22 156 -52l-49 -68c-29 22 -63 37 -101 37c-46 0 -85 -22 -85 -59c0 -32 37 -43 84 -55c74 -19 171 -52 171 -149
c0 -89 -83 -144 -175 -144c-75 0 -138 23 -190 65zM250 550h-65l65 150h105z" />
    <glyph glyph-name="Scircumflex" unicode="&#x15c;" horiz-adv-x="532" 
d="M30 107l69 68c41 -50 99 -90 171 -90c65 0 122 42 122 105c0 107 -148 119 -241 180c-50 33 -89 81 -89 154c0 102 90 186 212 186c89 0 151 -39 188 -70l-59 -73c-38 32 -81 48 -125 48c-58 0 -116 -33 -116 -94c0 -89 149 -108 239 -168c47 -31 91 -80 91 -160
c0 -123 -95 -203 -217 -203c-96 0 -183 42 -245 117zM189 750h-65l95 150h110l95 -150h-65l-85 94z" />
    <glyph glyph-name="scircumflex" unicode="&#x15d;" horiz-adv-x="455" 
d="M40 55l49 70c44 -34 92 -52 139 -52c41 0 82 22 82 59c0 54 -78 57 -147 80c-57 19 -108 55 -108 121c0 101 90 147 174 147c69 0 119 -22 156 -52l-49 -68c-29 22 -63 37 -101 37c-46 0 -85 -22 -85 -59c0 -32 37 -43 84 -55c74 -19 171 -52 171 -149
c0 -89 -83 -144 -175 -144c-75 0 -138 23 -190 65zM147 550h-65l95 150h110l95 -150h-65l-85 94z" />
    <glyph glyph-name="Scedilla" unicode="&#x15e;" horiz-adv-x="532" 
d="M30 107l69 68c41 -50 99 -90 171 -90c65 0 122 42 122 105c0 107 -148 119 -241 180c-50 33 -89 81 -89 154c0 102 90 186 212 186c89 0 151 -39 188 -70l-59 -73c-38 32 -81 48 -125 48c-58 0 -116 -33 -116 -94c0 -89 149 -108 239 -168c47 -31 91 -80 91 -160
c0 -109 -74 -184 -176 -200l-26 -133h-105l61 132c-84 7 -160 47 -216 115z" />
    <glyph glyph-name="scedilla" unicode="&#x15f;" horiz-adv-x="455" 
d="M40 55l49 70c44 -34 92 -52 139 -52c41 0 82 22 82 59c0 54 -78 57 -147 80c-57 19 -108 55 -108 121c0 101 90 147 174 147c69 0 119 -22 156 -52l-49 -68c-29 22 -63 37 -101 37c-46 0 -85 -22 -85 -59c0 -32 37 -43 84 -55c74 -19 171 -52 171 -149
c0 -75 -59 -126 -133 -140l-27 -134h-105l61 131c-63 5 -116 27 -161 64z" />
    <glyph glyph-name="Tcommaaccent" unicode="&#x162;" horiz-adv-x="510" 
d="M15 605v95h480v-95h-190v-605h-100v605h-190zM203 -200h-65l65 150h105z" />
    <glyph glyph-name="tcommaaccent" unicode="&#x163;" horiz-adv-x="420" 
d="M228 -200h-65l65 150h105zM356 86l19 -86c-18 -6 -47 -10 -74 -10c-59 0 -103 21 -133 55c-28 31 -38 74 -38 125v215h-120v85h120v130h95v-130h150v-85h-150v-220c0 -25 2 -46 14 -60c13 -16 40 -25 65 -25c14 0 38 2 52 6z" />
    <glyph glyph-name="Tcaron" unicode="&#x164;" horiz-adv-x="510" 
d="M15 605v95h480v-95h-190v-605h-100v605h-190zM105 900h65l85 -94l85 94h65l-95 -150h-110z" />
    <glyph glyph-name="tcaron" unicode="&#x165;" horiz-adv-x="420" 
d="M320 550h-65l65 150h105zM356 86l19 -86c-18 -6 -47 -10 -74 -10c-59 0 -103 21 -133 55c-28 31 -38 74 -38 125v215h-120v85h120v130h95v-130h150v-85h-150v-220c0 -25 2 -46 14 -60c13 -16 40 -25 65 -25c14 0 38 2 52 6z" />
    <glyph glyph-name="Umacron" unicode="&#x16a;" horiz-adv-x="740" 
d="M370 -10c-86 0 -164 35 -217 92c-45 49 -73 114 -73 208v410h100v-415c0 -66 16 -107 44 -138c35 -39 87 -62 146 -62s111 23 146 62c28 31 44 72 44 138v415h100v-410c0 -94 -28 -159 -73 -208c-53 -57 -131 -92 -217 -92zM220 860h300v-85h-300v85z" />
    <glyph glyph-name="umacron" unicode="&#x16b;" horiz-adv-x="600" 
d="M146 660h300v-85h-300v85zM285 -10c-67 0 -128 30 -167 79c-29 36 -43 82 -43 161v240h95v-255c0 -48 10 -74 27 -94c21 -25 55 -41 91 -41c58 0 105 35 132 67v323h95v-470h-92v43c-21 -20 -73 -53 -138 -53z" />
    <glyph glyph-name="Ubreve" unicode="&#x16c;" horiz-adv-x="740" 
d="M370 -10c-86 0 -164 35 -217 92c-45 49 -73 114 -73 208v410h100v-415c0 -66 16 -107 44 -138c35 -39 87 -62 146 -62s111 23 146 62c28 31 44 72 44 138v415h100v-410c0 -94 -28 -159 -73 -208c-53 -57 -131 -92 -217 -92zM430 900h80c0 -77 -63 -140 -140 -140
s-140 63 -140 140h80c0 -33 27 -60 60 -60s60 27 60 60z" />
    <glyph glyph-name="ubreve" unicode="&#x16d;" horiz-adv-x="600" 
d="M355 700h80c0 -77 -63 -140 -140 -140s-140 63 -140 140h80c0 -33 27 -60 60 -60s60 27 60 60zM285 -10c-67 0 -128 30 -167 79c-29 36 -43 82 -43 161v240h95v-255c0 -48 10 -74 27 -94c21 -25 55 -41 91 -41c58 0 105 35 132 67v323h95v-470h-92v43
c-21 -20 -73 -53 -138 -53z" />
    <glyph glyph-name="Uring" unicode="&#x16e;" horiz-adv-x="740" 
d="M370 -10c-86 0 -164 35 -217 92c-45 49 -73 114 -73 208v410h100v-415c0 -66 16 -107 44 -138c35 -39 87 -62 146 -62s111 23 146 62c28 31 44 72 44 138v415h100v-410c0 -94 -28 -159 -73 -208c-53 -57 -131 -92 -217 -92zM270 830c0 55 45 100 100 100
s100 -45 100 -100s-45 -100 -100 -100s-100 45 -100 100zM330 830c0 -22 18 -40 40 -40s40 18 40 40s-18 40 -40 40s-40 -18 -40 -40z" />
    <glyph glyph-name="uring" unicode="&#x16f;" horiz-adv-x="600" 
d="M195 630c0 55 45 100 100 100s100 -45 100 -100s-45 -100 -100 -100s-100 45 -100 100zM255 630c0 -22 18 -40 40 -40s40 18 40 40s-18 40 -40 40s-40 -18 -40 -40zM285 -10c-67 0 -128 30 -167 79c-29 36 -43 82 -43 161v240h95v-255c0 -48 10 -74 27 -94
c21 -25 55 -41 91 -41c58 0 105 35 132 67v323h95v-470h-92v43c-21 -20 -73 -53 -138 -53z" />
    <glyph glyph-name="Uhungarumlaut" unicode="&#x170;" horiz-adv-x="740" 
d="M370 -10c-86 0 -164 35 -217 92c-45 49 -73 114 -73 208v410h100v-415c0 -66 16 -107 44 -138c35 -39 87 -62 146 -62s111 23 146 62c28 31 44 72 44 138v415h100v-410c0 -94 -28 -159 -73 -208c-53 -57 -131 -92 -217 -92zM310 750h-65l65 150h105zM495 750h-65l65 150
h105z" />
    <glyph glyph-name="uhungarumlaut" unicode="&#x171;" horiz-adv-x="600" 
d="M235 550h-65l65 150h105zM420 550h-65l65 150h105zM285 -10c-67 0 -128 30 -167 79c-29 36 -43 82 -43 161v240h95v-255c0 -48 10 -74 27 -94c21 -25 55 -41 91 -41c58 0 105 35 132 67v323h95v-470h-92v43c-21 -20 -73 -53 -138 -53z" />
    <glyph glyph-name="Uogonek" unicode="&#x172;" horiz-adv-x="740" 
d="M587 82c-40 -43 -93 -73 -153 -85c-14 -22 -29 -55 -29 -83c0 -29 20 -44 47 -44c11 0 18 2 23 4l15 -85c-7 -3 -26 -9 -55 -9c-73 0 -125 53 -125 120c0 38 12 71 25 92c-72 8 -137 41 -182 90s-73 114 -73 208v410h100v-415c0 -66 16 -107 44 -138
c35 -39 87 -62 146 -62s111 23 146 62c28 31 44 72 44 138v415h100v-410c0 -94 -28 -159 -73 -208z" />
    <glyph glyph-name="uogonek" unicode="&#x173;" horiz-adv-x="600" 
d="M285 -10c-67 0 -128 30 -167 79c-29 36 -43 82 -43 161v240h95v-255c0 -48 10 -74 27 -94c21 -25 55 -41 91 -41c58 0 105 35 132 67v323h95v-470h-7c-14 -21 -31 -57 -31 -86s20 -44 47 -44c11 0 18 2 23 4l15 -85c-7 -3 -26 -9 -55 -9c-73 0 -125 53 -125 120
c0 50 24 96 41 114v29c-21 -20 -73 -53 -138 -53z" />
    <glyph glyph-name="Wcircumflex" unicode="&#x174;" horiz-adv-x="950" 
d="M475 518l-175 -518h-70l-220 700h102l157 -507l171 507h70l171 -507l157 507h102l-220 -700h-70zM390 750h-65l95 150h110l95 -150h-65l-85 94z" />
    <glyph glyph-name="wcircumflex" unicode="&#x175;" horiz-adv-x="798" 
d="M366 470h66l129 -321l129 321h98l-191 -470h-66l-132 330l-132 -330h-66l-191 470h98l129 -321zM314 550h-65l95 150h110l95 -150h-65l-85 94z" />
    <glyph glyph-name="Ycircumflex" unicode="&#x176;" horiz-adv-x="600" 
d="M590 700l-240 -380v-320h-100v320l-240 380h112l178 -281l178 281h112zM215 750h-65l95 150h110l95 -150h-65l-85 94z" />
    <glyph glyph-name="ycircumflex" unicode="&#x177;" horiz-adv-x="509" 
d="M185 -240h-101l127 289l-201 421h102l147 -310l135 310h100zM168 550h-65l95 150h110l95 -150h-65l-85 94z" />
    <glyph glyph-name="Zacute" unicode="&#x179;" 
d="M330 750h-65l65 150h105zM70 605v95h470v-65l-364 -540h384v-95h-520v65l366 540h-336z" />
    <glyph glyph-name="zacute" unicode="&#x17a;" horiz-adv-x="470" 
d="M272 550h-65l65 150h105zM40 60l258 325h-243v85h375v-60l-259 -325h279v-85h-410v60z" />
    <glyph glyph-name="Zdotaccent" unicode="&#x17b;" 
d="M243 837c0 35 27 63 62 63s63 -28 63 -63s-28 -62 -63 -62s-62 27 -62 62zM70 605v95h470v-65l-364 -540h384v-95h-520v65l366 540h-336z" />
    <glyph glyph-name="zdotaccent" unicode="&#x17c;" horiz-adv-x="470" 
d="M180 637c0 35 27 63 62 63s63 -28 63 -63s-28 -62 -63 -62s-62 27 -62 62zM40 60l258 325h-243v85h375v-60l-259 -325h279v-85h-410v60z" />
    <glyph glyph-name="Scommaaccent" unicode="&#x218;" horiz-adv-x="532" 
d="M30 107l69 68c41 -50 99 -90 171 -90c65 0 122 42 122 105c0 107 -148 119 -241 180c-50 33 -89 81 -89 154c0 102 90 186 212 186c89 0 151 -39 188 -70l-59 -73c-38 32 -81 48 -125 48c-58 0 -116 -33 -116 -94c0 -89 149 -108 239 -168c47 -31 91 -80 91 -160
c0 -123 -95 -203 -217 -203c-96 0 -183 42 -245 117zM233 -200h-65l65 150h105z" />
    <glyph glyph-name="scommaaccent" unicode="&#x219;" horiz-adv-x="455" 
d="M40 55l49 70c44 -34 92 -52 139 -52c41 0 82 22 82 59c0 54 -78 57 -147 80c-57 19 -108 55 -108 121c0 101 90 147 174 147c69 0 119 -22 156 -52l-49 -68c-29 22 -63 37 -101 37c-46 0 -85 -22 -85 -59c0 -32 37 -43 84 -55c74 -19 171 -52 171 -149
c0 -89 -83 -144 -175 -144c-75 0 -138 23 -190 65zM183 -200h-65l65 150h105z" />
    <glyph glyph-name="Wgrave" unicode="&#x1e80;" horiz-adv-x="950" 
d="M510 750h-65l-105 150h105zM475 518l-175 -518h-70l-220 700h102l157 -507l171 507h70l171 -507l157 507h102l-220 -700h-70z" />
    <glyph glyph-name="wgrave" unicode="&#x1e81;" horiz-adv-x="798" 
d="M432 550h-65l-105 150h105zM366 470h66l129 -321l129 321h98l-191 -470h-66l-132 330l-132 -330h-66l-191 470h98l129 -321z" />
    <glyph glyph-name="amacron.ss01" horiz-adv-x="540" 
d="M130 660h300v-85h-300v85zM370 142v63c-27 14 -57 19 -85 19c-50 0 -130 -17 -130 -81c0 -40 41 -68 89 -68c45 0 92 25 126 67zM131 351l-46 77c32 23 94 52 176 52c67 0 130 -30 168 -80c25 -33 36 -76 36 -140v-260h-92v43c-22 -24 -65 -53 -138 -53
c-98 0 -175 65 -175 155c0 104 90 163 194 163c45 0 77 -7 115 -20c0 28 -9 48 -20 62c-21 28 -55 40 -92 40c-47 0 -92 -18 -126 -39z" />
    <glyph glyph-name="abreve.ss01" horiz-adv-x="540" 
d="M325 700h80c0 -77 -63 -140 -140 -140s-140 63 -140 140h80c0 -33 27 -60 60 -60s60 27 60 60zM370 142v63c-27 14 -57 19 -85 19c-50 0 -130 -17 -130 -81c0 -40 41 -68 89 -68c45 0 92 25 126 67zM131 351l-46 77c32 23 94 52 176 52c67 0 130 -30 168 -80
c25 -33 36 -76 36 -140v-260h-92v43c-22 -24 -65 -53 -138 -53c-98 0 -175 65 -175 155c0 104 90 163 194 163c45 0 77 -7 115 -20c0 28 -9 48 -20 62c-21 28 -55 40 -92 40c-47 0 -92 -18 -126 -39z" />
    <glyph glyph-name="aogonek.ss01" horiz-adv-x="540" 
d="M370 142v63c-27 14 -57 19 -85 19c-50 0 -130 -17 -130 -81c0 -40 41 -68 89 -68c45 0 92 25 126 67zM373 14v29c-22 -24 -65 -53 -138 -53c-98 0 -175 65 -175 155c0 104 90 163 194 163c45 0 77 -7 115 -20c0 28 -9 48 -20 62c-21 28 -55 40 -92 40
c-47 0 -92 -18 -126 -39l-46 77c32 23 94 52 176 52c67 0 130 -30 168 -80c25 -33 36 -76 36 -140v-260h-7c-14 -21 -31 -57 -31 -86s20 -44 47 -44c11 0 18 2 23 4l15 -85c-7 -3 -26 -9 -55 -9c-73 0 -125 53 -125 120c0 50 24 96 41 114z" />
    <glyph glyph-name="ebreve" unicode="&#x115;" horiz-adv-x="545" 
d="M334 700h85c0 -77 -63 -140 -140 -140s-140 63 -140 140h85c0 -30 25 -55 55 -55s55 25 55 55zM499 215h-362c5 -79 70 -142 152 -142c70 0 108 34 135 64l62 -59c-35 -45 -102 -88 -198 -88c-137 0 -243 104 -243 245s96 245 229 245c131 0 226 -106 226 -245
c0 -4 0 -11 -1 -20zM277 397c-61 0 -116 -41 -132 -102h256c-14 60 -68 102 -124 102z" />
    <glyph glyph-name="Ebreve" unicode="&#x114;" horiz-adv-x="540" 
d="M190 425h230v-95h-230v-235h310v-95h-410v700h400v-95h-300v-180zM345 900h85c0 -77 -63 -140 -140 -140s-140 63 -140 140h85c0 -30 25 -55 55 -55s55 25 55 55z" />
    <glyph glyph-name="itilde" unicode="&#x129;" horiz-adv-x="265" 
d="M85 0v470h95v-470h-95zM27 560l-65 21c2 59 41 109 101 109c51 0 96 -45 136 -45c23 0 33 16 38 45l65 -21c-2 -59 -41 -109 -101 -109c-51 0 -96 45 -136 45c-23 0 -33 -16 -38 -45z" />
    <glyph glyph-name="Ldot" unicode="&#x13f;" horiz-adv-x="520" 
d="M190 700v-605h310v-95h-410v700h100zM270 350c0 35 27 63 62 63s63 -28 63 -63s-28 -62 -63 -62s-62 27 -62 62z" />
    <glyph glyph-name="ldot" unicode="&#x140;" horiz-adv-x="305" 
d="M85 0v710h95v-710h-95zM220 350c0 35 27 63 62 63s63 -28 63 -63s-28 -62 -63 -62s-62 27 -62 62z" />
    <glyph glyph-name="Obreve" unicode="&#x14e;" horiz-adv-x="770" 
d="M35 350c0 204 152 360 350 360s350 -156 350 -360s-152 -360 -350 -360s-350 156 -350 360zM135 350c0 -152 107 -265 250 -265s250 113 250 265c0 151 -107 265 -250 265s-250 -114 -250 -265zM445 900h80c0 -77 -63 -140 -140 -140s-140 63 -140 140h80
c0 -33 27 -60 60 -60s60 27 60 60z" />
    <glyph glyph-name="obreve" unicode="&#x14f;" horiz-adv-x="576" 
d="M45 235c0 140 104 245 243 245s243 -105 243 -245s-104 -245 -243 -245s-243 105 -243 245zM140 235c0 -86 61 -155 148 -155s148 69 148 155s-61 155 -148 155s-148 -69 -148 -155zM348 700h80c0 -77 -63 -140 -140 -140s-140 63 -140 140h80c0 -33 27 -60 60 -60
s60 27 60 60z" />
    <glyph glyph-name="Tbar" unicode="&#x166;" horiz-adv-x="510" 
d="M55 425h150v180h-190v95h480v-95h-190v-180h150v-95h-150v-330h-100v330h-150v95z" />
    <glyph glyph-name="tbar" unicode="&#x167;" horiz-adv-x="420" 
d="M356 86l19 -86c-18 -6 -47 -10 -74 -10c-59 0 -103 21 -133 55c-28 31 -38 74 -38 125v30h-120v85h120v100h-120v85h120v130h95v-130h150v-85h-150v-100h150v-85h-150v-35c0 -25 2 -46 14 -60c13 -16 40 -25 65 -25c14 0 38 2 52 6z" />
    <glyph glyph-name="Utilde" unicode="&#x168;" horiz-adv-x="740" 
d="M370 -10c-86 0 -164 35 -217 92c-45 49 -73 114 -73 208v410h100v-415c0 -66 16 -107 44 -138c35 -39 87 -62 146 -62s111 23 146 62c28 31 44 72 44 138v415h100v-410c0 -94 -28 -159 -73 -208c-53 -57 -131 -92 -217 -92zM265 760l-65 21c2 59 41 109 101 109
c51 0 96 -45 136 -45c23 0 33 16 38 45l65 -21c-2 -59 -41 -109 -101 -109c-51 0 -96 45 -136 45c-23 0 -33 -16 -38 -45z" />
    <glyph glyph-name="utilde" unicode="&#x169;" horiz-adv-x="600" 
d="M285 -10c-67 0 -128 30 -167 79c-29 36 -43 82 -43 161v240h95v-255c0 -48 10 -74 27 -94c21 -25 55 -41 91 -41c58 0 105 35 132 67v323h95v-470h-92v44c-21 -20 -73 -54 -138 -54zM191 560l-65 21c2 59 41 109 101 109c51 0 96 -45 136 -45c23 0 33 16 38 45l65 -21
c-2 -59 -41 -109 -101 -109c-51 0 -96 45 -136 45c-23 0 -33 -16 -38 -45z" />
    <glyph glyph-name="Ibreve" unicode="&#x12c;" horiz-adv-x="280" 
d="M95 0v700h100v-700h-100zM200 900h85c0 -77 -63 -140 -140 -140s-140 63 -140 140h85c0 -30 25 -55 55 -55s55 25 55 55z" />
    <glyph glyph-name="ibreve" unicode="&#x12d;" horiz-adv-x="265" 
d="M85 0v470h95v-470h-95zM187 700h85c0 -77 -63 -140 -140 -140s-140 63 -140 140h85c0 -30 25 -55 55 -55s55 25 55 55z" />
    <glyph glyph-name="IJ" unicode="&#x132;" horiz-adv-x="740" 
d="M90 0v700h100v-700h-100zM280 103l89 38c16 -34 51 -56 93 -56c31 0 62 16 79 39c12 16 19 37 19 79v497h100v-490c0 -55 -8 -90 -24 -119c-34 -60 -100 -101 -174 -101c-81 0 -152 42 -182 113z" />
    <glyph glyph-name="ij" unicode="&#x133;" horiz-adv-x="535" 
d="M85 0v470h95v-470h-95zM70 637c0 35 27 63 62 63s63 -28 63 -63s-28 -62 -63 -62s-62 27 -62 62zM340 637c0 35 27 63 62 63s63 -28 63 -63s-28 -62 -63 -62s-62 27 -62 62zM355 -43v513h95v-510c0 -63 -9 -102 -30 -132c-34 -49 -90 -78 -154 -78c-20 0 -43 3 -56 7
l20 87c7 -2 22 -4 35 -4c27 0 56 12 72 33c13 17 18 41 18 84z" />
    <glyph glyph-name="kgreenlandic" unicode="&#x138;" horiz-adv-x="550" 
d="M275 258l265 -258h-127l-233 230v-230h-95v470h95v-180l196 180h134z" />
    <glyph glyph-name="napostrophe" unicode="&#x149;" horiz-adv-x="610" 
d="M150 550h-65l65 150h105zM177 470v-45c25 24 73 55 141 55c69 0 131 -32 171 -83c30 -38 46 -86 46 -167v-230h-95v235c0 60 -11 88 -28 109c-22 28 -58 46 -97 46c-62 0 -107 -33 -135 -67v-323h-95v470h92z" />
    <glyph glyph-name="Eng" unicode="&#x14a;" horiz-adv-x="770" 
d="M300 -137l89 38c16 -34 51 -56 93 -56c31 0 62 16 79 39c12 16 19 37 19 79v73l-390 478v-514h-100v700h70l420 -514v514h100v-730c0 -55 -8 -90 -24 -119c-34 -60 -100 -101 -174 -101c-81 0 -152 42 -182 113z" />
    <glyph glyph-name="eng" unicode="&#x14b;" horiz-adv-x="610" 
d="M177 470v-45c25 24 73 55 141 55c69 0 131 -32 171 -83c30 -38 46 -86 46 -167v-270c0 -63 -10 -103 -30 -133c-32 -49 -88 -77 -150 -77c-39 0 -74 6 -105 25l40 78c13 -7 37 -13 58 -13c29 0 58 12 73 32c13 17 19 42 19 85v278c0 60 -11 88 -28 109
c-22 28 -58 46 -97 46c-62 0 -107 -33 -135 -67v-323h-95v470h92z" />
    <glyph glyph-name="longs" unicode="&#x17f;" horiz-adv-x="365" 
d="M180 513v-513h-95v510c0 63 9 102 30 132c34 49 90 78 154 78c34 0 68 -7 96 -20l-35 -83c-16 7 -36 13 -60 13c-27 0 -56 -12 -72 -33c-13 -17 -18 -41 -18 -84z" />
    <glyph glyph-name="uni018F" unicode="&#x18f;" horiz-adv-x="722" 
d="M580 279h-441c19 -116 108 -194 218 -194c116 0 196 84 223 194zM125 516l-71 64c54 63 149 130 287 130c213 0 346 -162 346 -360s-135 -360 -330 -360c-184 0 -322 146 -322 338c0 6 2 32 4 46h547c-11 132 -91 241 -245 241c-87 0 -159 -35 -216 -99z" />
    <glyph glyph-name="uni01B5" unicode="&#x1b5;" 
d="M110 425h174l122 180h-336v95h470v-65l-142 -210h112v-95h-176l-158 -235h384v-95h-520v65l179 265h-109v95z" />
    <glyph glyph-name="uni01B6" unicode="&#x1b6;" horiz-adv-x="470" 
d="M85 285h133l80 100h-243v85h375v-60l-99 -125h74v-85h-142l-92 -115h279v-85h-410v60l110 140h-65v85z" />
    <glyph glyph-name="Aringacute" unicode="&#x1fa;" horiz-adv-x="660" 
d="M230 830c0 55 45 100 100 100s100 -45 100 -100s-45 -100 -100 -100s-100 45 -100 100zM290 830c0 -22 18 -40 40 -40s40 18 40 40s-18 40 -40 40s-40 -18 -40 -40zM365 960h-65l65 150h105zM551 0l-74 180h-295l-73 -180h-104l290 700h70l290 -700h-104zM330 535
l-108 -260h216z" />
    <glyph glyph-name="aringacute" unicode="&#x1fb;" horiz-adv-x="605" 
d="M197 630c0 55 45 100 100 100s100 -45 100 -100s-45 -100 -100 -100s-100 45 -100 100zM257 630c0 -22 18 -40 40 -40s40 18 40 40s-18 40 -40 40s-40 -18 -40 -40zM317 760h-65l65 150h105zM428 0v43c-38 -34 -89 -53 -145 -53c-42 0 -86 12 -118 31
c-71 42 -120 120 -120 214s50 173 121 215c32 19 71 30 115 30c53 0 104 -16 147 -53v43h92v-470h-92zM425 147v176c-29 38 -77 67 -134 67c-91 0 -151 -73 -151 -155c0 -84 65 -155 156 -155c48 0 97 24 129 67z" />
    <glyph glyph-name="AEacute" unicode="&#x1fc;" horiz-adv-x="910" 
d="M560 750h-65l65 150h105zM870 0h-410v180h-258l-108 -180h-114l418 700h462v-95h-300v-180h230v-95h-230v-235h310v-95zM460 615l-202 -340h202v340z" />
    <glyph glyph-name="aeacute" unicode="&#x1fd;" horiz-adv-x="929" 
d="M503 550h-65l65 150h105zM428 0v43c-38 -34 -89 -53 -145 -53c-42 0 -86 12 -118 31c-71 42 -120 120 -120 214s50 173 121 215c32 19 71 30 115 30c53 0 104 -16 147 -53v43h84v-43c37 33 85 53 141 53c128 0 231 -107 231 -245c0 -4 0 -11 -1 -20h-367
c7 -79 74 -142 160 -142c67 0 106 35 132 64l62 -59c-35 -44 -99 -88 -192 -88c-63 0 -122 23 -166 64v-54h-84zM425 147v176c-29 38 -77 67 -134 67c-91 0 -151 -73 -151 -155c0 -84 65 -155 156 -155c48 0 97 24 129 67zM657 397c-63 0 -119 -41 -136 -102h264
c-15 60 -70 102 -128 102z" />
    <glyph glyph-name="Oslashacute" unicode="&#x1fe;" horiz-adv-x="770" 
d="M415 750h-65l65 150h105zM35 350c0 204 152 360 350 360c73 0 139 -21 194 -58l49 58h119l-99 -119c54 -63 87 -147 87 -241c0 -204 -152 -360 -350 -360c-73 0 -139 21 -194 57l-49 -57h-120l100 118c-55 63 -87 147 -87 242zM135 350c0 -64 19 -121 51 -165l331 392
c-38 24 -83 38 -132 38c-143 0 -250 -114 -250 -265zM635 350c0 63 -19 120 -52 165l-330 -393c38 -24 83 -37 132 -37c143 0 250 113 250 265z" />
    <glyph glyph-name="oslashacute" unicode="&#x1ff;" horiz-adv-x="576" 
d="M318 550h-65l65 150h105zM45 235c0 140 104 245 243 245c46 0 87 -12 123 -32l28 32h111l-74 -87c34 -42 55 -97 55 -158c0 -140 -104 -245 -243 -245c-46 0 -88 11 -123 31l-26 -31h-112l72 86c-34 42 -54 97 -54 159zM140 235c0 -31 8 -60 22 -84l189 225
c-19 9 -40 14 -63 14c-87 0 -148 -69 -148 -155zM436 235c0 31 -8 59 -22 83l-189 -225c18 -8 40 -13 63 -13c87 0 148 69 148 155z" />
    <glyph glyph-name="uni0259" unicode="&#x259;" horiz-adv-x="545" 
d="M46 255h362c-9 84 -72 142 -152 142c-72 0 -108 -34 -135 -64l-62 59c35 46 102 88 198 88c137 0 243 -104 243 -245s-96 -245 -229 -245c-131 0 -226 106 -226 245c0 4 0 11 1 20zM268 73c61 0 116 41 132 102h-256c14 -60 68 -102 124 -102z" />
    <glyph glyph-name="Wacute" unicode="&#x1e82;" horiz-adv-x="950" 
d="M475 518l-175 -518h-70l-220 700h102l157 -507l171 507h70l171 -507l157 507h102l-220 -700h-70zM505 750h-65l65 150h105z" />
    <glyph glyph-name="wacute" unicode="&#x1e83;" horiz-adv-x="798" 
d="M366 470h66l129 -321l129 321h98l-191 -470h-66l-132 330l-132 -330h-66l-191 470h98l129 -321zM431 550h-65l65 150h105z" />
    <glyph glyph-name="uni0237" unicode="&#x237;" horiz-adv-x="285" 
d="M105 -43v513h95v-510c0 -63 -9 -102 -30 -132c-34 -49 -90 -78 -154 -78c-20 0 -43 3 -56 7l20 87c7 -2 22 -4 35 -4c27 0 56 12 72 33c13 17 18 41 18 84z" />
    <glyph glyph-name="aringacute.ss01" horiz-adv-x="540" 
d="M302 760h-65l65 150h105zM182 630c0 55 45 100 100 100s100 -45 100 -100s-45 -100 -100 -100s-100 45 -100 100zM242 630c0 -22 18 -40 40 -40s40 18 40 40s-18 40 -40 40s-40 -18 -40 -40zM370 142v63c-27 14 -57 19 -85 19c-50 0 -130 -17 -130 -81
c0 -40 41 -68 89 -68c45 0 92 25 126 67zM131 351l-46 77c32 23 94 52 176 52c67 0 130 -30 168 -80c25 -33 36 -76 36 -140v-260h-92v43c-22 -24 -65 -53 -138 -53c-98 0 -175 65 -175 155c0 104 90 163 194 163c45 0 77 -7 115 -20c0 28 -9 48 -20 62
c-21 28 -55 40 -92 40c-47 0 -92 -18 -126 -39z" />
    <glyph glyph-name="aeacute.ss01" horiz-adv-x="867" 
d="M485 550h-65l65 150h105zM599 397c-61 0 -116 -41 -132 -102h256c-14 60 -68 102 -124 102zM244 75c45 0 92 25 126 67v63c-27 14 -57 19 -85 19c-50 0 -130 -17 -130 -81c0 -40 41 -68 89 -68zM465 0h-92v43c-22 -24 -65 -53 -138 -53c-98 0 -175 65 -175 155
c0 104 90 163 194 163c45 0 77 -5 115 -18c-2 28 -9 46 -20 60c-21 28 -55 40 -92 40c-47 0 -92 -18 -126 -39l-46 77c32 23 94 52 176 52c67 0 132 -30 170 -82c35 52 95 82 165 82c131 0 226 -106 226 -245c0 -4 0 -11 -1 -20h-362c9 -84 72 -142 152 -142
c71 0 107 33 137 61l60 -56c-35 -45 -104 -88 -195 -88c-58 0 -109 20 -148 55v-45z" />
    <glyph glyph-name="Wdieresis" unicode="&#x1e84;" horiz-adv-x="950" 
d="M475 518l-175 -518h-70l-220 700h102l157 -507l171 507h70l171 -507l157 507h102l-220 -700h-70zM320 817c0 35 27 63 62 63s63 -28 63 -63s-28 -62 -63 -62s-62 27 -62 62zM505 817c0 35 27 63 62 63s63 -28 63 -63s-28 -62 -63 -62s-62 27 -62 62z" />
    <glyph glyph-name="wdieresis" unicode="&#x1e85;" horiz-adv-x="798" 
d="M366 470h66l129 -321l129 321h98l-191 -470h-66l-132 330l-132 -330h-66l-191 470h98l129 -321zM244 617c0 35 27 63 62 63s63 -28 63 -63s-28 -62 -63 -62s-62 27 -62 62zM429 617c0 35 27 63 62 63s63 -28 63 -63s-28 -62 -63 -62s-62 27 -62 62z" />
    <glyph glyph-name="uni1E8A" unicode="&#x1e8a;" horiz-adv-x="659" 
d="M267 837c0 35 27 63 62 63s63 -28 63 -63s-28 -62 -63 -62s-62 27 -62 62zM133 0h-118l249 383l-209 317h123l151 -233l152 233h123l-210 -317l250 -383h-118l-197 299z" />
    <glyph glyph-name="uni1E8B" unicode="&#x1e8b;" horiz-adv-x="510" 
d="M382 0l-127 176l-127 -176h-113l178 247l-161 223h112l111 -152l111 152h112l-161 -223l178 -247h-113zM193 637c0 35 27 63 62 63s63 -28 63 -63s-28 -62 -63 -62s-62 27 -62 62z" />
    <glyph glyph-name="Ygrave" unicode="&#x1ef2;" horiz-adv-x="600" 
d="M590 700l-240 -380v-320h-100v320l-240 380h112l178 -281l178 281h112zM330 750h-65l-105 150h105z" />
    <glyph glyph-name="ygrave" unicode="&#x1ef3;" horiz-adv-x="509" 
d="M185 -240h-101l127 289l-201 421h102l147 -310l135 310h100zM297 550h-65l-105 150h105z" />
    <glyph glyph-name="asterisk.ss06" horiz-adv-x="500" 
d="M64 387l-24 75l146 47l-90 125l64 46l90 -125l91 125l64 -47l-91 -124l147 -48l-25 -76l-146 48v-153h-80v154z" />
    <glyph glyph-name="asterisk.ss07" horiz-adv-x="500" 
d="M180 692l70 -122l70 122l70 -40l-71 -122h141v-80h-141l71 -122l-70 -40l-70 121l-70 -121l-70 40l70 122h-140v80h140l-70 122z" />
    <glyph glyph-name="asterisk.ss08" horiz-adv-x="500" 
d="M180 692l70 -122l-70 -40v-80l70 -41l-70 -121l-70 40l70 122h-140v80h140l-70 122zM390 652l-71 -122h141v-80h-141v80l-69 40l70 122zM319 450l71 -122l-70 -40l-70 121z" />
    <glyph glyph-name="asterisk.ss09" horiz-adv-x="500" 
d="M436 359l-56 -56l-80 80l56 57zM200 596l-56 -56l-80 80l56 57zM381 676l56 -56l-80 -80l-57 56zM144 440l56 -56l-80 -80l-57 56zM460 530v-80h-170v80h170zM210 530v-80h-170v80h170zM210 700h80v-170h-80v170zM210 450h80v-170h-80v170z" />
    <glyph glyph-name="G" unicode="G" horiz-adv-x="735" 
d="M670 425v-305c-60 -76 -164 -130 -272 -130c-209 0 -363 153 -363 360c0 202 152 360 354 360c100 0 195 -41 256 -108l-67 -66c-41 45 -114 79 -189 79c-143 0 -254 -114 -254 -265c0 -158 114 -265 263 -265c74 0 135 28 172 65v180h-200v95h300z" />
    <glyph glyph-name="F" unicode="F" horiz-adv-x="510" 
d="M190 425h230v-95h-230v-330h-100v700h400v-95h-300v-180z" />
    <glyph glyph-name="f.ss02" horiz-adv-x="435" 
d="M415 700l-35 -83c-16 7 -36 13 -60 13c-27 0 -56 -12 -72 -33c-13 -17 -18 -41 -18 -84v-43h175v-85h-175v-385h-95v385h-110v85h110v40c0 63 9 102 30 132c34 49 90 78 154 78c34 0 68 -7 96 -20z" />
    <glyph glyph-name="j.ss02" horiz-adv-x="285" 
d="M200 470v-510c0 -63 -10 -103 -30 -133c-32 -49 -88 -77 -150 -77c-39 0 -74 6 -105 25l40 78c13 -7 37 -13 58 -13c29 0 58 12 73 32c13 17 19 42 19 85v513h95zM90 637c0 35 27 63 62 63s63 -28 63 -63s-28 -62 -63 -62s-62 27 -62 62z" />
    <glyph glyph-name="t.ss02" horiz-adv-x="465" 
d="M378 98l37 -77c-26 -19 -63 -31 -112 -31c-59 0 -102 21 -132 55c-28 31 -41 74 -41 125v215h-120v85h120v130h95v-130h200v-85h-200v-220c0 -25 6 -46 18 -60c13 -16 38 -25 63 -25c24 0 55 8 72 18z" />
    <glyph glyph-name="fi.ss02" horiz-adv-x="665" 
d="M470 647c0 35 27 63 62 63s63 -28 63 -63s-28 -62 -63 -62s-62 27 -62 62zM135 470v40c0 63 9 102 30 132c34 49 90 78 154 78c34 0 68 -7 96 -20l-35 -83c-16 7 -36 13 -60 13c-27 0 -56 -12 -72 -33c-13 -17 -18 -41 -18 -84v-43h350v-470h-95v385h-255v-385h-95v385
h-110v85h110z" />
    <glyph glyph-name="fl.ss02" horiz-adv-x="665" 
d="M135 470v40c0 63 9 102 30 132c34 49 90 78 154 78c34 0 68 -7 96 -20l-35 -83c-16 7 -36 13 -60 13c-27 0 -56 -12 -72 -33c-13 -17 -18 -41 -18 -84v-43h255v240h95v-710h-95v385h-255v-385h-95v385h-110v85h110z" />
    <glyph glyph-name="uniFB00.ss02" horiz-adv-x="785" 
d="M765 700l-35 -83c-16 7 -36 13 -60 13c-27 0 -56 -12 -72 -33c-13 -17 -18 -41 -18 -84v-43h175v-85h-175v-385h-95v385h-255v-385h-95v385h-110v85h110v40c0 63 9 102 30 132c34 49 90 78 154 78c34 0 68 -7 96 -20l-35 -83c-16 7 -36 13 -60 13c-27 0 -56 -12 -72 -33
c-13 -17 -18 -41 -18 -84v-43h255v40c0 63 9 102 30 132c34 49 90 78 154 78c34 0 68 -7 96 -20z" />
    <glyph glyph-name="uniFB03.ss02" horiz-adv-x="1015" 
d="M930 470v-470h-95v385h-255v-385h-95v385h-255v-385h-95v385h-110v85h110v40c0 63 9 102 30 132c34 49 90 78 154 78c34 0 68 -7 96 -20l-35 -83c-16 7 -36 13 -60 13c-27 0 -56 -12 -72 -33c-13 -17 -18 -41 -18 -84v-43h255v40c0 63 9 102 30 132c34 49 90 78 154 78
c34 0 68 -7 96 -20l-35 -83c-16 7 -36 13 -60 13c-27 0 -56 -12 -72 -33c-13 -17 -18 -41 -18 -84v-43h350zM820 647c0 35 27 63 62 63s63 -28 63 -63s-28 -62 -63 -62s-62 27 -62 62z" />
    <glyph glyph-name="uniFB04.ss02" horiz-adv-x="1015" 
d="M835 0v385h-255v-385h-95v385h-255v-385h-95v385h-110v85h110v40c0 63 9 102 30 132c34 49 90 78 154 78c34 0 68 -7 96 -20l-35 -83c-16 7 -36 13 -60 13c-27 0 -56 -12 -72 -33c-13 -17 -18 -41 -18 -84v-43h255v40c0 63 9 102 30 132c34 49 90 78 154 78
c34 0 68 -7 96 -20l-35 -83c-16 7 -36 13 -60 13c-27 0 -56 -12 -72 -33c-13 -17 -18 -41 -18 -84v-43h255v240h95v-710h-95z" />
    <glyph glyph-name="tbar.ss02" horiz-adv-x="465" 
d="M130 285v100h-120v85h120v130h95v-130h200v-85h-200v-100h200v-85h-200v-35c0 -25 6 -46 18 -60c13 -16 38 -25 63 -25c24 0 55 8 72 18l37 -77c-26 -19 -63 -31 -112 -31c-59 0 -102 21 -132 55c-28 31 -41 74 -41 125v30h-120v85h120z" />
    <glyph glyph-name="ij.ss02" horiz-adv-x="535" 
d="M85 0v470h95v-470h-95zM70 637c0 35 27 63 62 63s63 -28 63 -63s-28 -62 -63 -62s-62 27 -62 62zM450 470v-510c0 -63 -10 -103 -30 -133c-32 -49 -88 -77 -150 -77c-39 0 -74 6 -105 25l40 78c13 -7 37 -13 58 -13c29 0 58 12 73 32c13 17 19 42 19 85v513h95zM340 637
c0 35 27 63 62 63s63 -28 63 -63s-28 -62 -63 -62s-62 27 -62 62z" />
    <glyph glyph-name="tcommaaccent.ss02" horiz-adv-x="465" 
d="M228 -200h-65l65 150h105zM378 98l37 -77c-26 -19 -63 -31 -112 -31c-59 0 -102 21 -132 55c-28 31 -41 74 -41 125v215h-120v85h120v130h95v-130h200v-85h-200v-220c0 -25 6 -46 18 -60c13 -16 38 -25 63 -25c24 0 55 8 72 18z" />
    <glyph glyph-name="tcaron.ss02" horiz-adv-x="465" 
d="M320 550h-65l65 150h105zM378 98l37 -77c-26 -19 -63 -31 -112 -31c-59 0 -102 21 -132 55c-28 31 -41 74 -41 125v215h-120v85h120v130h95v-130h200v-85h-200v-220c0 -25 6 -46 18 -60c13 -16 38 -25 63 -25c24 0 55 8 72 18z" />
    <glyph glyph-name="jcircumflex.ss02" horiz-adv-x="295" 
d="M200 470v-510c0 -63 -10 -103 -30 -133c-32 -49 -88 -77 -150 -77c-39 0 -74 6 -105 25l40 78c13 -7 37 -13 58 -13c29 0 58 12 73 32c13 17 19 42 19 85v513h95zM47 550h-65l95 150h110l95 -150h-65l-85 94z" />
    <glyph glyph-name="uni0237.ss02" horiz-adv-x="275" 
d="M190 470v-510c0 -63 -10 -103 -30 -133c-32 -49 -88 -77 -150 -77c-39 0 -74 6 -105 25l40 78c13 -7 37 -13 58 -13c29 0 58 12 73 32c13 17 19 42 19 85v513h95z" />
    <glyph glyph-name="r.ss02" horiz-adv-x="400" 
d="M385 469l-22 -91c-8 4 -26 12 -56 12c-49 0 -100 -33 -127 -79v-311h-95v470h92v-54c23 32 71 64 141 64c24 0 47 -4 67 -11z" />
    <glyph glyph-name="racute.ss02" horiz-adv-x="400" 
d="M215 550h-65l65 150h105zM385 469l-22 -91c-8 4 -26 12 -56 12c-49 0 -100 -33 -127 -79v-311h-95v470h92v-54c23 32 71 64 141 64c24 0 47 -4 67 -11z" />
    <glyph glyph-name="rcaron.ss02" horiz-adv-x="400" 
d="M80 700h65l85 -94l85 94h65l-95 -150h-110zM385 469l-22 -91c-8 4 -26 12 -56 12c-49 0 -100 -33 -127 -79v-311h-95v470h92v-54c23 32 71 64 141 64c24 0 47 -4 67 -11z" />
    <glyph glyph-name="rcommaaccent.ss02" horiz-adv-x="400" 
d="M80 -200h-65l65 150h105zM385 469l-22 -91c-8 4 -26 12 -56 12c-49 0 -100 -33 -127 -79v-311h-95v470h92v-54c23 32 71 64 141 64c24 0 47 -4 67 -11z" />
    <glyph glyph-name="H" unicode="H" horiz-adv-x="770" 
d="M580 0v330h-390v-330h-100v700h100v-275h390v275h100v-700h-100z" />
    <glyph glyph-name="J" unicode="J" horiz-adv-x="460" 
d="M0 103l89 38c16 -34 51 -56 93 -56c31 0 62 16 79 39c12 16 19 37 19 79v497h100v-490c0 -55 -8 -90 -24 -119c-34 -60 -100 -101 -174 -101c-81 0 -152 42 -182 113z" />
    <glyph glyph-name="I" unicode="I" horiz-adv-x="280" 
d="M90 0v700h100v-700h-100z" />
    </font>
</defs>
</svg>
