<?xml version="1.0" standalone="no"?>
<!DOCTYPE svg PUBLIC "-//W3C//DTD SVG 1.1//EN" "http://www.w3.org/Graphics/SVG/1.1/DTD/svg11.dtd">
<svg xmlns="http://www.w3.org/2000/svg"><metadata>This SVG WebFont was generated by YouWorkForThem.
Copyright (c) Mark Simonson, 2005. All rights reserved.</metadata><defs><font horiz-adv-x="1169" id="ywftsvg"><font-face ascent="1618" bbox="-719 -659 2275 2210" cap-height="1366" descent="-430" font-family="" font-stretch="normal" font-weight="300" panose-1="2 0 5 6 3 0 0 2 0 4" underline-position="0" underline-thickness="0" unicode-range="U+000D-FB04" units-per-em="2048" x-height="989"/><missing-glyph d="M170 -184v1724h719v-1724h-719zM823 1479h-590v-1602h590v1602z" horiz-adv-x="1058"/><glyph d="M201 0v895h-164v94h164v90q0 145 71.5 226t196.5 81q80 0 133 -30l-33 -84q-39 23 -90 22q-172 0 -172 -215v-90h201v-94h-201v-895h-106zM743 0v895h-163v94h163v90q0 145 72 226t197 81q80 0 133 -30l-33 -84q-39 23 -90 22q-172 0 -172 -215v-90h201v-94h-201v-895 h-107zM1302.5 1153q-32.5 0 -57 24.5t-24.5 57.5t24.5 57.5t57 24.5t57 -23.5t24.5 -58.5t-24.5 -58.5t-57 -23.5zM1356 989v-1116q0 -135 -68.5 -204.5t-193.5 -69.5q-59 0 -113 16l20 92q43 -14 84 -14q164 0 164 180v1116h107z" glyph-name="uniE004" horiz-adv-x="1521" unicode="ffj"/><glyph d="M201 0v895h-164v94h164v90q0 145 71.5 226t196.5 81q80 0 133 -30l-33 -84q-39 23 -90 22q-172 0 -172 -215v-90h201v-94h-201v-895h-106zM762 1153q-33 0 -57.5 24.5t-24.5 57.5t24.5 57.5t57.5 24.5t57.5 -23.5t24.5 -58.5t-24.5 -58.5t-57.5 -23.5zM815 989v-1116 q0 -135 -68.5 -204.5t-193.5 -69.5q-59 0 -113 16l21 92q43 -14 84 -14q164 0 164 180v1116h106z" glyph-name="uniE005" horiz-adv-x="978" unicode="fj"/><glyph d="M201 0v895h-164v94h164v90q0 145 71.5 226t196.5 81q80 0 133 -30l-33 -84q-39 23 -90 22q-172 0 -172 -215v-90h201v-94h-201v-895h-106zM743 0v895h-163v94h163v90q0 145 72 226t197 81q80 0 133 -30l-33 -84q-39 23 -90 22q-172 0 -172 -215v-90h201v-94h-201v-895 h-107z" glyph-name="uniFB00" horiz-adv-x="1083" unicode="ff"/><glyph d="M201 0v895h-164v94h164v90q0 145 71.5 226t196.5 81q80 0 133 -30l-33 -84q-39 23 -90 22q-172 0 -172 -215v-90h201v-94h-201v-895h-106zM762 1153q-33 0 -57.5 24.5t-24.5 57.5t24.5 57.5t57.5 24.5t57.5 -23.5t24.5 -58.5t-24.5 -58.5t-57.5 -23.5zM709 0v989h106 v-989h-106z" glyph-name="uniFB01" horiz-adv-x="978" unicode="fi"/><glyph d="M201 0v895h-164v94h164v90q0 145 71.5 226t196.5 81q80 0 133 -30l-33 -84q-39 23 -90 22q-172 0 -172 -215v-90h201v-94h-201v-895h-106zM709 0v1366h106v-1366h-106z" glyph-name="uniFB02" horiz-adv-x="978" unicode="fl"/><glyph d="M201 0v895h-164v94h164v90q0 145 71.5 226t196.5 81q80 0 133 -30l-33 -84q-39 23 -90 22q-172 0 -172 -215v-90h201v-94h-201v-895h-106zM743 0v895h-163v94h163v90q0 145 72 226t197 81q80 0 133 -30l-33 -84q-39 23 -90 22q-172 0 -172 -215v-90h201v-94h-201v-895 h-107zM1302.5 1153q-32.5 0 -57 24.5t-24.5 57.5t24.5 57.5t57 24.5t57 -23.5t24.5 -58.5t-24.5 -58.5t-57 -23.5zM1249 0v989h107v-989h-107z" glyph-name="uniFB03" horiz-adv-x="1521" unicode="ffi"/><glyph d="M201 0v895h-164v94h164v90q0 145 71.5 226t196.5 81q80 0 133 -30l-33 -84q-39 23 -90 22q-172 0 -172 -215v-90h201v-94h-201v-895h-106zM743 0v895h-163v94h163v90q0 145 72 226t197 81q80 0 133 -30l-33 -84q-39 23 -90 22q-172 0 -172 -215v-90h201v-94h-201v-895 h-107zM1249 0v1366h107v-1366h-107z" glyph-name="uniFB04" horiz-adv-x="1521" unicode="ffl"/><glyph d="M201 0v895h-164v94h164v90q0 145 71.5 226t196.5 81q80 0 133 -30l-33 -84q-39 23 -90 22q-172 0 -172 -215v-90h201v-94h-201v-895h-106zM709 0v1366h106v-537q131 184 344 185q199 0 321 -142.5t122 -378t-122 -377t-321 -141.5q-106 0 -197.5 51.5t-146.5 131.5v-158 h-106zM815 248q45 -74 135 -125t191 -51q162 0 254 118.5t92 303.5q0 186 -92 305t-254 119q-98 0 -189.5 -53.5t-136.5 -127.5v-489z" glyph-name="f_b.liga" horiz-adv-x="1710" unicode="fb"/><glyph d="M201 0v895h-164v94h164v90q0 145 71.5 226t196.5 81q80 0 133 -30l-33 -84q-39 23 -90 22q-172 0 -172 -215v-90h201v-94h-201v-895h-106zM1376 0v674q0 135 -61.5 189.5t-177.5 54.5q-92 0 -182.5 -49.5t-139.5 -120.5v-748h-106v1366h106v-526q59 70 157.5 122 t198.5 52q311 0 312 -318v-696h-107z" glyph-name="f_h.liga" horiz-adv-x="1648" unicode="fh"/><glyph d="M201 0v895h-164v94h164v90q0 145 71.5 226t196.5 81q80 0 133 -30l-33 -84q-39 23 -90 22q-172 0 -172 -215v-90h201v-94h-201v-895h-106zM1395 0l-396 471l-184 -174v-297h-106v1366h106v-942l584 565h141l-461 -446l459 -543h-143z" glyph-name="f_k.liga" horiz-adv-x="1576" unicode="fk"/><glyph d="M170 -184v1724h719v-1724h-719zM823 1479h-590v-1602h590v1602z" glyph-name=".notdef" horiz-adv-x="1058"/><glyph glyph-name="glyph1" horiz-adv-x="0"/><glyph glyph-name="glyph2" horiz-adv-x="681"/><glyph glyph-name="glyph3" horiz-adv-x="0"/><glyph glyph-name="glyph3" horiz-adv-x="0"/><glyph glyph-name="space" horiz-adv-x="530" unicode=" "/><glyph d="M182 356l-26 1010h137l-27 -1010h-84zM135 72q0 35 25.5 61.5t62.5 26.5t64.5 -27t27.5 -61q0 -37 -27.5 -63.5t-64.5 -26.5t-62.5 26.5t-25.5 63.5z" glyph-name="exclam" horiz-adv-x="448" unicode="!"/><glyph d="M162 874q-43 412 -43 439q0 31 20.5 52t53.5 21q31 0 52 -21.5t21 -51.5l-43 -439h-61zM426 874q-43 412 -43 439q0 31 21.5 52t52 21t52 -21.5t21.5 -51.5l-43 -439h-61z" glyph-name="quotedbl" horiz-adv-x="649" unicode="&quot;"/><glyph d="M483 0l131 381h-241l-129 -381h-97l127 381h-225l27 84h229l146 436h-232l25 84h235l125 381h96l-125 -381h240l125 381h98l-129 -381h228l-23 -84h-231l-148 -436h236l-25 -84h-237l-127 -381h-99zM786 901h-239l-146 -436h238z" glyph-name="numbersign" horiz-adv-x="1185" unicode="#"/><glyph d="M1083 362q0 -145 -103 -258.5t-327 -126.5v-182h-94v180q-293 14 -461 218l76 88q154 -180 385 -197v575q-78 23 -125 38.5t-109.5 46t-97 65.5t-60.5 90t-26 125q0 156 119 255t299 107v187h94v-189q248 -18 400 -188l-78 -86q-119 145 -322 166v-514q78 -23 128 -40 t113.5 -50t100.5 -72t62.5 -100.5t25.5 -137.5zM264 1030q0 -98 75 -149.5t220 -92.5v492q-127 -6 -211 -76t-84 -174zM653 86q86 6 148.5 32.5t95.5 67.5t48.5 82t15.5 86q0 117 -80 176.5t-228 102.5v-547z" glyph-name="dollar" horiz-adv-x="1196" unicode="$"/><glyph d="M389 717q-141 0 -230 94t-89 238q0 145 90 241t229 96q141 0 231.5 -96t90.5 -241q0 -143 -90.5 -237.5t-231.5 -94.5zM1135 1366h94l-875 -1366h-92zM389 1307q-98 0 -161.5 -75t-63.5 -183q0 -104 63.5 -179t161.5 -75t162.5 74.5t64.5 179.5q0 109 -63.5 183.5 t-163.5 74.5zM1085.5 647q141.5 0 231.5 -96t90 -242q0 -143 -90 -238.5t-231.5 -95.5t-231.5 95.5t-90 238.5q0 145 90 241.5t231.5 96.5zM1085.5 55q100.5 0 163 74t62.5 180q0 109 -62.5 183.5t-163 74.5t-164 -74.5t-63.5 -183.5q0 -106 63.5 -180t164 -74z" glyph-name="percent" horiz-adv-x="1474" unicode="%"/><glyph d="M1233 0h-160q-63 55 -172 164q-168 -188 -403 -189q-178 0 -295 98.5t-117 274.5q0 147 81 241.5t224 174.5q-113 182 -112 311q0 133 94 222t231 89q129 0 208 -68.5t79 -189.5q0 -59 -22.5 -111t-48 -85t-85 -75t-90.5 -59.5t-106 -58.5q80 -113 174 -215 q80 -92 184 -200q98 152 154 331l98 -41q-96 -242 -180 -364q123 -123 264 -250zM393 1073q0 -102 94 -258q74 39 115 62.5t90 62.5t70.5 84t21.5 100q0 82 -50 127t-128 45q-88 0 -150.5 -63.5t-62.5 -159.5zM506 70q176 0 323 166q-152 156 -204 219q-113 133 -183 231 q-113 -68 -175 -144.5t-62 -187.5q0 -133 88 -208.5t213 -75.5z" glyph-name="ampersand" horiz-adv-x="1308" unicode="&amp;"/><glyph d="M162 874q-43 412 -43 439q0 31 20.5 52t53.5 21q31 0 52 -21.5t21 -51.5l-43 -439h-61z" glyph-name="quotesingle" horiz-adv-x="382" unicode="'"/><glyph d="M367 -408q-272 412 -272.5 905.5t272.5 905.5l63 -45q-109 -223 -163 -418t-54 -442.5t54.5 -442t162.5 -415.5z" glyph-name="parenleft" horiz-adv-x="464" unicode="("/><glyph d="M252 498q0 250 -54.5 444.5t-162.5 415.5l63 45q274 -416 274.5 -905.5t-274.5 -905.5l-63 48q109 219 163 414.5t54 443.5z" glyph-name="parenright" horiz-adv-x="464" unicode=")"/><glyph d="M305 817l10 240l-200 -131l-39 67l213 109l-213 108l39 68l200 -131l-10 239h76l-12 -239l202 131l37 -68l-211 -108l211 -109l-37 -67l-202 131l12 -240h-76z" glyph-name="asterisk" horiz-adv-x="686" unicode="*"/><glyph d="M555 647v-444h-92v444h-404v86h404v432h92v-432h401v-86h-401z" glyph-name="plus" horiz-adv-x="1015" unicode="+"/><glyph d="M178 -252l-59 51q49 33 81.5 87.5t37.5 101.5l-21 -2q-37 0 -60.5 24.5t-23.5 61.5q0 35 25.5 61.5t62.5 26.5q43 0 74 -35t31 -96q0 -82 -42.5 -159t-105.5 -122z" glyph-name="comma" horiz-adv-x="448" unicode=","/><glyph d="M61 446v99h492v-99h-492z" glyph-name="hyphen" horiz-adv-x="614" unicode="-"/><glyph d="M133 72q0 35 26.5 61.5t63.5 26.5t64.5 -27t27.5 -61q0 -37 -27.5 -64.5t-64.5 -27.5t-63.5 27.5t-26.5 64.5z" glyph-name="period" horiz-adv-x="448" unicode="."/><glyph d="M0 -41l485 1448h93l-486 -1448h-92z" glyph-name="slash" horiz-adv-x="577" unicode="/"/><glyph d="M119 682q0 129 28.5 249t85 224.5t158 167.5t234.5 63q131 0 231 -63t157.5 -167.5t86 -224.5t28.5 -249q0 -127 -28.5 -248t-86 -226.5t-157.5 -169t-231 -63.5t-233.5 63.5t-159 169t-85 225.5t-28.5 249zM1004 682q0 113 -19.5 214t-61.5 190.5t-119 141.5t-179 52 q-104 0 -181 -52t-119 -141.5t-62.5 -190.5t-20.5 -214t20.5 -214t62.5 -190.5t118.5 -142.5t181.5 -53q102 0 179 53t119 142.5t61.5 190.5t19.5 214z" glyph-name="zero" horiz-adv-x="1245" unicode="0"/><glyph d="M344 0v1206l-219 -233l-72 76l301 317h107v-1366h-117z" glyph-name="one" horiz-adv-x="630" unicode="1"/><glyph d="M115 0v96q164 133 262 215t208.5 186.5t169 181.5t97.5 161t39 161q0 137 -93 208t-218 71q-123 0 -220.5 -48t-154.5 -130l-80 74q74 98 192.5 154t262.5 56q170 0 300 -98t130 -287q0 -109 -51.5 -217t-162 -228t-216 -213t-283.5 -237h719v-106h-901z" glyph-name="two" horiz-adv-x="1191" unicode="2"/><glyph d="M66 203l79 69q133 -190 383 -190q158 0 251 78t93 213q0 139 -101 207.5t-265 68.5q-106 0 -127 -2v111q20 -2 127 -2q147 0 246.5 65.5t99.5 194.5q0 123 -94 193.5t-234 70.5q-211 0 -366 -174l-74 74q170 207 446 206q186 0 313.5 -96t127.5 -264q0 -96 -51.5 -170 t-113 -105.5t-128.5 -43.5q111 -12 212 -100.5t101 -239.5q0 -172 -124 -282t-337 -110q-160 0 -280.5 65t-183.5 163z" glyph-name="three" horiz-adv-x="1114" unicode="3"/><glyph d="M719 0v373h-647v104l606 889h158v-887h200v-106h-200v-373h-117zM719 1249l-526 -770h526v770z" glyph-name="four" horiz-adv-x="1107" unicode="4"/><glyph d="M152 199l77 77q137 -195 383 -194q147 0 244.5 94t97.5 236q0 154 -95 243.5t-245 89.5q-186 0 -331 -133l-88 37v717h788v-106h-672v-535q131 127 326 127q182 0 309 -115.5t127 -320.5q0 -199 -133 -320t-328 -121q-304 1 -460 224z" glyph-name="five" horiz-adv-x="1191" unicode="5"/><glyph d="M119 682q0 109 17.5 208t58.5 191.5t99 159t148 106t199 39.5q229 0 369 -174l-70 -86q-113 154 -299 154q-106 0 -187 -52t-126 -140.5t-67.5 -190.5t-22.5 -217q0 -43 2 -64q51 84 161.5 156t237.5 72q195 0 317.5 -111.5t122.5 -320.5q0 -178 -125 -307.5t-333 -129.5 q-106 0 -192.5 39t-144 104.5t-95 157t-54 191.5t-16.5 215zM961 410q0 162 -94.5 245.5t-248.5 83.5q-111 0 -212 -64.5t-160 -168.5q8 -104 45 -194.5t121 -160t204 -69.5q162 0 253.5 101.5t91.5 226.5z" glyph-name="six" horiz-adv-x="1196" unicode="6"/><glyph d="M250 0l573 1260h-755v106h895v-82l-584 -1284h-129z" glyph-name="seven" horiz-adv-x="1028" unicode="7"/><glyph d="M121 342q0 133 98 228.5t242 134.5q-135 37 -226.5 119.5t-91.5 209.5q0 170 131.5 261t311.5 91q176 0 309 -91t133 -261q0 -127 -91 -210t-226 -119q143 -39 240.5 -133.5t97.5 -229.5q0 -164 -132.5 -265.5t-330.5 -101.5q-201 0 -333 101.5t-132 265.5zM909 1022 q0 119 -92 188.5t-231.5 69.5t-231.5 -69.5t-92 -188.5q0 -66 37 -118t96.5 -82.5t102.5 -45t88 -22.5q45 8 88 23.5t102.5 45t96 81.5t36.5 118zM932 350q0 74 -41 133.5t-102.5 93t-112.5 52t-90 22.5q-39 -4 -91.5 -22.5t-112.5 -52t-101 -93t-41 -133.5 q0 -121 101 -194.5t245 -73.5q139 0 242.5 74.5t103.5 193.5z" glyph-name="eight" unicode="8"/><glyph d="M188 152l68 84q113 -152 299 -152q109 0 189.5 52t125.5 141.5t66.5 190.5t21.5 216v64q-53 -84 -164.5 -157t-236.5 -73q-195 0 -317.5 112.5t-122.5 321.5q0 178 125 307.5t333 129.5q106 0 192.5 -39t144 -104.5t95 -157t54 -191.5t16.5 -215q0 -109 -17.5 -208 t-58 -191.5t-99 -159t-148.5 -106.5t-199 -40q-232 1 -367 175zM950 858q-8 104 -45 194.5t-121 160t-204 69.5q-162 0 -253 -101.5t-91 -226.5q0 -162 94 -245.5t248 -83.5q111 0 212 64.5t160 168.5z" glyph-name="nine" horiz-adv-x="1196" unicode="9"/><glyph d="M133 913q0 37 26.5 64t63.5 27t64.5 -27t27.5 -64q0 -35 -27.5 -61.5t-64.5 -26.5t-63.5 26.5t-26.5 61.5zM133 72q0 35 26.5 61.5t63.5 26.5t64.5 -27t27.5 -61q0 -37 -27.5 -64.5t-64.5 -27.5t-63.5 27.5t-26.5 64.5z" glyph-name="colon" horiz-adv-x="448" unicode=":"/><glyph d="M223 825q-37 0 -63.5 27t-26.5 61q0 37 26.5 64t63.5 27t64.5 -27t27.5 -64q0 -35 -27.5 -61.5t-64.5 -26.5zM178 -252l-59 51q49 33 81.5 87.5t37.5 101.5l-21 -2q-37 0 -60.5 24.5t-23.5 61.5q0 35 25.5 61.5t62.5 26.5q43 0 74 -35t31 -96q0 -82 -42.5 -159 t-105.5 -122z" glyph-name="semicolon" horiz-adv-x="448" unicode=";"/><glyph d="M59 647v76l897 465v-101l-790 -403l790 -399v-101z" glyph-name="less" horiz-adv-x="1015" unicode="&lt;"/><glyph d="M59 842v86h897v-86h-897zM59 442v84h897v-84h-897z" glyph-name="equal" horiz-adv-x="1015" unicode="="/><glyph d="M59 184v101l791 399l-791 403v101l897 -465v-76z" glyph-name="greater" horiz-adv-x="1015" unicode=">"/><glyph d="M354 522q0 63 34 118.5t69 85.5t102 75q49 35 73.5 53t58.5 52t48.5 71t14.5 82q0 94 -73 157.5t-202 63.5q-223 0 -360 -184l-74 75q158 215 440 215q178 0 285 -91t107 -224q0 -80 -40 -148.5t-81 -102.5t-117 -85q-61 -43 -91 -65.5t-59.5 -65.5t-29.5 -88 q0 -59 61 -104l-82 -52q-84 70 -84 162zM367 72q0 35 26.5 61.5t63.5 26.5t63.5 -27t26.5 -61q0 -37 -26.5 -64.5t-63.5 -27.5t-63.5 27.5t-26.5 64.5z" glyph-name="question" horiz-adv-x="950" unicode="?"/><glyph d="M72 500q0 217 113.5 404.5t301 295t398.5 107.5q285 0 465 -189.5t180 -470.5q0 -221 -98.5 -347t-233.5 -126q-80 0 -129 51t-51 123l-2 12q-57 -80 -147.5 -133t-188.5 -53q-141 0 -227 89t-86 239q0 213 150.5 366.5t338.5 153.5q96 0 166 -47t100 -121l27 133h100 l-121 -577q-4 -25 -4 -39q0 -51 30 -82t73 -31q82 0 159.5 95.5t77.5 295.5q0 256 -163.5 424t-421.5 168q-297 0 -519.5 -224t-222.5 -515q0 -248 168 -415t424 -167q203 0 383 117l35 -51q-201 -129 -426 -129q-279 0 -464 185.5t-185 457.5zM1036 465l66 303 q-23 66 -82 118t-152 52q-162 0 -278.5 -132t-116.5 -298q0 -111 60.5 -180.5t166.5 -69.5q195 0 336 207z" glyph-name="at" horiz-adv-x="1603" unicode="@"/><glyph d="M1163 0l-137 336h-727l-137 -336h-131l559 1366h145l559 -1366h-131zM662 1251l-326 -809h653z" glyph-name="A" horiz-adv-x="1325" unicode="A"/><glyph d="M170 0v1366h561q172 0 274.5 -94t102.5 -254q0 -123 -70.5 -208t-169.5 -105q109 -16 188 -116t79 -220q0 -170 -104.5 -269.5t-287.5 -99.5h-573zM287 754h430q127 0 197.5 70.5t70.5 181.5q0 109 -70.5 181.5t-197.5 72.5h-430v-506zM287 106h438q135 0 211 73t76 198 q0 113 -76 191.5t-211 78.5h-438v-541z" glyph-name="B" horiz-adv-x="1257" unicode="B"/><glyph d="M807 -25q-291 0 -489.5 199t-198.5 508t198.5 508t489.5 199q307 0 502 -242l-99 -64q-66 90 -173 144.5t-230 54.5q-242 0 -403.5 -168t-161.5 -432q0 -262 162.5 -431t402.5 -169q123 0 230.5 54t172.5 145l99 -62q-197 -244 -502 -244z" glyph-name="C" horiz-adv-x="1376" unicode="C"/><glyph d="M170 0v1366h436q309 0 499.5 -197.5t190.5 -486.5q0 -291 -189 -486.5t-501 -195.5h-436zM287 106h319q262 0 415 164t153 412t-152 413t-416 165h-319v-1154z" glyph-name="D" horiz-adv-x="1417" unicode="D"/><glyph d="M170 0v1366h866v-106h-749v-506h735v-107h-735v-541h749v-106h-866z" glyph-name="E" horiz-adv-x="1155" unicode="E"/><glyph d="M170 0v1366h866v-106h-749v-506h735v-107h-735v-647h-117z" glyph-name="F" horiz-adv-x="1110" unicode="F"/><glyph d="M119 682q0 311 199.5 509t492.5 198q311 0 514 -234l-88 -63q-74 88 -185.5 139t-240.5 51q-244 0 -406.5 -168t-162.5 -432q0 -262 162.5 -432t406.5 -170q125 0 229.5 49t171.5 117v327h-516v105h633v-477q-203 -227 -518 -228q-293 0 -492.5 199t-199.5 510z" glyph-name="G" horiz-adv-x="1456" unicode="G"/><glyph d="M1153 0v649h-866v-649h-117v1366h117v-610h866v610h119v-1366h-119z" glyph-name="H" horiz-adv-x="1439" unicode="H"/><glyph d="M170 0v1366h117v-1366h-117z" glyph-name="I" horiz-adv-x="456" unicode="I"/><glyph d="M29 143l71 88q115 -150 273 -149q137 0 219 87t82 226v971h119v-971q0 -205 -117 -312.5t-297 -107.5q-221 0 -350 168z" glyph-name="J" horiz-adv-x="962" unicode="J"/><glyph d="M1001 0l-563 643l-151 -166v-477h-117v1366h117v-748l659 748h150l-582 -651l637 -715h-150z" glyph-name="K" horiz-adv-x="1200" unicode="K"/><glyph d="M170 0v1366h117v-1260h661v-106h-778z" glyph-name="L" horiz-adv-x="1032" unicode="L"/><glyph d="M1329 0v1212l-498 -1212h-45l-499 1212v-1212h-117v1366h174l465 -1133l463 1133h176v-1366h-119z" glyph-name="M" horiz-adv-x="1617" unicode="M"/><glyph d="M1147 0l-860 1180v-1180h-117v1366h119l856 -1163v1163h117v-1366h-115z" glyph-name="N" horiz-adv-x="1431" unicode="N"/><glyph d="M119 682q0 305 183 506t480 201q295 0 479.5 -201t184.5 -506t-184.5 -506t-479.5 -201q-297 0 -480 201t-183 506zM1323 682q0 264 -148.5 432t-392.5 168q-246 0 -393 -168t-147 -432q0 -262 147.5 -431t392.5 -169q242 0 391.5 169t149.5 431z" glyph-name="O" horiz-adv-x="1564" unicode="O"/><glyph d="M170 0v1366h512q190 0 301 -115.5t111 -283.5t-112 -284t-300 -116h-395v-567h-117zM971 967q0 129 -83 211t-218 82h-383v-586h383q135 0 218 82t83 211z" glyph-name="P" unicode="P"/><glyph d="M1446 682q0 -315 -193 -514l142 -150l-80 -73l-146 149q-164 -119 -387 -119q-297 0 -480 201t-183 506t183 506t480 201q295 0 479.5 -201t184.5 -506zM782 82q172 0 310 94l-211 219l82 76l211 -221q150 172 149 432q0 264 -148.5 432t-392.5 168q-246 0 -393 -168 t-147 -432q0 -262 147 -431t393 -169z" glyph-name="Q" horiz-adv-x="1564" unicode="Q"/><glyph d="M971 0l-383 565h-301v-565h-117v1366h510q180 0 298 -108.5t118 -290.5q0 -178 -109.5 -282.5t-269.5 -111.5l395 -573h-141zM973 967q0 129 -84 211t-219 82h-383v-588h383q135 0 219 83t84 212z" glyph-name="R" horiz-adv-x="1216" unicode="R"/><glyph d="M94 193l76 88q170 -199 426 -199q190 0 275 83t85 189q0 55 -22.5 100.5t-52 73t-87 53t-98.5 39t-114 31.5q-74 20 -110 31.5t-99.5 35t-96 48.5t-69.5 61.5t-53.5 86t-16.5 110.5q0 164 129 264.5t320 100.5q293 0 463 -193l-78 -86q-143 172 -391 172 q-137 0 -228.5 -70.5t-91.5 -181.5q0 -47 21.5 -85t49 -61.5t82 -46t93.5 -34.5t110 -31q88 -25 135.5 -40t121 -51t110.5 -74t66.5 -101.5t29.5 -143.5q0 -156 -116.5 -271.5t-368.5 -115.5q-322 1 -500 218z" glyph-name="S" horiz-adv-x="1189" unicode="S"/><glyph d="M518 0v1260h-446v106h1011v-106h-446v-1260h-119z" glyph-name="T" horiz-adv-x="1155" unicode="T"/><glyph d="M170 524v842h119v-840q0 -209 107.5 -326.5t305.5 -117.5q201 0 307.5 116.5t106.5 327.5v840h119v-842q0 -258 -136 -403.5t-397 -145.5q-258 0 -395 146.5t-137 402.5z" glyph-name="U" horiz-adv-x="1404" unicode="U"/><glyph d="M590 0l-559 1366h135l496 -1235l497 1235h135l-559 -1366h-145z" glyph-name="V" horiz-adv-x="1325" unicode="V"/><glyph d="M1217 0l-328 1174l-328 -1174h-131l-391 1366h131l330 -1202l336 1202h106l334 -1202l330 1202h131l-389 -1366h-131z" glyph-name="W" horiz-adv-x="1775" unicode="W"/><glyph d="M1137 0l-478 616l-475 -616h-147l551 700l-520 666h149l442 -580l445 580h147l-518 -664l549 -702h-145z" glyph-name="X" horiz-adv-x="1320" unicode="X"/><glyph d="M573 0v584l-542 782h141l461 -672l461 672h141l-543 -782v-584h-119z" glyph-name="Y" horiz-adv-x="1265" unicode="Y"/><glyph d="M102 0v102l824 1158h-824v106h971v-100l-823 -1160h837v-106h-985z" glyph-name="Z" horiz-adv-x="1189" unicode="Z"/><glyph d="M76 -389v1778h356v-89h-266v-1601h266v-88h-356z" glyph-name="bracketleft" horiz-adv-x="466" unicode="["/><glyph d="M0 1407h92l486 -1448h-93z" glyph-name="backslash" horiz-adv-x="577" unicode="\"/><glyph d="M35 -389v88h266v1601h-266v89h356v-1778h-356z" glyph-name="bracketright" horiz-adv-x="466" unicode="]"/><glyph d="M739 682l-301 600l-301 -600h-98l356 684h86l357 -684h-99z" glyph-name="asciicircum" horiz-adv-x="876" unicode="^"/><glyph d="M-6 -170v88h1167v-88h-1167z" glyph-name="underscore" horiz-adv-x="1155" unicode="_"/><glyph d="M352 1139l-352 295h127l315 -295h-90z" glyph-name="grave" horiz-adv-x="442" unicode="`"/><glyph d="M795 0v117q-129 -141 -336 -142q-137 0 -241.5 89.5t-104.5 240.5q0 154 103 241t243 87q209 0 336 -141v200q0 106 -76 167t-191 61q-182 0 -309 -146l-59 74q154 166 381 166q160 0 260 -80t100 -238v-696h-106zM795 195v217q-106 137 -299 137q-121 0 -196 -69.5 t-75 -176t75 -175.5t196 -69q195 1 299 136z" glyph-name="a" horiz-adv-x="1067" unicode="a"/><glyph d="M166 0v1366h106v-537q131 184 344 185q199 0 321 -142.5t122 -378t-122 -377t-321 -141.5q-106 0 -197 51.5t-147 131.5v-158h-106zM272 248q45 -74 135.5 -125t190.5 -51q162 0 254 118.5t92 303.5q0 186 -92 305t-254 119q-98 0 -189.5 -53.5t-136.5 -127.5v-489z" glyph-name="b" unicode="b"/><glyph d="M109 495.5q0 221.5 133 370t348 148.5q217 0 350 -168l-74 -66q-100 137 -270 137.5t-271.5 -119.5t-101.5 -302.5t101.5 -303t271.5 -120.5q168 0 270 139l74 -66q-133 -170 -350 -170q-215 0 -348 149.5t-133 371z" glyph-name="c" horiz-adv-x="1011" unicode="c"/><glyph d="M895 0v158q-55 -80 -146.5 -131.5t-197.5 -51.5q-199 0 -320.5 141.5t-121.5 377.5q0 233 122.5 376.5t319.5 143.5q213 0 344 -185v537h109v-1366h-109zM895 248v489q-45 76 -135 128.5t-191 52.5q-160 0 -253 -120t-93 -304.5t93.5 -303t252.5 -118.5q100 0 190.5 51 t135.5 125z" glyph-name="d" unicode="d"/><glyph d="M109 496q0 217 136 367.5t341 150.5q217 0 342 -150.5t125 -374.5v-28h-828q8 -168 112.5 -280.5t274.5 -112.5q197 0 324 137l55 -70q-154 -160 -387 -160q-217 0 -356 146t-139 375zM584 922q-162 0 -257.5 -116t-101.5 -261h719q-2 143 -95 260t-265 117z" glyph-name="e" horiz-adv-x="1161" unicode="e"/><glyph d="M201 0v895h-164v94h164v90q0 145 71.5 226t196.5 81q80 0 133 -30l-33 -84q-39 23 -90 22q-172 0 -172 -215v-90h201v-94h-201v-895h-106z" glyph-name="f" horiz-adv-x="542" unicode="f"/><glyph d="M168 -252l61 82q63 -76 139 -107.5t189 -31.5q147 0 242.5 78.5t95.5 238.5v156q-55 -80 -146.5 -132t-197.5 -52q-199 0 -320.5 140t-121.5 376q0 233 122.5 375.5t319.5 142.5q213 0 344 -185v160h109v-979q0 -213 -124 -312t-323 -99q-129 0 -217 31.5t-172 117.5z M895 256v481q-45 76 -135 128.5t-191 52.5q-160 0 -253 -119t-93 -303.5t93.5 -302t252.5 -117.5q100 0 190.5 52t135.5 128z" glyph-name="g" horiz-adv-x="1167" unicode="g"/><glyph d="M834 0v674q0 135 -61.5 189.5t-178.5 54.5q-92 0 -182 -49.5t-140 -120.5v-748h-106v1366h106v-526q59 70 157.5 122t199.5 52q311 0 311 -318v-696h-106z" glyph-name="h" horiz-adv-x="1105" unicode="h"/><glyph d="M219 1153q-33 0 -57.5 24.5t-24.5 57.5t24.5 57.5t57.5 24.5q35 0 58.5 -23.5t23.5 -58.5t-23.5 -58.5t-58.5 -23.5zM166 0v989h106v-989h-106z" glyph-name="i" horiz-adv-x="438" unicode="i"/><glyph d="M219 1153q-33 0 -57.5 24.5t-24.5 57.5t24.5 57.5t57.5 24.5q35 0 58.5 -23.5t23.5 -58.5t-23.5 -58.5t-58.5 -23.5zM272 989v-1116q0 -135 -68.5 -204.5t-193.5 -69.5q-59 0 -112 16l20 92q43 -14 84 -14q164 0 164 180v1116h106z" glyph-name="j" horiz-adv-x="438" unicode="j"/><glyph d="M852 0l-395 471l-185 -174v-297h-106v1366h106v-942l584 565h141l-460 -446l458 -543h-143z" glyph-name="k" horiz-adv-x="1034" unicode="k"/><glyph d="M166 0v1366h106v-1366h-106z" glyph-name="l" horiz-adv-x="438" unicode="l"/><glyph d="M1343 0v692q0 225 -198 226q-78 0 -159 -49.5t-124 -118.5v-750h-108v692q0 225 -199 226q-76 0 -156 -50.5t-127 -119.5v-748h-106v989h106v-149q37 59 130.5 116.5t189.5 57.5q109 0 174 -53.5t86 -133.5q45 74 137 130.5t191 56.5q270 0 270 -301v-713h-107z" glyph-name="m" horiz-adv-x="1615" unicode="m"/><glyph d="M834 0v670q0 135 -61.5 191.5t-178.5 56.5q-92 0 -182 -49.5t-140 -120.5v-748h-106v989h106v-149q59 70 157.5 122t199.5 52q311 0 311 -322v-692h-106z" glyph-name="n" horiz-adv-x="1105" unicode="n"/><glyph d="M584 -25q-213 0 -344 149.5t-131 371t131 370t344 148.5q215 0 346 -148.5t131 -370t-131 -371t-346 -149.5zM584 72q168 0 265 123.5t97 300.5q0 174 -97 298t-265 124q-166 0 -263.5 -124t-97.5 -298t97.5 -299t263.5 -125z" glyph-name="o" unicode="o"/><glyph d="M272 -377h-106v1366h106v-155q55 80 146.5 130t197.5 50q199 0 321 -140.5t122 -377.5q0 -236 -122 -378.5t-321 -142.5q-213 0 -344 185v-537zM944 496q0 184 -92 303t-254 119q-100 0 -190.5 -51.5t-135.5 -125.5v-489q45 -74 136.5 -127t189.5 -53q162 0 254 119 t92 305z" glyph-name="p" horiz-adv-x="1167" unicode="p"/><glyph d="M1004 -377h-109v537q-131 -184 -344 -185q-199 0 -320.5 142.5t-121.5 378.5q0 238 121.5 378t320.5 140q106 0 197.5 -50.5t146.5 -129.5v155h109v-1366zM895 252v489q-45 74 -135 125.5t-191 51.5q-160 0 -253 -119t-93 -303.5t93.5 -304t252.5 -119.5q98 0 189.5 53 t136.5 127z" glyph-name="q" horiz-adv-x="1167" unicode="q"/><glyph d="M166 0v989h106v-170q145 190 334 191v-117q-18 4 -53 4q-74 0 -160 -55.5t-121 -120.5v-721h-106z" glyph-name="r" horiz-adv-x="649" unicode="r"/><glyph d="M80 131l63 80q51 -63 135 -104t185 -41q123 0 193.5 54t70.5 142q0 37 -16.5 66.5t-39 48t-64.5 36t-71.5 27t-84.5 23.5q-70 16 -103 25.5t-89 33t-84 49t-50.5 69.5t-22.5 99q0 117 95.5 196t257.5 79q223 0 354 -146l-59 -75q-96 131 -295 131q-113 0 -180.5 -50.5 t-67.5 -128.5q0 -33 16.5 -59.5t36 -41.5t61 -31.5t67.5 -23.5t83 -22q70 -18 104.5 -28.5t93 -35t87 -53t52 -75.5t23.5 -109q0 -127 -96 -209t-274 -82q-240 0 -381 156z" glyph-name="s" horiz-adv-x="940" unicode="s"/><glyph d="M381 -25q-195 0 -195 215v705h-163v94h163v271h109v-271h201v-94h-201v-688q0 -135 102 -135q68 0 111 47l41 -82q-66 -62 -168 -62z" glyph-name="t" horiz-adv-x="563" unicode="t"/><glyph d="M834 0v145q-68 -74 -162 -122t-195 -48q-156 0 -233.5 77t-77.5 241v696h106v-672q0 -137 61.5 -191t178.5 -54q92 0 181 47t141 117v753h106v-989h-106z" glyph-name="u" horiz-adv-x="1105" unicode="u"/><glyph d="M432 0l-418 989h119l361 -864l356 864h121l-418 -989h-121z" glyph-name="v" horiz-adv-x="985" unicode="v"/><glyph d="M1014 0l-277 846l-278 -846h-103l-321 989h115l262 -839l278 839h92l279 -839l262 839h115l-322 -989h-102z" glyph-name="w" horiz-adv-x="1472" unicode="w"/><glyph d="M819 0l-327 436l-330 -436h-127l391 508l-369 481h127l308 -407l305 407h127l-369 -481l391 -508h-127z" glyph-name="x" horiz-adv-x="980" unicode="x"/><glyph d="M850 989h121l-512 -1206q-78 -184 -254 -184q-57 0 -105 14l19 98q37 -16 86 -16q100 0 149 121l78 176l-418 997h119l361 -864z" glyph-name="y" horiz-adv-x="985" unicode="y"/><glyph d="M115 0v88l585 807h-585v94h723v-86l-592 -809h600v-94h-731z" glyph-name="z" horiz-adv-x="960" unicode="z"/><glyph d="M348 -389q-90 0 -159.5 70.5t-69.5 181.5v450q0 61 -28 103.5t-79 42.5v82q51 0 79 42t28 103v449q0 111 69.5 182.5t159.5 71.5h127v-89h-127q-57 0 -97 -47t-40 -118v-455q0 -139 -94 -180q94 -41 94 -181v-454q0 -72 40 -119t97 -47h127v-88h-127z" glyph-name="braceleft" horiz-adv-x="509" unicode="{"/><glyph d="M170 -41v1448h88v-1448h-88z" glyph-name="bar" horiz-adv-x="425" unicode="|"/><glyph d="M35 -301h127q57 0 97 47t40 119v454q0 139 94 181q-94 41 -94 180v455q0 72 -40 118.5t-97 46.5h-127v89h127q90 0 159.5 -72t69.5 -182v-449q0 -61 27.5 -103t79.5 -42v-82q-51 0 -79 -42t-28 -104v-450q0 -111 -69.5 -181.5t-159.5 -70.5h-127v88z" glyph-name="braceright" horiz-adv-x="509" unicode="}"/><glyph d="M967 1356q-10 -102 -26.5 -180t-47.5 -151t-81 -110.5t-120 -37.5q-49 0 -86 18t-63.5 58t-38.5 70t-33 85q-16 45 -25.5 66.5t-27 50t-39 41t-49.5 12.5q-147 0 -185 -404l-90 13q23 217 84.5 346t190.5 129q49 0 86 -18.5t63.5 -58.5t38.5 -69.5t33 -85.5 q23 -59 35 -86.5t40.5 -56.5t65.5 -29q147 0 187 408z" glyph-name="asciitilde" horiz-adv-x="1021" unicode="~"/><glyph glyph-name="uni00A0" horiz-adv-x="530" unicode=" "/><glyph d="M223 1008q37 0 64.5 -27t27.5 -61q0 -37 -27.5 -64t-64.5 -27t-62.5 27t-25.5 64q0 35 25.5 61.5t62.5 26.5zM182 633h84l29 -1010h-139z" glyph-name="exclamdown" horiz-adv-x="448" unicode="¡"/><glyph d="M618 74q150 6 248 137l74 -66q-127 -160 -322 -168v-182h-92v185q-188 23 -302.5 167t-114.5 349q0 203 114.5 347t302.5 167v147h92v-145q197 -8 322 -166l-74 -66q-98 129 -248 135v-841zM223 495.5q0 -161.5 81 -277.5t222 -140v833q-141 -25 -222 -139.5t-81 -276z " glyph-name="cent" horiz-adv-x="1011" unicode="¢"/><glyph d="M958 164l56 -96q-100 -96 -264 -97q-96 0 -195 52q-94 45 -172 45q-86 0 -242 -82l-45 98q141 59 216 148.5t75 189.5q0 66 -33 125h-317v86h254q-2 2 -35 41q-51 57 -75.5 89t-51.5 96.5t-27 133.5q0 162 127 277.5t316 115.5q127 0 230.5 -59t154.5 -162l-94 -59 q-31 72 -109 125t-174 53q-137 0 -231.5 -79t-94.5 -214q0 -61 23.5 -118.5t45 -87t69.5 -83.5q29 -33 57 -69h309v-86h-258q20 -55 21 -109q0 -166 -166 -286q51 18 110 18q66 0 168 -47q86 -43 148 -43q66 0 122.5 26.5t81.5 57.5z" glyph-name="sterling" horiz-adv-x="1034" unicode="£"/><glyph d="M1075 682q0 -178 -98 -307l164 -162l-70 -68l-160 158q-129 -106 -311 -106q-180 0 -309 108l-160 -160l-70 68l162 162q-96 127 -96 307t98 309l-166 166l70 68l164 -164q127 104 307 104q182 0 309 -104l162 162l70 -68l-164 -164q98 -129 98 -309zM600 297 q168 0 265.5 112.5t97.5 272.5q0 158 -97.5 270.5t-265.5 112.5q-166 0 -264 -112.5t-98 -270.5q0 -160 98 -272.5t264 -112.5z" glyph-name="currency" horiz-adv-x="1204" unicode="¤"/><glyph d="M1235 1366l-485 -696h473v-86h-531v-242h531v-84h-531v-258h-119v258h-528v84h528v242h-528v86h471l-485 696h141l461 -672l461 672h141z" glyph-name="yen" horiz-adv-x="1265" unicode="¥"/><glyph d="M170 760v647h88v-647h-88zM170 -41v647h88v-647h-88z" glyph-name="brokenbar" horiz-adv-x="425" unicode="¦"/><glyph d="M635 375q197 -74 196 -248q0 -137 -101 -215t-269 -78q-231 0 -381 158l63 74q119 -147 318 -148q117 0 191.5 55.5t74.5 149.5q0 37 -16.5 66.5t-40 49t-65.5 37t-73.5 26.5t-87.5 22q-70 18 -100.5 28t-87.5 35t-83 49.5t-48.5 67.5t-22.5 98q0 104 70 171t182 93 q-123 37 -187.5 94.5t-64.5 155.5q0 113 94.5 191.5t258.5 78.5q229 0 352 -147l-57 -68q-100 131 -293 132q-111 0 -180.5 -52.5t-69.5 -136.5q0 -41 19.5 -70.5t64.5 -50t78.5 -31t103.5 -28.5q66 -14 104.5 -25.5t94 -35t85 -52t52 -76t22.5 -108.5q1 -178 -196 -262z M469 834q-145 -39 -203.5 -93.5t-58.5 -132.5q0 -45 23.5 -77.5t67.5 -53t94 -36t114 -29.5q18 -4 29 -6q190 82 190 223q0 47 -21.5 81.5t-63.5 58.5t-79 37.5t-92 27.5z" glyph-name="section" horiz-adv-x="944" unicode="§"/><glyph d="M209 1163q-31 0 -53.5 22.5t-22.5 55.5q0 31 22.5 53.5t53.5 22.5t53.5 -22.5t22.5 -53.5q0 -33 -22.5 -55.5t-53.5 -22.5zM626.5 1163q-30.5 0 -53 22.5t-22.5 55.5q0 31 22.5 53.5t53 22.5t54.5 -22.5t24 -53.5q0 -33 -24 -55.5t-54.5 -22.5z" glyph-name="dieresis" horiz-adv-x="835" unicode="¨"/><glyph d="M797 -25q-293 0 -500 207t-207 500t207 500t500 207t499.5 -207t206.5 -500t-206.5 -500t-499.5 -207zM796.5 1331q-268.5 0 -459 -190.5t-190.5 -458.5t190.5 -458.5t459 -190.5t459 190.5t190.5 458.5t-190.5 458.5t-459 190.5zM1096 379q-117 -135 -297 -135 q-178 0 -302 128t-124 314t124 311t302 125q184 0 297 -133l-47 -45q-39 53 -108 85t-142 32q-145 0 -252 -105.5t-107 -271.5q0 -162 106.5 -270.5t252.5 -108.5q74 0 143.5 33t108.5 86z" glyph-name="copyright" horiz-adv-x="1593" unicode="©"/><glyph d="M549 668v75q-86 -92 -225 -92q-92 0 -161 58.5t-69 157t68.5 154.5t161.5 56q139 0 225 -90v125q0 68 -51.5 105.5t-122.5 37.5q-127 0 -205 -98l-45 57q104 113 260 113q111 0 180.5 -53t69.5 -162v-444h-86zM549 799v133q-66 84 -193 84q-76 0 -125 -42t-49 -108 q0 -68 49.5 -110.5t124.5 -42.5q125 0 193 86z" glyph-name="ordfeminine" horiz-adv-x="768" unicode="ª"/><glyph d="M389 129l-328 369l328 362h117l-328 -362l328 -369h-117zM645 129l-328 369l328 362h117l-328 -362l328 -369h-117z" glyph-name="guillemotleft" horiz-adv-x="823" unicode="«"/><glyph d="M956 442h-88v400h-809v86h897v-486z" glyph-name="logicalnot" horiz-adv-x="1021" unicode="¬"/><glyph d="M61 446v99h492v-99h-492z" glyph-name="uni00AD" horiz-adv-x="614" unicode="­"/><glyph d="M506 518q-180 0 -307 127t-127 307.5t127 307t307 126.5q182 0 308 -125.5t126 -308.5q0 -180 -127 -307t-307 -127zM506 1331q-158 0 -268.5 -110.5t-110.5 -268.5q0 -156 111.5 -267.5t267.5 -111.5t267.5 112t111.5 267q0 158 -110.5 268.5t-268.5 110.5zM627 702 l-129 197h-95v-197h-61v498h203q66 0 109.5 -42t43.5 -109q0 -72 -46 -110t-81 -38l134 -199h-78zM545 1143h-142v-185h142q39 0 64.5 26t25.5 65q0 41 -25.5 67.5t-64.5 26.5z" glyph-name="registered" horiz-adv-x="1011" unicode="®"/><glyph d="M70 1182v75h604v-75h-604z" glyph-name="macron" horiz-adv-x="743" unicode="¯"/><glyph d="M287 911q-98 0 -167 69t-69 167t68.5 168.5t167.5 70.5q100 0 169.5 -70.5t69.5 -168.5t-69.5 -167t-169.5 -69zM287 1307q-63 0 -109.5 -47.5t-46.5 -113t45 -110.5t110.5 -45t112.5 46t47 110q0 66 -46.5 113t-112.5 47z" glyph-name="degree" horiz-adv-x="577" unicode="°"/><glyph d="M555 662v-447h-92v447h-404v83h404v435h92v-435h401v-83h-401zM59 0v84h897v-84h-897z" glyph-name="plusminus" horiz-adv-x="1015" unicode="±"/><glyph d="M106 862v72q250 178 366 296t116 224q0 82 -55.5 122t-135.5 40q-154 0 -231 -107l-55 58q98 127 288 127q113 0 196 -59.5t83 -176.5q0 -123 -111.5 -243.5t-324.5 -274.5h440v-78h-576z" glyph-name="uni00B2" horiz-adv-x="786" unicode="²"/><glyph d="M389 848q-100 0 -178 37t-117 96l53 57q86 -113 240 -112q96 0 150.5 42t54.5 117q0 82 -62.5 121t-162.5 39q-66 0 -78 -2v80q14 -2 78 -2q94 0 153.5 36t59.5 111q0 70 -56.5 109t-140.5 39q-133 0 -227 -103l-52 56q106 125 285 125q123 0 202 -58.5t79 -158.5 q0 -84 -56.5 -132.5t-126.5 -58.5q70 -6 133.5 -58t63.5 -145q0 -104 -80 -169.5t-215 -65.5z" glyph-name="uni00B3" horiz-adv-x="786" unicode="³"/><glyph d="M90 1139h-90l315 295h127z" glyph-name="acute" horiz-adv-x="442" unicode="´"/><glyph d="M272 -377h-106v1366h106v-672q0 -250 242 -249q90 0 179 49t141 119v753h106v-786q0 -131 100 -131q25 0 41 4l9 -94q-25 -6 -64 -7q-166 0 -190 177q-59 -76 -148.5 -126.5t-181.5 -50.5q-172 0 -234 115v-467z" glyph-name="uni00B5" horiz-adv-x="1134" unicode="µ"/><glyph d="M676 -205v1495h-191v-1495h-77v867q-145 0 -249 103t-104 248.5t103.5 249t249.5 103.5h346v-1571h-78z" glyph-name="paragraph" horiz-adv-x="919" unicode="¶"/><glyph d="M223 412q-37 0 -63.5 26.5t-26.5 63.5q0 35 26.5 61.5t63.5 26.5t64.5 -26.5t27.5 -61.5q0 -37 -27.5 -63.5t-64.5 -26.5z" glyph-name="periodcentered" horiz-adv-x="448" unicode="·"/><glyph d="M0 -328l33 66q72 -57 164 -57q57 0 95 25.5t38 72.5q0 74 -84 74q-51 0 -82 -35l-58 32l64 173h78l-53 -140q31 25 75 25q59 0 97.5 -36t38.5 -93q0 -76 -59.5 -121t-147.5 -45q-129 0 -199 59z" glyph-name="cedilla" horiz-adv-x="405" unicode="¸"/><glyph d="M221 862v699l-131 -142l-55 60l198 202h82v-819h-94z" glyph-name="uni00B9" horiz-adv-x="438" unicode="¹"/><glyph d="M90 989.5q0 143.5 90 240.5t234 97q145 0 235 -96t90 -242q0 -143 -90 -240.5t-235 -97.5q-143 0 -233.5 97.5t-90.5 241zM649 989q0 111 -63.5 185.5t-171.5 74.5q-106 0 -169 -73.5t-63 -186t62.5 -187.5t169.5 -75q109 0 172 74.5t63 187.5z" glyph-name="ordmasculine" horiz-adv-x="829" unicode="º"/><glyph d="M178 129h-117l328 369l-328 362h117l328 -362zM434 129h-117l328 369l-328 362h117l328 -362z" glyph-name="guillemotright" horiz-adv-x="823" unicode="»"/><glyph d="M221 547v698l-131 -141l-55 59l198 203h82v-819h-94zM268 0h-92l873 1366h94zM1270 219v-219h-90v219h-402v72l367 528h125v-524h123v-76h-123zM1180 735l-308 -440h308v440z" glyph-name="onequarter" horiz-adv-x="1476" unicode="¼"/><glyph d="M221 547v698l-131 -141l-55 59l198 203h82v-819h-94zM268 0h-92l873 1366h94zM899 0v72q250 178 365.5 295.5t115.5 224.5q0 82 -55 122t-135 40q-154 0 -232 -107l-55 58q98 127 289 126q113 0 195.5 -59t82.5 -176q0 -123 -111.5 -244t-324.5 -274h441v-78h-576z" glyph-name="onehalf" horiz-adv-x="1579" unicode="½"/><glyph d="M389 532q-100 0 -178 37t-117 97l53 57q86 -113 240 -113q96 0 150.5 42t54.5 118q0 82 -62.5 121t-162.5 39q-66 0 -78 -2v80q14 -2 78 -2q94 0 153.5 35.5t59.5 111.5q0 70 -56.5 108.5t-140.5 38.5q-133 0 -227 -102l-52 55q106 125 285 125q123 0 202 -58t79 -159 q0 -84 -56.5 -132t-126.5 -58q70 -6 133.5 -58.5t63.5 -144.5q0 -104 -80 -170t-215 -66zM528 0h-92l873 1366h94zM1530 219v-219h-90v219h-402v72l367 528h125v-524h123v-76h-123zM1440 735l-307 -440h307v440z" glyph-name="threequarters" horiz-adv-x="1736" unicode="¾"/><glyph d="M586 918q0 -35 -28 -62t-64.5 -27t-63.5 27t-27 62q0 37 27 63.5t63.5 26.5t64.5 -26.5t28 -63.5zM598 461q0 -49 -15.5 -89t-52 -77t-61.5 -55.5t-78 -57.5q-49 -35 -73.5 -53t-58.5 -52t-48 -71t-14 -82q0 -94 73.5 -157.5t202.5 -63.5q125 0 208 47t150 137l74 -75 q-158 -215 -440 -215q-178 0 -284.5 91t-106.5 224q0 61 18.5 111.5t60.5 93.5t71.5 67.5t86.5 63.5q63 45 92 67.5t59 65.5t30 88q0 59 -62 102l82 52q86 -70 86 -162z" glyph-name="questiondown" horiz-adv-x="804" unicode="¿"/><glyph d="M616 1481l-352 295h127l316 -295h-91zM1163 0l-137 336h-727l-137 -336h-131l559 1366h145l559 -1366h-131zM662 1251l-326 -809h653z" glyph-name="Agrave" horiz-adv-x="1325" unicode="À"/><glyph d="M705 1481h-91l316 295h127zM1163 0l-137 336h-727l-137 -336h-131l559 1366h145l559 -1366h-131zM662 1251l-326 -809h653z" glyph-name="Aacute" horiz-adv-x="1325" unicode="Á"/><glyph d="M840 1481l-176 231l-175 -231h-79l198 295h111l203 -295h-82zM1163 0l-137 336h-727l-137 -336h-131l559 1366h145l559 -1366h-131zM662 1251l-326 -809h653z" glyph-name="Acircumflex" horiz-adv-x="1325" unicode="Â"/><glyph d="M633 1595q-51 92 -103 93q-49 0 -79.5 -49.5t-30.5 -149.5h-72q0 119 50.5 196.5t140.5 77.5q39 0 69.5 -20.5t45 -40t38.5 -57.5q20 -33 29.5 -46.5t30 -29t43.5 -15.5q49 0 78.5 49.5t29.5 147.5h74q0 -121 -49 -197.5t-140 -76.5q-41 0 -72.5 20.5t-44.5 38.5t-38 59z M1163 0l-137 336h-727l-137 -336h-131l559 1366h145l559 -1366h-131zM662 1251l-326 -809h653z" glyph-name="Atilde" horiz-adv-x="1325" unicode="Ã"/><glyph d="M452.5 1505q-30.5 0 -53 22.5t-22.5 55.5q0 31 22.5 53.5t53 22.5t53 -22.5t22.5 -53.5q0 -33 -22.5 -55.5t-53 -22.5zM870.5 1505q-30.5 0 -53 22.5t-22.5 55.5q0 31 22.5 53.5t53 22.5t54 -22.5t23.5 -53.5q0 -33 -23.5 -55.5t-54 -22.5zM1163 0l-137 336h-727 l-137 -336h-131l559 1366h145l559 -1366h-131zM662 1251l-326 -809h653z" glyph-name="Adieresis" horiz-adv-x="1325" unicode="Ä"/><glyph d="M467 1661q0 80 57.5 138.5t139.5 58.5q80 0 136 -58.5t56 -138.5q0 -82 -56.5 -139.5t-135.5 -57.5q-82 0 -139.5 57.5t-57.5 139.5zM793 1661q0 53 -38 92t-91.5 39t-92.5 -39t-39 -92t39 -92t92.5 -39t91.5 39t38 92zM1163 0l-137 336h-727l-137 -336h-131l559 1366 h145l559 -1366h-131zM662 1251l-326 -809h653z" glyph-name="Aring" horiz-adv-x="1325" unicode="Å"/><glyph d="M934 0v336h-563l-211 -336h-131l862 1366h909v-106h-747v-506h733v-107h-733v-541h747v-106h-866zM934 1253l-506 -811h506v811z" glyph-name="AE" horiz-adv-x="1923" unicode="Æ"/><glyph d="M1309 219q-188 -236 -480 -244l-34 -90q33 23 75 23q59 0 97.5 -36t38.5 -93q0 -76 -59.5 -121t-147.5 -45q-129 0 -199 59l33 66q72 -57 164 -57q57 0 95 25.5t38 72.5q0 74 -84 74q-51 0 -82 -35l-57 32l47 127q-274 20 -454.5 215t-180.5 490q0 309 198.5 508 t489.5 199q307 0 502 -242l-99 -64q-66 90 -173 144.5t-230 54.5q-242 0 -403.5 -168t-161.5 -432q0 -262 162.5 -431t402.5 -169q123 0 230.5 54t172.5 145z" glyph-name="Ccedilla" horiz-adv-x="1376" unicode="Ç"/><glyph d="M567 1481l-352 295h127l315 -295h-90zM170 0v1366h866v-106h-749v-506h735v-107h-735v-541h749v-106h-866z" glyph-name="Egrave" horiz-adv-x="1155" unicode="È"/><glyph d="M655 1481h-90l316 295h127zM170 0v1366h866v-106h-749v-506h735v-107h-735v-541h749v-106h-866z" glyph-name="Eacute" horiz-adv-x="1155" unicode="É"/><glyph d="M791 1481l-177 231l-174 -231h-80l199 295h111l202 -295h-81zM170 0v1366h866v-106h-749v-506h735v-107h-735v-541h749v-106h-866z" glyph-name="Ecircumflex" horiz-adv-x="1155" unicode="Ê"/><glyph d="M403.5 1505q-30.5 0 -53 22.5t-22.5 55.5q0 31 22.5 53.5t53 22.5t53 -22.5t22.5 -53.5q0 -33 -22.5 -55.5t-53 -22.5zM821.5 1505q-30.5 0 -53.5 22.5t-23 55.5q0 31 23 53.5t53.5 22.5t54 -22.5t23.5 -53.5q0 -33 -23.5 -55.5t-54 -22.5zM170 0v1366h866v-106h-749 v-506h735v-107h-735v-541h749v-106h-866z" glyph-name="Edieresis" horiz-adv-x="1155" unicode="Ë"/><glyph d="M184 1481l-352 295h125l317 -295h-90zM170 0v1366h117v-1366h-117z" glyph-name="Igrave" horiz-adv-x="456" unicode="Ì"/><glyph d="M270 1481h-90l316 295h127zM170 0v1366h117v-1366h-117z" glyph-name="Iacute" horiz-adv-x="456" unicode="Í"/><glyph d="M406 1481l-179 231l-172 -231h-80l199 295h111l202 -295h-81zM170 0v1366h117v-1366h-117z" glyph-name="Icircumflex" horiz-adv-x="456" unicode="Î"/><glyph d="M20.5 1505q-30.5 0 -53 22.5t-22.5 55.5q0 31 22.5 53.5t53 22.5t53 -22.5t22.5 -53.5q0 -33 -22.5 -55.5t-53 -22.5zM438.5 1505q-30.5 0 -53.5 22.5t-23 55.5q0 31 23 53.5t53.5 22.5t54 -22.5t23.5 -53.5q0 -33 -23.5 -55.5t-54 -22.5zM170 0v1366h117v-1366h-117z " glyph-name="Idieresis" horiz-adv-x="456" unicode="Ï"/><glyph d="M666 1366q311 0 501.5 -197.5t190.5 -486.5q0 -291 -189.5 -486.5t-502.5 -195.5h-437v629h-206v96h206v641h437zM666 106q262 0 414.5 164t152.5 412t-151.5 413t-415.5 165h-318v-535h367v-96h-367v-523h318z" glyph-name="Eth" horiz-adv-x="1476" unicode="Ð"/><glyph d="M688 1595q-51 92 -102 93q-49 0 -80 -49.5t-31 -149.5h-72q0 119 50.5 196.5t140.5 77.5q39 0 69.5 -20.5t45 -40t39.5 -57.5q20 -33 29 -46.5t29.5 -29t43.5 -15.5q49 0 78.5 49.5t29.5 147.5h74q0 -121 -49 -197.5t-139 -76.5q-41 0 -73 20.5t-45 38.5t-38 59zM1147 0 l-860 1180v-1180h-117v1366h119l856 -1163v1163h117v-1366h-115z" glyph-name="Ntilde" horiz-adv-x="1431" unicode="Ñ"/><glyph d="M737 1481l-352 295h127l315 -295h-90zM119 682q0 305 183 506t480 201q295 0 479.5 -201t184.5 -506t-184.5 -506t-479.5 -201q-297 0 -480 201t-183 506zM1323 682q0 264 -148.5 432t-392.5 168q-246 0 -393 -168t-147 -432q0 -262 147.5 -431t392.5 -169 q242 0 391.5 169t149.5 431z" glyph-name="Ograve" horiz-adv-x="1564" unicode="Ò"/><glyph d="M823 1481h-90l316 295h127zM119 682q0 305 183 506t480 201q295 0 479.5 -201t184.5 -506t-184.5 -506t-479.5 -201q-297 0 -480 201t-183 506zM1323 682q0 264 -148.5 432t-392.5 168q-246 0 -393 -168t-147 -432q0 -262 147.5 -431t392.5 -169q242 0 391.5 169 t149.5 431z" glyph-name="Oacute" horiz-adv-x="1564" unicode="Ó"/><glyph d="M958 1481l-176 231l-174 -231h-80l199 295h111l202 -295h-82zM119 682q0 305 183 506t480 201q295 0 479.5 -201t184.5 -506t-184.5 -506t-479.5 -201q-297 0 -480 201t-183 506zM1323 682q0 264 -148.5 432t-392.5 168q-246 0 -393 -168t-147 -432q0 -262 147.5 -431 t392.5 -169q242 0 391.5 169t149.5 431z" glyph-name="Ocircumflex" horiz-adv-x="1564" unicode="Ô"/><glyph d="M754 1595q-51 92 -103 93q-49 0 -79.5 -49.5t-30.5 -149.5h-72q0 119 50 196.5t140 77.5q39 0 70 -20.5t45 -40t39 -57.5q20 -33 29.5 -46.5t30 -29t42.5 -15.5q49 0 79 49.5t30 147.5h74q0 -121 -49.5 -197.5t-139.5 -76.5q-41 0 -72.5 20.5t-44.5 38.5t-38 59zM119 682 q0 305 183 506t480 201q295 0 479.5 -201t184.5 -506t-184.5 -506t-479.5 -201q-297 0 -480 201t-183 506zM1323 682q0 264 -148.5 432t-392.5 168q-246 0 -393 -168t-147 -432q0 -262 147.5 -431t392.5 -169q242 0 391.5 169t149.5 431z" glyph-name="Otilde" horiz-adv-x="1564" unicode="Õ"/><glyph d="M573.5 1505q-30.5 0 -53 22.5t-22.5 55.5q0 31 22.5 53.5t53 22.5t53 -22.5t22.5 -53.5q0 -33 -22.5 -55.5t-53 -22.5zM991.5 1505q-30.5 0 -53.5 22.5t-23 55.5q0 31 23 53.5t53.5 22.5t54 -22.5t23.5 -53.5q0 -33 -23.5 -55.5t-54 -22.5zM119 682q0 305 183 506 t480 201q295 0 479.5 -201t184.5 -506t-184.5 -506t-479.5 -201q-297 0 -480 201t-183 506zM1323 682q0 264 -148.5 432t-392.5 168q-246 0 -393 -168t-147 -432q0 -262 147.5 -431t392.5 -169q242 0 391.5 169t149.5 431z" glyph-name="Odieresis" horiz-adv-x="1564" unicode="Ö"/><glyph d="M508 625l-309 -312l-62 60l312 311l-312 311l62 60l309 -312l311 312l60 -60l-312 -311l312 -311l-60 -60z" glyph-name="multiply" horiz-adv-x="1015" unicode="×"/><glyph d="M1192 1251q121 -96 187.5 -244.5t66.5 -324.5q0 -305 -184.5 -506t-479.5 -201q-190 0 -344 91l-41 -66h-104l74 117q-119 96 -183.5 242.5t-64.5 322.5q0 305 183 506t480 201q188 0 336 -86l41 63h107zM242 682q0 -299 186 -469l631 995q-121 74 -277 74 q-246 0 -393 -168t-147 -432zM782 82q242 0 391.5 169t149.5 431q0 307 -193 473l-632 -995q126 -78 284 -78z" glyph-name="Oslash" horiz-adv-x="1564" unicode="Ø"/><glyph d="M657 1481l-352 295h127l316 -295h-91zM170 524v842h119v-840q0 -209 107.5 -326.5t305.5 -117.5q201 0 307.5 116.5t106.5 327.5v840h119v-842q0 -258 -136 -403.5t-397 -145.5q-258 0 -395 146.5t-137 402.5z" glyph-name="Ugrave" horiz-adv-x="1404" unicode="Ù"/><glyph d="M745 1481h-90l316 295h127zM170 524v842h119v-840q0 -209 107.5 -326.5t305.5 -117.5q201 0 307.5 116.5t106.5 327.5v840h119v-842q0 -258 -136 -403.5t-397 -145.5q-258 0 -395 146.5t-137 402.5z" glyph-name="Uacute" horiz-adv-x="1404" unicode="Ú"/><glyph d="M881 1481l-176 231l-175 -231h-79l198 295h111l203 -295h-82zM170 524v842h119v-840q0 -209 107.5 -326.5t305.5 -117.5q201 0 307.5 116.5t106.5 327.5v840h119v-842q0 -258 -136 -403.5t-397 -145.5q-258 0 -395 146.5t-137 402.5z" glyph-name="Ucircumflex" horiz-adv-x="1404" unicode="Û"/><glyph d="M493.5 1505q-30.5 0 -53 22.5t-22.5 55.5q0 31 22.5 53.5t53 22.5t53 -22.5t22.5 -53.5q0 -33 -22.5 -55.5t-53 -22.5zM911.5 1505q-30.5 0 -53 22.5t-22.5 55.5q0 31 22.5 53.5t53 22.5t54 -22.5t23.5 -53.5q0 -33 -23.5 -55.5t-54 -22.5zM170 524v842h119v-840 q0 -209 107.5 -326.5t305.5 -117.5q201 0 307.5 116.5t106.5 327.5v840h119v-842q0 -258 -136 -403.5t-397 -145.5q-258 0 -395 146.5t-137 402.5z" glyph-name="Udieresis" horiz-adv-x="1404" unicode="Ü"/><glyph d="M676 1481h-90l315 295h127zM573 0v584l-542 782h141l461 -672l461 672h141l-543 -782v-584h-119z" glyph-name="Yacute" horiz-adv-x="1265" unicode="Ý"/><glyph d="M170 0v1366h117v-254h395q190 0 301 -116.5t111 -284.5t-112 -283t-300 -115h-395v-313h-117zM971 711q0 129 -84 212t-217 83h-383v-586h383q135 0 218 81t83 210z" glyph-name="Thorn" unicode="Þ"/><glyph d="M772 -25q-133 0 -216 41t-155 117l64 78q111 -145 307 -145q127 0 195.5 58t68.5 142q0 59 -44 100.5t-91 57.5t-139 41q-63 16 -99 26.5t-88.5 34t-80 49t-49 68.5t-21.5 98q0 57 31.5 106.5t62.5 74t88 61.5q45 27 69.5 45.5t46 48t21.5 60.5q0 70 -68.5 111.5 t-152.5 41.5q-104 0 -177 -67.5t-73 -180.5v-1042h-106v1042q0 147 98 245.5t258 98.5q135 0 232.5 -66.5t97.5 -174.5q0 -55 -28.5 -100.5t-58.5 -67t-85 -55.5q-51 -31 -75.5 -50.5t-50.5 -55.5t-26 -77q0 -39 18.5 -67.5t63.5 -49t75 -29.5t101 -28q66 -14 103 -25.5 t92 -35t85 -52t52.5 -75.5t22.5 -109q0 -123 -94.5 -208t-274.5 -85z" glyph-name="germandbls" horiz-adv-x="1183" unicode="ß"/><glyph d="M498 1139l-353 295h127l316 -295h-90zM795 0v117q-129 -141 -336 -142q-137 0 -241.5 89.5t-104.5 240.5q0 154 103 241t243 87q209 0 336 -141v200q0 106 -76 167t-191 61q-182 0 -309 -146l-59 74q154 166 381 166q160 0 260 -80t100 -238v-696h-106zM795 195v217 q-106 137 -299 137q-121 0 -196 -69.5t-75 -176t75 -175.5t196 -69q195 1 299 136z" glyph-name="agrave" horiz-adv-x="1067" unicode="à"/><glyph d="M584 1139h-90l315 295h127zM795 0v117q-129 -141 -336 -142q-137 0 -241.5 89.5t-104.5 240.5q0 154 103 241t243 87q209 0 336 -141v200q0 106 -76 167t-191 61q-182 0 -309 -146l-59 74q154 166 381 166q160 0 260 -80t100 -238v-696h-106zM795 195v217 q-106 137 -299 137q-121 0 -196 -69.5t-75 -176t75 -175.5t196 -69q195 1 299 136z" glyph-name="aacute" horiz-adv-x="1067" unicode="á"/><glyph d="M719 1139l-176 231l-174 -231h-80l198 295h111l203 -295h-82zM795 0v117q-129 -141 -336 -142q-137 0 -241.5 89.5t-104.5 240.5q0 154 103 241t243 87q209 0 336 -141v200q0 106 -76 167t-191 61q-182 0 -309 -146l-59 74q154 166 381 166q160 0 260 -80t100 -238v-696 h-106zM795 195v217q-106 137 -299 137q-121 0 -196 -69.5t-75 -176t75 -175.5t196 -69q195 1 299 136z" glyph-name="acircumflex" horiz-adv-x="1067" unicode="â"/><glyph d="M514 1253q-51 92 -102 93q-49 0 -80 -49.5t-31 -149.5h-72q0 119 50.5 196.5t140.5 77.5q39 0 69.5 -20.5t45 -40t38.5 -57.5q20 -33 29.5 -46.5t30 -29t43.5 -15.5q49 0 78.5 49.5t29.5 147.5h74q0 -121 -49 -197.5t-139 -76.5q-41 0 -73 20.5t-45 38.5t-38 59zM795 0 v117q-129 -141 -336 -142q-137 0 -241.5 89.5t-104.5 240.5q0 154 103 241t243 87q209 0 336 -141v200q0 106 -76 167t-191 61q-182 0 -309 -146l-59 74q154 166 381 166q160 0 260 -80t100 -238v-696h-106zM795 195v217q-106 137 -299 137q-121 0 -196 -69.5t-75 -176 t75 -175.5t196 -69q195 1 299 136z" glyph-name="atilde" horiz-adv-x="1067" unicode="ã"/><glyph d="M331.5 1163q-30.5 0 -53 22.5t-22.5 55.5q0 31 22.5 53.5t53 22.5t53.5 -22.5t23 -53.5q0 -33 -23 -55.5t-53.5 -22.5zM749.5 1163q-30.5 0 -53 22.5t-22.5 55.5q0 31 22.5 53.5t53 22.5t54 -22.5t23.5 -53.5q0 -33 -23.5 -55.5t-54 -22.5zM795 0v117 q-129 -141 -336 -142q-137 0 -241.5 89.5t-104.5 240.5q0 154 103 241t243 87q209 0 336 -141v200q0 106 -76 167t-191 61q-182 0 -309 -146l-59 74q154 166 381 166q160 0 260 -80t100 -238v-696h-106zM795 195v217q-106 137 -299 137q-121 0 -196 -69.5t-75 -176 t75 -175.5t196 -69q195 1 299 136z" glyph-name="adieresis" horiz-adv-x="1067" unicode="ä"/><glyph d="M346 1319q0 80 57.5 138.5t139.5 58.5q80 0 136 -58.5t56 -138.5q0 -82 -56 -139.5t-136 -57.5q-82 0 -139.5 57.5t-57.5 139.5zM672 1319q0 53 -38 92t-91.5 39t-92 -39t-38.5 -92t38.5 -92t92 -39t91.5 39t38 92zM795 0v117q-129 -141 -336 -142q-137 0 -241.5 89.5 t-104.5 240.5q0 154 103 241t243 87q209 0 336 -141v200q0 106 -76 167t-191 61q-182 0 -309 -146l-59 74q154 166 381 166q160 0 260 -80t100 -238v-696h-106zM795 195v217q-106 137 -299 137q-121 0 -196 -69.5t-75 -176t75 -175.5t196 -69q195 1 299 136z" glyph-name="aring" horiz-adv-x="1067" unicode="å"/><glyph d="M1729 489v-28h-777q8 -168 104.5 -280.5t252.5 -112.5q182 0 303 137l55 -70q-147 -160 -358 -160q-137 0 -241.5 68t-160.5 197q-47 -121 -154.5 -193t-244.5 -72q-172 0 -283.5 88.5t-111.5 242t106.5 240.5t259.5 87q227 0 367 -137v196q0 109 -79 168.5t-210 59.5 q-199 0 -338 -146l-59 74q154 166 413 166q129 0 228.5 -56.5t120.5 -179.5q53 104 148 170t220 66q207 0 323 -150t116 -375zM952 545h668q0 145 -86 261t-248 116q-150 0 -239 -117t-95 -260zM846 377v33q-117 139 -326 139q-133 0 -214 -67.5t-81 -172.5 q0 -106 81 -173.5t214 -67.5q141 0 233.5 93t92.5 216z" glyph-name="ae" horiz-adv-x="1837" unicode="æ"/><glyph d="M596 72q168 0 270 139l74 -66q-123 -160 -317 -170l-35 -90q33 23 76 23q59 0 97 -36t38 -93q0 -76 -59.5 -121t-147.5 -45q-129 0 -199 59l33 66q72 -57 164 -57q57 0 95 25.5t38 72.5q0 74 -84 74q-51 0 -82 -35l-57 32l47 127q-197 14 -317.5 162t-120.5 357 q0 221 133 369.5t348 148.5q217 0 350 -168l-74 -66q-100 137 -270 137.5t-271.5 -119.5t-101.5 -302.5t101.5 -303t271.5 -120.5z" glyph-name="ccedilla" horiz-adv-x="1011" unicode="ç"/><glyph d="M539 1139l-353 295h127l316 -295h-90zM109 496q0 217 136 367.5t341 150.5q217 0 342 -150.5t125 -374.5v-28h-828q8 -168 112.5 -280.5t274.5 -112.5q197 0 324 137l55 -70q-154 -160 -387 -160q-217 0 -356 146t-139 375zM584 922q-162 0 -257.5 -116t-101.5 -261h719 q-2 143 -95 260t-265 117z" glyph-name="egrave" horiz-adv-x="1161" unicode="è"/><glyph d="M627 1139h-90l315 295h127zM109 496q0 217 136 367.5t341 150.5q217 0 342 -150.5t125 -374.5v-28h-828q8 -168 112.5 -280.5t274.5 -112.5q197 0 324 137l55 -70q-154 -160 -387 -160q-217 0 -356 146t-139 375zM584 922q-162 0 -257.5 -116t-101.5 -261h719 q-2 143 -95 260t-265 117z" glyph-name="eacute" horiz-adv-x="1161" unicode="é"/><glyph d="M762 1139l-176 231l-174 -231h-80l198 295h111l203 -295h-82zM109 496q0 217 136 367.5t341 150.5q217 0 342 -150.5t125 -374.5v-28h-828q8 -168 112.5 -280.5t274.5 -112.5q197 0 324 137l55 -70q-154 -160 -387 -160q-217 0 -356 146t-139 375zM584 922 q-162 0 -257.5 -116t-101.5 -261h719q-2 143 -95 260t-265 117z" glyph-name="ecircumflex" horiz-adv-x="1161" unicode="ê"/><glyph d="M375 1163q-31 0 -53.5 22.5t-22.5 55.5q0 31 22.5 53.5t53.5 22.5t53.5 -22.5t22.5 -53.5q0 -33 -22.5 -55.5t-53.5 -22.5zM792.5 1163q-30.5 0 -53 22.5t-22.5 55.5q0 31 22.5 53.5t53 22.5t54 -22.5t23.5 -53.5q0 -33 -23.5 -55.5t-54 -22.5zM109 496q0 217 136 367.5 t341 150.5q217 0 342 -150.5t125 -374.5v-28h-828q8 -168 112.5 -280.5t274.5 -112.5q197 0 324 137l55 -70q-154 -160 -387 -160q-217 0 -356 146t-139 375zM584 922q-162 0 -257.5 -116t-101.5 -261h719q-2 143 -95 260t-265 117z" glyph-name="edieresis" horiz-adv-x="1161" unicode="ë"/><glyph d="M174 1139l-352 295h125l317 -295h-90zM166 0v989h106v-989h-106z" glyph-name="igrave" horiz-adv-x="438" unicode="ì"/><glyph d="M260 1139h-90l315 295h127zM166 0v989h106v-989h-106z" glyph-name="iacute" horiz-adv-x="438" unicode="í"/><glyph d="M395 1139l-178 231l-172 -231h-80l199 295h110l203 -295h-82zM166 0v989h106v-989h-106z" glyph-name="icircumflex" horiz-adv-x="438" unicode="î"/><glyph d="M10.5 1163q-30.5 0 -53.5 22.5t-23 55.5q0 31 23 53.5t53.5 22.5t53 -22.5t22.5 -53.5q0 -33 -22.5 -55.5t-53 -22.5zM428 1163q-31 0 -53.5 22.5t-22.5 55.5q0 31 22.5 53.5t53.5 22.5t54.5 -22.5t23.5 -53.5q0 -33 -23.5 -55.5t-54.5 -22.5zM166 0v989h106v-989h-106z " glyph-name="idieresis" horiz-adv-x="438" unicode="ï"/><glyph d="M668 1223q393 -332 393 -723q0 -227 -131 -376t-346 -149q-211 0 -343 145.5t-132 366.5q0 219 126.5 364.5t329.5 145.5q197 0 322 -178q-115 193 -330 355l-291 -130l-28 70l249 109q-94 66 -168 108l62 90q115 -66 221 -147l223 98l29 -67zM584 72q168 0 265 121.5 t97 293.5q0 170 -97 292t-265 122q-166 0 -263.5 -122t-97.5 -292q0 -172 97.5 -293.5t263.5 -121.5z" glyph-name="eth" unicode="ð"/><glyph d="M524 1253q-51 92 -102 93q-49 0 -80 -49.5t-31 -149.5h-71q0 119 50 196.5t140 77.5q39 0 69.5 -20.5t45 -40t39.5 -57.5q20 -33 29.5 -46.5t30 -29t42.5 -15.5q49 0 79 49.5t30 147.5h73q0 -121 -49 -197.5t-139 -76.5q-41 0 -73 20.5t-45 38.5t-38 59zM834 0v670 q0 135 -61.5 191.5t-178.5 56.5q-92 0 -182 -49.5t-140 -120.5v-748h-106v989h106v-149q59 70 157.5 122t199.5 52q311 0 311 -322v-692h-106z" glyph-name="ntilde" horiz-adv-x="1105" unicode="ñ"/><glyph d="M539 1139l-353 295h127l316 -295h-90zM584 -25q-213 0 -344 149.5t-131 371t131 370t344 148.5q215 0 346 -148.5t131 -370t-131 -371t-346 -149.5zM584 72q168 0 265 123.5t97 300.5q0 174 -97 298t-265 124q-166 0 -263.5 -124t-97.5 -298t97.5 -299t263.5 -125z" glyph-name="ograve" unicode="ò"/><glyph d="M627 1139h-90l315 295h127zM584 -25q-213 0 -344 149.5t-131 371t131 370t344 148.5q215 0 346 -148.5t131 -370t-131 -371t-346 -149.5zM584 72q168 0 265 123.5t97 300.5q0 174 -97 298t-265 124q-166 0 -263.5 -124t-97.5 -298t97.5 -299t263.5 -125z" glyph-name="oacute" unicode="ó"/><glyph d="M762 1139l-176 231l-174 -231h-80l198 295h111l203 -295h-82zM584 -25q-213 0 -344 149.5t-131 371t131 370t344 148.5q215 0 346 -148.5t131 -370t-131 -371t-346 -149.5zM584 72q168 0 265 123.5t97 300.5q0 174 -97 298t-265 124q-166 0 -263.5 -124t-97.5 -298 t97.5 -299t263.5 -125z" glyph-name="ocircumflex" unicode="ô"/><glyph d="M555 1253q-51 92 -102 93q-49 0 -80 -49.5t-31 -149.5h-72q0 119 50.5 196.5t140.5 77.5q39 0 69.5 -20.5t45 -40t38.5 -57.5q20 -33 29.5 -46.5t30 -29t43.5 -15.5q49 0 78.5 49.5t29.5 147.5h74q0 -121 -49 -197.5t-139 -76.5q-41 0 -73 20.5t-45 38.5t-38 59zM584 -25 q-213 0 -344 149.5t-131 371t131 370t344 148.5q215 0 346 -148.5t131 -370t-131 -371t-346 -149.5zM584 72q168 0 265 123.5t97 300.5q0 174 -97 298t-265 124q-166 0 -263.5 -124t-97.5 -298t97.5 -299t263.5 -125z" glyph-name="otilde" unicode="õ"/><glyph d="M375 1163q-31 0 -53.5 22.5t-22.5 55.5q0 31 22.5 53.5t53.5 22.5t53.5 -22.5t22.5 -53.5q0 -33 -22.5 -55.5t-53.5 -22.5zM792.5 1163q-30.5 0 -53 22.5t-22.5 55.5q0 31 22.5 53.5t53 22.5t54 -22.5t23.5 -53.5q0 -33 -23.5 -55.5t-54 -22.5zM584 -25 q-213 0 -344 149.5t-131 371t131 370t344 148.5q215 0 346 -148.5t131 -370t-131 -371t-346 -149.5zM584 72q168 0 265 123.5t97 300.5q0 174 -97 298t-265 124q-166 0 -263.5 -124t-97.5 -298t97.5 -299t263.5 -125z" glyph-name="odieresis" unicode="ö"/><glyph d="M524.5 1006q-32.5 0 -57.5 24.5t-25 57t23.5 56t58.5 23.5q33 0 56.5 -23.5t23.5 -56t-23.5 -57t-56 -24.5zM59 647v86h928v-86h-928zM524.5 203q-32.5 0 -57.5 23.5t-25 56t25 57.5t57.5 25t56 -25t23.5 -57.5t-23.5 -56t-56 -23.5z" glyph-name="divide" horiz-adv-x="1046" unicode="÷"/><glyph d="M915 881q145 -150 146 -385q0 -221 -131 -371t-346 -150q-168 0 -287 97l-55 -72h-90l92 121q-135 147 -135 375q0 221 131 369.5t344 148.5q156 0 278 -86l47 61h90zM223 496q0 -168 88 -287l488 635q-90 74 -215 74q-166 0 -263.5 -124t-97.5 -298zM584 72 q168 0 265 123.5t97 300.5q0 174 -96 297l-490 -639q93 -82 224 -82z" glyph-name="oslash" unicode="ø"/><glyph d="M508 1139l-352 295h127l315 -295h-90zM834 0v145q-68 -74 -162 -122t-195 -48q-156 0 -233.5 77t-77.5 241v696h106v-672q0 -137 61.5 -191t178.5 -54q92 0 181 47t141 117v753h106v-989h-106z" glyph-name="ugrave" horiz-adv-x="1105" unicode="ù"/><glyph d="M594 1139h-90l315 295h127zM834 0v145q-68 -74 -162 -122t-195 -48q-156 0 -233.5 77t-77.5 241v696h106v-672q0 -137 61.5 -191t178.5 -54q92 0 181 47t141 117v753h106v-989h-106z" glyph-name="uacute" horiz-adv-x="1105" unicode="ú"/><glyph d="M729 1139l-176 231l-174 -231h-80l199 295h110l203 -295h-82zM834 0v145q-68 -74 -162 -122t-195 -48q-156 0 -233.5 77t-77.5 241v696h106v-672q0 -137 61.5 -191t178.5 -54q92 0 181 47t141 117v753h106v-989h-106z" glyph-name="ucircumflex" horiz-adv-x="1105" unicode="û"/><glyph d="M344 1163q-31 0 -53.5 22.5t-22.5 55.5q0 31 22.5 53.5t53.5 22.5t53.5 -22.5t22.5 -53.5q0 -33 -22.5 -55.5t-53.5 -22.5zM762 1163q-31 0 -53.5 22.5t-22.5 55.5q0 31 22.5 53.5t53.5 22.5t54.5 -22.5t23.5 -53.5q0 -33 -23.5 -55.5t-54.5 -22.5zM834 0v145 q-68 -74 -162 -122t-195 -48q-156 0 -233.5 77t-77.5 241v696h106v-672q0 -137 61.5 -191t178.5 -54q92 0 181 47t141 117v753h106v-989h-106z" glyph-name="udieresis" horiz-adv-x="1105" unicode="ü"/><glyph d="M887 1434l-352 -295h-91l316 295h127zM850 989h121l-512 -1206q-78 -184 -254 -184q-57 0 -105 14l19 98q37 -16 86 -16q100 0 149 121l78 176l-418 997h119l361 -864z" glyph-name="yacute" horiz-adv-x="985" unicode="ý"/><glyph d="M272 160v-537h-106v1743h106v-532q55 80 146.5 130t197.5 50q199 0 321 -140.5t122 -377.5q0 -236 -122 -378.5t-321 -142.5q-213 1 -344 185zM944 496q0 184 -92 303t-254 119q-100 0 -190.5 -51.5t-135.5 -125.5v-489q45 -74 136.5 -127t189.5 -53q162 0 254 119 t92 305z" glyph-name="thorn" horiz-adv-x="1167" unicode="þ"/><glyph d="M282.5 1163q-30.5 0 -53 22.5t-22.5 55.5q0 31 22.5 53.5t53 22.5t53 -22.5t22.5 -53.5q0 -33 -22.5 -55.5t-53 -22.5zM700.5 1163q-30.5 0 -53 22.5t-22.5 55.5q0 31 22.5 53.5t53 22.5t54 -22.5t23.5 -53.5q0 -33 -23.5 -55.5t-54 -22.5zM850 989h121l-512 -1206 q-78 -184 -254 -184q-57 0 -105 14l19 98q37 -16 86 -16q100 0 149 121l78 176l-418 997h119l361 -864z" glyph-name="ydieresis" horiz-adv-x="985" unicode="ÿ"/><glyph d="M358 1524v75h605v-75h-605zM1163 0l-137 336h-727l-137 -336h-131l559 1366h145l559 -1366h-131zM662 1251l-326 -809h653z" glyph-name="Amacron" horiz-adv-x="1325" unicode="Ā"/><glyph d="M240 1182v75h604v-75h-604zM795 0v117q-129 -141 -336 -142q-137 0 -241.5 89.5t-104.5 240.5q0 154 103 241t243 87q209 0 336 -141v200q0 106 -76 167t-191 61q-182 0 -309 -146l-59 74q154 166 381 166q160 0 260 -80t100 -238v-696h-106zM795 195v217 q-106 137 -299 137q-121 0 -196 -69.5t-75 -176t75 -175.5t196 -69q195 1 299 136z" glyph-name="amacron" horiz-adv-x="1067" unicode="ā"/><glyph d="M662 1462q-223 0 -361 180l59 52q111 -154 302 -154q188 0 301 154l57 -52q-133 -180 -358 -180zM1163 0l-137 336h-727l-137 -336h-131l559 1366h145l559 -1366h-131zM662 1251l-326 -809h653z" glyph-name="Abreve" horiz-adv-x="1325" unicode="Ă"/><glyph d="M543 1120q-223 0 -361 180l60 52q111 -154 301 -154q188 0 301 154l57 -52q-133 -180 -358 -180zM795 0v117q-129 -141 -336 -142q-137 0 -241.5 89.5t-104.5 240.5q0 154 103 241t243 87q209 0 336 -141v200q0 106 -76 167t-191 61q-182 0 -309 -146l-59 74 q154 166 381 166q160 0 260 -80t100 -238v-696h-106zM795 195v217q-106 137 -299 137q-121 0 -196 -69.5t-75 -176t75 -175.5t196 -69q195 1 299 136z" glyph-name="abreve" horiz-adv-x="1067" unicode="ă"/><glyph d="M1278 0q-201 -94 -201 -209q0 -41 25.5 -65.5t71.5 -24.5q39 0 71 20l33 -69q-49 -33 -121 -33q-78 0 -133 40t-55 110q0 129 202 231h-8l-137 336h-727l-137 -336h-131l559 1366h145l559 -1366h-16zM336 442h653l-327 809z" glyph-name="Aogonek" horiz-adv-x="1325" unicode="Ą"/><glyph d="M901 0q-201 -94 -201 -209q0 -41 26 -65.5t71 -24.5q39 0 71 20l33 -69q-49 -33 -121 -33q-78 0 -133 40t-55 110q0 129 203 231v117q-129 -141 -336 -142q-137 0 -241.5 89.5t-104.5 240.5q0 154 103 241t243 87q209 0 336 -141v200q0 106 -76 167t-191 61 q-182 0 -309 -146l-59 74q154 166 381 166q160 0 260 -80t100 -238v-696zM795 195v217q-106 137 -299 137q-121 0 -196 -69.5t-75 -176t75 -175.5t196 -69q195 1 299 136z" glyph-name="aogonek" horiz-adv-x="1067" unicode="ą"/><glyph d="M850 1481h-90l315 295h127zM807 -25q-291 0 -489.5 199t-198.5 508t198.5 508t489.5 199q307 0 502 -242l-99 -64q-66 90 -173 144.5t-230 54.5q-242 0 -403.5 -168t-161.5 -432q0 -262 162.5 -431t402.5 -169q123 0 230.5 54t172.5 145l99 -62q-197 -244 -502 -244z" glyph-name="Cacute" horiz-adv-x="1376" unicode="Ć"/><glyph d="M629 1139h-90l315 295h127zM109 495.5q0 221.5 133 370t348 148.5q217 0 350 -168l-74 -66q-100 137 -270 137.5t-271.5 -119.5t-101.5 -302.5t101.5 -303t271.5 -120.5q168 0 270 139l74 -66q-133 -170 -350 -170q-215 0 -348 149.5t-133 371z" glyph-name="cacute" horiz-adv-x="1011" unicode="ć"/><glyph d="M985 1481l-176 231l-174 -231h-80l199 295h110l203 -295h-82zM807 -25q-291 0 -489.5 199t-198.5 508t198.5 508t489.5 199q307 0 502 -242l-99 -64q-66 90 -173 144.5t-230 54.5q-242 0 -403.5 -168t-161.5 -432q0 -262 162.5 -431t402.5 -169q123 0 230.5 54t172.5 145 l99 -62q-197 -244 -502 -244z" glyph-name="Ccircumflex" horiz-adv-x="1376" unicode="Ĉ"/><glyph d="M764 1139l-176 231l-174 -231h-80l198 295h111l203 -295h-82zM109 495.5q0 221.5 133 370t348 148.5q217 0 350 -168l-74 -66q-100 137 -270 137.5t-271.5 -119.5t-101.5 -302.5t101.5 -303t271.5 -120.5q168 0 270 139l74 -66q-133 -170 -350 -170q-215 0 -348 149.5 t-133 371z" glyph-name="ccircumflex" horiz-adv-x="1011" unicode="ĉ"/><glyph d="M731 1577q0 33 22.5 55.5t55.5 22.5q31 0 53.5 -22.5t22.5 -55.5t-22.5 -55.5t-53.5 -22.5q-33 0 -55.5 22.5t-22.5 55.5zM807 -25q-291 0 -489.5 199t-198.5 508t198.5 508t489.5 199q307 0 502 -242l-99 -64q-66 90 -173 144.5t-230 54.5q-242 0 -403.5 -168 t-161.5 -432q0 -262 162.5 -431t402.5 -169q123 0 230.5 54t172.5 145l99 -62q-197 -244 -502 -244z" glyph-name="Cdotaccent" horiz-adv-x="1376" unicode="Ċ"/><glyph d="M510 1235q0 33 22.5 55.5t55.5 22.5q31 0 53.5 -22.5t22.5 -55.5t-23 -55.5t-53 -22.5q-33 0 -55.5 22.5t-22.5 55.5zM109 495.5q0 221.5 133 370t348 148.5q217 0 350 -168l-74 -66q-100 137 -270 137.5t-271.5 -119.5t-101.5 -302.5t101.5 -303t271.5 -120.5 q168 0 270 139l74 -66q-133 -170 -350 -170q-215 0 -348 149.5t-133 371z" glyph-name="cdotaccent" horiz-adv-x="1011" unicode="ċ"/><glyph d="M754 1481l-205 295h80l180 -232l170 232h82l-197 -295h-110zM807 -25q-291 0 -489.5 199t-198.5 508t198.5 508t489.5 199q307 0 502 -242l-99 -64q-66 90 -173 144.5t-230 54.5q-242 0 -403.5 -168t-161.5 -432q0 -262 162.5 -431t402.5 -169q123 0 230.5 54t172.5 145 l99 -62q-197 -244 -502 -244z" glyph-name="Ccaron" horiz-adv-x="1376" unicode="Č"/><glyph d="M532 1139l-204 295h80l180 -232l170 232h82l-197 -295h-111zM109 495.5q0 221.5 133 370t348 148.5q217 0 350 -168l-74 -66q-100 137 -270 137.5t-271.5 -119.5t-101.5 -302.5t101.5 -303t271.5 -120.5q168 0 270 139l74 -66q-133 -170 -350 -170q-215 0 -348 149.5 t-133 371z" glyph-name="ccaron" horiz-adv-x="1011" unicode="č"/><glyph d="M662 1481l-205 295h80l180 -232l170 232h82l-197 -295h-110zM170 0v1366h436q309 0 499.5 -197.5t190.5 -486.5q0 -291 -189 -486.5t-501 -195.5h-436zM287 106h319q262 0 415 164t153 412t-152 413t-416 165h-319v-1154z" glyph-name="Dcaron" horiz-adv-x="1417" unicode="Ď"/><glyph d="M1149 1010l-55 43q47 33 78.5 85t35.5 97l-20 -2q-33 0 -54.5 22.5t-21.5 57.5q0 33 22.5 56.5t57.5 23.5q41 0 67.5 -33t26.5 -90q0 -78 -40 -148.5t-97 -111.5zM895 0v158q-55 -80 -146.5 -131.5t-197.5 -51.5q-199 0 -320.5 141.5t-121.5 377.5q0 233 122.5 376.5 t319.5 143.5q213 0 344 -185v537h109v-1366h-109zM895 248v489q-45 76 -135 128.5t-191 52.5q-160 0 -253 -120t-93 -304.5t93.5 -303t252.5 -118.5q100 0 190.5 51t135.5 125z" glyph-name="dcaron" horiz-adv-x="1280" unicode="ď"/><glyph d="M666 1366q311 0 501.5 -197.5t190.5 -486.5q0 -291 -189.5 -486.5t-502.5 -195.5h-437v629h-206v96h206v641h437zM666 106q262 0 414.5 164t152.5 412t-151.5 413t-415.5 165h-318v-535h367v-96h-367v-523h318z" glyph-name="Dcroat" horiz-adv-x="1476" unicode="Đ"/><glyph d="M1153 1180v-78h-149v-1102h-109v158q-55 -80 -146.5 -131.5t-197.5 -51.5q-199 0 -320.5 141.5t-121.5 377.5q0 233 122.5 376.5t319.5 143.5q213 0 344 -185v273h-330v78h330v186h109v-186h149zM895 248v489q-45 76 -135 128.5t-191 52.5q-160 0 -253 -120t-93 -304.5 t93.5 -303t252.5 -118.5q100 0 190.5 51t135.5 125z" glyph-name="dcroat" horiz-adv-x="1171" unicode="đ"/><glyph d="M309 1524v75h604v-75h-604zM170 0v1366h866v-106h-749v-506h735v-107h-735v-541h749v-106h-866z" glyph-name="Emacron" horiz-adv-x="1155" unicode="Ē"/><glyph d="M281 1182v75h604v-75h-604zM109 496q0 217 136 367.5t341 150.5q217 0 342 -150.5t125 -374.5v-28h-828q8 -168 112.5 -280.5t274.5 -112.5q197 0 324 137l55 -70q-154 -160 -387 -160q-217 0 -356 146t-139 375zM584 922q-162 0 -257.5 -116t-101.5 -261h719 q-2 143 -95 260t-265 117z" glyph-name="emacron" horiz-adv-x="1161" unicode="ē"/><glyph d="M612 1462q-223 0 -360 180l59 52q111 -154 301 -154q188 0 301 154l58 -52q-134 -180 -359 -180zM170 0v1366h866v-106h-749v-506h735v-107h-735v-541h749v-106h-866z" glyph-name="Ebreve" horiz-adv-x="1155" unicode="Ĕ"/><glyph d="M584 1120q-223 0 -361 180l60 52q111 -154 301 -154q188 0 301 154l57 -52q-133 -180 -358 -180zM109 496q0 217 136 367.5t341 150.5q217 0 342 -150.5t125 -374.5v-28h-828q8 -168 112.5 -280.5t274.5 -112.5q197 0 324 137l55 -70q-154 -160 -387 -160 q-217 0 -356 146t-139 375zM584 922q-162 0 -257.5 -116t-101.5 -261h719q-2 143 -95 260t-265 117z" glyph-name="ebreve" horiz-adv-x="1161" unicode="ĕ"/><glyph d="M537 1577q0 33 22.5 55.5t54.5 22.5q31 0 53.5 -22.5t22.5 -55.5t-22.5 -55.5t-53.5 -22.5q-33 0 -55 22.5t-22 55.5zM170 0v1366h866v-106h-749v-506h735v-107h-735v-541h749v-106h-866z" glyph-name="Edotaccent" horiz-adv-x="1155" unicode="Ė"/><glyph d="M508 1235q0 33 22.5 55.5t55.5 22.5q31 0 53.5 -22.5t22.5 -55.5t-23 -55.5t-53 -22.5q-33 0 -55.5 22.5t-22.5 55.5zM109 496q0 217 136 367.5t341 150.5q217 0 342 -150.5t125 -374.5v-28h-828q8 -168 112.5 -280.5t274.5 -112.5q197 0 324 137l55 -70 q-154 -160 -387 -160q-217 0 -356 146t-139 375zM584 922q-162 0 -257.5 -116t-101.5 -261h719q-2 143 -95 260t-265 117z" glyph-name="edotaccent" horiz-adv-x="1161" unicode="ė"/><glyph d="M932 -299q39 0 72 20l32 -69q-49 -33 -121 -33q-78 0 -133 40t-55 110q0 129 203 231h-760v1366h866v-106h-749v-506h735v-107h-735v-541h749v-106q-201 -94 -200 -209q0 -41 25.5 -65.5t70.5 -24.5z" glyph-name="Eogonek" horiz-adv-x="1155" unicode="Ę"/><glyph d="M604 -25q-217 0 -356 145.5t-139 375.5q0 217 136 367.5t341 150.5q217 0 342 -150.5t125 -374.5v-28h-828q8 -168 112.5 -280.5t274.5 -112.5q197 0 324 137l55 -70q-242 -217 -241 -338q0 -45 26.5 -70.5t69.5 -25.5q39 0 72 20l32 -69q-49 -33 -121 -33q-76 0 -132 40 t-56 110q0 119 150 237q-87 -31 -187 -31zM584 922q-162 0 -257.5 -116t-101.5 -261h719q-2 143 -95 260t-265 117z" glyph-name="eogonek" horiz-adv-x="1161" unicode="ę"/><glyph d="M559 1481l-205 295h80l180 -232l170 232h82l-196 -295h-111zM170 0v1366h866v-106h-749v-506h735v-107h-735v-541h749v-106h-866z" glyph-name="Ecaron" horiz-adv-x="1155" unicode="Ě"/><glyph d="M530 1139l-204 295h80l180 -232l170 232h82l-197 -295h-111zM109 496q0 217 136 367.5t341 150.5q217 0 342 -150.5t125 -374.5v-28h-828q8 -168 112.5 -280.5t274.5 -112.5q197 0 324 137l55 -70q-154 -160 -387 -160q-217 0 -356 146t-139 375zM584 922 q-162 0 -257.5 -116t-101.5 -261h719q-2 143 -95 260t-265 117z" glyph-name="ecaron" horiz-adv-x="1161" unicode="ě"/><glyph d="M987 1481l-176 231l-174 -231h-80l199 295h110l203 -295h-82zM119 682q0 311 199.5 509t492.5 198q311 0 514 -234l-88 -63q-74 88 -185.5 139t-240.5 51q-244 0 -406.5 -168t-162.5 -432q0 -262 162.5 -432t406.5 -170q125 0 229.5 49t171.5 117v327h-516v105h633v-477 q-203 -227 -518 -228q-293 0 -492.5 199t-199.5 510z" glyph-name="Gcircumflex" horiz-adv-x="1456" unicode="Ĝ"/><glyph d="M766 1139l-176 231l-174 -231h-80l199 295h110l203 -295h-82zM168 -252l61 82q63 -76 139 -107.5t189 -31.5q147 0 242.5 78.5t95.5 238.5v156q-55 -80 -146.5 -132t-197.5 -52q-199 0 -320.5 140t-121.5 376q0 233 122.5 375.5t319.5 142.5q213 0 344 -185v160h109v-979 q0 -213 -124 -312t-323 -99q-129 0 -217 31.5t-172 117.5zM895 256v481q-45 76 -135 128.5t-191 52.5q-160 0 -253 -119t-93 -303.5t93.5 -302t252.5 -117.5q100 0 190.5 52t135.5 128z" glyph-name="gcircumflex" horiz-adv-x="1167" unicode="ĝ"/><glyph d="M809 1462q-223 0 -360 180l59 52q111 -154 301 -154q188 0 301 154l57 -52q-133 -180 -358 -180zM119 682q0 311 199.5 509t492.5 198q311 0 514 -234l-88 -63q-74 88 -185.5 139t-240.5 51q-244 0 -406.5 -168t-162.5 -432q0 -262 162.5 -432t406.5 -170q125 0 229.5 49 t171.5 117v327h-516v105h633v-477q-203 -227 -518 -228q-293 0 -492.5 199t-199.5 510z" glyph-name="Gbreve" horiz-adv-x="1456" unicode="Ğ"/><glyph d="M588 1120q-223 0 -361 180l60 52q111 -154 301 -154q188 0 301 154l57 -52q-133 -180 -358 -180zM168 -252l61 82q63 -76 139 -107.5t189 -31.5q147 0 242.5 78.5t95.5 238.5v156q-55 -80 -146.5 -132t-197.5 -52q-199 0 -320.5 140t-121.5 376q0 233 122.5 375.5 t319.5 142.5q213 0 344 -185v160h109v-979q0 -213 -124 -312t-323 -99q-129 0 -217 31.5t-172 117.5zM895 256v481q-45 76 -135 128.5t-191 52.5q-160 0 -253 -119t-93 -303.5t93.5 -302t252.5 -117.5q100 0 190.5 52t135.5 128z" glyph-name="gbreve" horiz-adv-x="1167" unicode="ğ"/><glyph d="M733 1577q0 33 22.5 55.5t55.5 22.5q31 0 53.5 -22.5t22.5 -55.5t-22.5 -55.5t-53.5 -22.5q-33 0 -55.5 22.5t-22.5 55.5zM119 682q0 311 199.5 509t492.5 198q311 0 514 -234l-88 -63q-74 88 -185.5 139t-240.5 51q-244 0 -406.5 -168t-162.5 -432q0 -262 162.5 -432 t406.5 -170q125 0 229.5 49t171.5 117v327h-516v105h633v-477q-203 -227 -518 -228q-293 0 -492.5 199t-199.5 510z" glyph-name="Gdotaccent" horiz-adv-x="1456" unicode="Ġ"/><glyph d="M512 1235q0 33 22.5 55.5t55.5 22.5q31 0 53.5 -22.5t22.5 -55.5t-22.5 -55.5t-53.5 -22.5q-33 0 -55.5 22.5t-22.5 55.5zM168 -252l61 82q63 -76 139 -107.5t189 -31.5q147 0 242.5 78.5t95.5 238.5v156q-55 -80 -146.5 -132t-197.5 -52q-199 0 -320.5 140t-121.5 376 q0 233 122.5 375.5t319.5 142.5q213 0 344 -185v160h109v-979q0 -213 -124 -312t-323 -99q-129 0 -217 31.5t-172 117.5zM895 256v481q-45 76 -135 128.5t-191 52.5q-160 0 -253 -119t-93 -303.5t93.5 -302t252.5 -117.5q100 0 190.5 52t135.5 128z" glyph-name="gdotaccent" horiz-adv-x="1167" unicode="ġ"/><glyph d="M119 682q0 311 199.5 509t492.5 198q311 0 514 -234l-88 -63q-74 88 -185.5 139t-240.5 51q-244 0 -406.5 -168t-162.5 -432q0 -262 162.5 -432t406.5 -170q125 0 229.5 49t171.5 117v327h-516v105h633v-477q-203 -227 -518 -228q-293 0 -492.5 199t-199.5 510zM770 -543 l-55 45q47 35 78.5 86.5t33.5 96.5l-20 -2q-33 0 -53.5 21.5t-20.5 55.5q0 33 22.5 56.5t55.5 23.5q41 0 68.5 -32.5t27.5 -88.5q0 -78 -39 -148.5t-98 -113.5z" glyph-name="Gcommaaccent" horiz-adv-x="1456" unicode="Ģ"/><glyph d="M623 1536l59 -47q-47 -33 -80 -84t-35 -96l4 2h7q31 0 55 -23.5t24 -56.5q0 -31 -23.5 -55.5t-58 -24.5t-59 28.5t-24.5 80.5q0 84 39 160.5t92 115.5zM168 -252l61 82q63 -76 139 -107.5t189 -31.5q147 0 242.5 78.5t95.5 238.5v156q-55 -80 -146.5 -132t-197.5 -52 q-199 0 -320.5 140t-121.5 376q0 233 122.5 375.5t319.5 142.5q213 0 344 -185v160h109v-979q0 -213 -124 -312t-323 -99q-129 0 -217 31.5t-172 117.5zM895 256v481q-45 76 -135 128.5t-191 52.5q-160 0 -253 -119t-93 -303.5t93.5 -302t252.5 -117.5q100 0 190.5 52 t135.5 128z" glyph-name="gcommaaccent" horiz-adv-x="1167" unicode="ģ"/><glyph d="M899 1481l-176 231l-174 -231h-80l199 295h110l203 -295h-82zM1153 0v649h-866v-649h-117v1366h117v-610h866v610h119v-1366h-119z" glyph-name="Hcircumflex" horiz-adv-x="1439" unicode="Ĥ"/><glyph d="M731 1481l-176 231l-174 -231h-80l199 295h110l203 -295h-82zM834 0v674q0 135 -61.5 189.5t-178.5 54.5q-92 0 -182 -49.5t-140 -120.5v-748h-106v1366h106v-526q59 70 157.5 122t199.5 52q311 0 311 -318v-696h-106z" glyph-name="hcircumflex" horiz-adv-x="1105" unicode="ĥ"/><glyph d="M1462 1100v-76h-168v-1024h-118v649h-865v-649h-118v1024h-170v76h170v266h118v-266h865v266h118v-266h168zM1176 756v268h-865v-268h865z" glyph-name="Hbar" horiz-adv-x="1482" unicode="Ħ"/><glyph d="M631 1014q311 0 311 -318v-696h-106v674q0 135 -61.5 189.5t-178.5 54.5q-92 0 -182 -49.5t-140 -120.5v-748h-106v1102h-148v78h148v186h106v-186h332v-78h-332v-262q59 70 158 122t199 52z" glyph-name="hbar" horiz-adv-x="1107" unicode="ħ"/><glyph d="M201 1595q-51 92 -103 93q-49 0 -79.5 -49.5t-30.5 -149.5h-72q0 121 50 197.5t140 76.5q39 0 70 -20.5t45.5 -40t38.5 -57.5q20 -33 29.5 -46.5t30 -29t42.5 -15.5q49 0 79 49.5t30 147.5h74q0 -121 -49.5 -197.5t-139.5 -76.5q-41 0 -72.5 20.5t-44.5 38.5t-38 59z M170 0v1366h117v-1366h-117z" glyph-name="Itilde" horiz-adv-x="456" unicode="Ĩ"/><glyph d="M190 1253q-51 92 -102 93q-49 0 -80 -49.5t-31 -149.5h-71q0 121 50 197.5t140 76.5q39 0 70 -20.5t45 -40t39 -57.5q20 -33 29.5 -46.5t30 -29t42.5 -15.5q49 0 79 49.5t30 147.5h74q0 -121 -49.5 -197.5t-139.5 -76.5q-41 0 -72.5 20.5t-45 38.5t-38.5 59zM166 0v989 h106v-989h-106z" glyph-name="itilde" horiz-adv-x="438" unicode="ĩ"/><glyph d="M-74 1524v75h604v-75h-604zM170 0v1366h117v-1366h-117z" glyph-name="Imacron" horiz-adv-x="456" unicode="Ī"/><glyph d="M-84 1182v75h604v-75h-604zM166 0v989h106v-989h-106z" glyph-name="imacron" horiz-adv-x="438" unicode="ī"/><glyph d="M229 1462q-223 0 -360 180l59 52q111 -154 301 -154q188 0 301 154l58 -52q-134 -180 -359 -180zM170 0v1366h117v-1366h-117z" glyph-name="Ibreve" horiz-adv-x="456" unicode="Ĭ"/><glyph d="M219 1120q-223 0 -360 180l59 52q111 -154 301 -154q188 0 301 154l58 -52q-134 -180 -359 -180zM166 0v989h106v-989h-106z" glyph-name="ibreve" horiz-adv-x="438" unicode="ĭ"/><glyph d="M170 1366h117v-1366q-201 -94 -201 -209q0 -41 25.5 -65.5t70.5 -24.5q39 0 72 20l33 -69q-49 -33 -121 -33q-78 0 -133.5 40t-55.5 110q0 129 203 231h-10v1366z" glyph-name="Iogonek" horiz-adv-x="456" unicode="Į"/><glyph d="M219 1317q35 0 58.5 -23.5t23.5 -58.5t-23.5 -58.5t-58.5 -23.5q-33 0 -57.5 24.5t-24.5 57.5t24.5 57.5t57.5 24.5zM166 0v989h106v-989q-201 -94 -200 -209q0 -41 25.5 -65.5t70.5 -24.5q39 0 72 20l32 -69q-49 -33 -120 -33q-78 0 -133.5 40t-55.5 110q0 129 203 231z " glyph-name="iogonek" horiz-adv-x="438" unicode="į"/><glyph d="M152 1577q0 33 22.5 55.5t54.5 22.5q31 0 53.5 -22.5t22.5 -55.5t-22.5 -55.5t-53.5 -22.5q-33 0 -55 22.5t-22 55.5zM170 0v1366h117v-1366h-117z" glyph-name="Idotaccent" horiz-adv-x="456" unicode="İ"/><glyph d="M166 0v989h106v-989h-106z" glyph-name="dotlessi" horiz-adv-x="438" unicode="ı"/><glyph d="M170 0v1366h117v-1366h-117zM485 143l72 88q115 -150 272 -149q137 0 219 87t82 226v971h119v-971q0 -205 -116.5 -312.5t-296.5 -107.5q-222 0 -351 168z" glyph-name="IJ" horiz-adv-x="1419" unicode="Ĳ"/><glyph d="M219 1153q-33 0 -57.5 24.5t-24.5 57.5t24.5 57.5t57.5 24.5q35 0 58.5 -23.5t23.5 -58.5t-23.5 -58.5t-58.5 -23.5zM657 1153q-33 0 -57.5 24.5t-24.5 57.5t25 57.5t57 24.5q35 0 58.5 -23.5t23.5 -58.5t-23.5 -58.5t-58.5 -23.5zM166 0v989h106v-989h-106zM711 989 v-1116q0 -135 -69 -204.5t-193 -69.5q-59 0 -113 16l20 92q43 -14 84 -14q164 0 164 180v1116h107z" glyph-name="ij" horiz-adv-x="874" unicode="ĳ"/><glyph d="M911 1481l-176 231l-174 -231h-80l199 295h111l202 -295h-82zM29 143l71 88q115 -150 273 -149q137 0 219 87t82 226v971h119v-971q0 -205 -117 -312.5t-297 -107.5q-221 0 -350 168z" glyph-name="Jcircumflex" horiz-adv-x="962" unicode="Ĵ"/><glyph d="M395 1139l-178 231l-172 -231h-80l199 295h110l203 -295h-82zM-102 -385l20 92q43 -14 84 -14q164 0 164 180v1116h106v-1116q0 -135 -68.5 -204.5t-193.5 -69.5q-59 0 -112 16z" glyph-name="jcircumflex" horiz-adv-x="438" unicode="ĵ"/><glyph d="M1001 0l-563 643l-151 -166v-477h-117v1366h117v-748l659 748h150l-582 -651l637 -715h-150zM588 -543l-56 45q47 35 79 86.5t34 96.5l-20 -2q-33 0 -53.5 21.5t-20.5 55.5q0 33 22.5 56.5t55.5 23.5q41 0 68.5 -32.5t27.5 -88.5q0 -78 -39 -148.5t-98 -113.5z" glyph-name="Kcommaaccent" horiz-adv-x="1200" unicode="Ķ"/><glyph d="M852 0l-395 471l-185 -174v-297h-106v1366h106v-942l584 565h141l-460 -446l458 -543h-143zM485 -543l-55 45q47 35 79 86.5t34 96.5l-21 -2q-33 0 -53 21.5t-20 55.5q0 33 22.5 56.5t54.5 23.5q41 0 69 -32.5t28 -88.5q0 -78 -39.5 -148.5t-98.5 -113.5z" glyph-name="kcommaaccent" horiz-adv-x="1034" unicode="ķ"/><glyph d="M852 0l-395 471l-185 -174v-297h-106v989h106v-565l584 565h141l-460 -446l458 -543h-143z" glyph-name="kgreenlandic" horiz-adv-x="1034" unicode="ĸ"/><glyph d="M602 1481h-90l315 295h127zM170 0v1366h117v-1260h661v-106h-778z" glyph-name="Lacute" horiz-adv-x="1032" unicode="Ĺ"/><glyph d="M260 1481h-90l315 295h127zM166 0v1366h106v-1366h-106z" glyph-name="lacute" horiz-adv-x="438" unicode="ĺ"/><glyph d="M170 0v1366h117v-1260h661v-106h-778zM518 -543l-55 45q47 35 78.5 86.5t33.5 96.5l-20 -2q-33 0 -53.5 21.5t-20.5 55.5q0 33 22.5 56.5t55.5 23.5q41 0 68.5 -32.5t27.5 -88.5q0 -78 -39 -148.5t-98 -113.5z" glyph-name="Lcommaaccent" horiz-adv-x="1032" unicode="Ļ"/><glyph d="M166 0v1366h106v-1366h-106zM176 -543l-55 45q47 35 78.5 86.5t33.5 96.5l-20 -2q-33 0 -53.5 21.5t-20.5 55.5q0 33 22.5 56.5t55.5 23.5q41 0 68.5 -32.5t27.5 -88.5q0 -78 -39 -148.5t-98 -113.5z" glyph-name="lcommaaccent" horiz-adv-x="438" unicode="ļ"/><glyph d="M530 1008l-55 45q47 33 79 84t36 98l-21 -2q-33 0 -54 22.5t-21 55t22.5 56.5t56.5 24q41 0 68 -33t27 -88q0 -78 -39.5 -148.5t-98.5 -113.5zM170 0v1366h117v-1260h661v-106h-778z" glyph-name="Lcaron" horiz-adv-x="1032" unicode="Ľ"/><glyph d="M420 1010l-58 43q47 33 79 85t36 97l-20 -2q-33 0 -54.5 22.5t-21.5 57.5q0 33 23.5 56.5t56.5 23.5q41 0 67.5 -33t26.5 -90q0 -76 -39 -147.5t-96 -112.5zM166 0v1366h106v-1366h-106z" glyph-name="lcaron" horiz-adv-x="540" unicode="ľ"/><glyph d="M170 0v1366h117v-1260h661v-106h-778zM731 610q-37 0 -63.5 27t-26.5 63q0 35 26.5 61.5t63.5 26.5t63.5 -26.5t26.5 -61.5q0 -37 -26.5 -63.5t-63.5 -26.5z" glyph-name="Ldot" horiz-adv-x="1032" unicode="Ŀ"/><glyph d="M166 0v1366h106v-1366h-106zM498 412q-37 0 -63.5 26.5t-26.5 63.5q0 35 26.5 61.5t63.5 26.5t63.5 -26.5t26.5 -61.5q0 -37 -26.5 -63.5t-63.5 -26.5z" glyph-name="ldot" horiz-adv-x="559" unicode="ŀ"/><glyph d="M332 106h661v-106h-780v588l-190 -111v109l190 110v670h119v-600l215 125v-109l-215 -125v-551z" glyph-name="Lslash" horiz-adv-x="1077" unicode="Ł"/><glyph d="M545 881v-95l-207 -118v-668h-109v606l-206 -119v95l206 118v666h109v-604z" glyph-name="lslash" horiz-adv-x="567" unicode="ł"/><glyph d="M758 1481h-90l315 295h127zM1147 0l-860 1180v-1180h-117v1366h119l856 -1163v1163h117v-1366h-115z" glyph-name="Nacute" horiz-adv-x="1431" unicode="Ń"/><glyph d="M596 1139h-90l315 295h127zM834 0v670q0 135 -61.5 191.5t-178.5 56.5q-92 0 -182 -49.5t-140 -120.5v-748h-106v989h106v-149q59 70 157.5 122t199.5 52q311 0 311 -322v-692h-106z" glyph-name="nacute" horiz-adv-x="1105" unicode="ń"/><glyph d="M1147 0l-860 1180v-1180h-117v1366h119l856 -1163v1163h117v-1366h-115zM655 -543l-55 45q47 35 79 86.5t34 96.5l-21 -2q-33 0 -53.5 21.5t-20.5 55.5q0 33 23 56.5t55 23.5q41 0 69 -32.5t28 -88.5q0 -78 -39.5 -148.5t-98.5 -113.5z" glyph-name="Ncommaaccent" horiz-adv-x="1431" unicode="Ņ"/><glyph d="M834 0v670q0 135 -61.5 191.5t-178.5 56.5q-92 0 -182 -49.5t-140 -120.5v-748h-106v989h106v-149q59 70 157.5 122t199.5 52q311 0 311 -322v-692h-106zM512 -543l-55 45q47 35 78.5 86.5t33.5 96.5l-20 -2q-33 0 -53.5 21.5t-20.5 55.5q0 33 22.5 56.5t55.5 23.5 q41 0 68.5 -32.5t27.5 -88.5q0 -78 -39 -148.5t-98 -113.5z" glyph-name="ncommaaccent" horiz-adv-x="1105" unicode="ņ"/><glyph d="M662 1481l-205 295h80l180 -232l170 232h82l-197 -295h-110zM1147 0l-860 1180v-1180h-117v1366h119l856 -1163v1163h117v-1366h-115z" glyph-name="Ncaron" horiz-adv-x="1431" unicode="Ň"/><glyph d="M500 1139l-205 295h80l180 -232l170 232h82l-197 -295h-110zM834 0v670q0 135 -61.5 191.5t-178.5 56.5q-92 0 -182 -49.5t-140 -120.5v-748h-106v989h106v-149q59 70 157.5 122t199.5 52q311 0 311 -322v-692h-106z" glyph-name="ncaron" horiz-adv-x="1105" unicode="ň"/><glyph d="M180 1120l-55 45q47 33 79 84t36 99q-4 -4 -21 -5q-33 0 -54.5 23t-21.5 57q0 33 22.5 56.5t57.5 23.5q39 0 66.5 -32.5t27.5 -90.5q0 -76 -39 -146.5t-98 -113.5zM834 0v670q0 135 -61.5 191.5t-178.5 56.5q-92 0 -182 -49.5t-140 -120.5v-748h-106v989h106v-149 q59 70 157.5 122t199.5 52q311 0 311 -322v-692h-106z" glyph-name="napostrophe" horiz-adv-x="1105" unicode="ŉ"/><glyph d="M1145 1366h117v-1354q0 -203 -117 -308t-297 -105q-221 0 -350 168l71 88q111 -150 275 -150q135 0 216 82t85 217l-858 1176v-1180h-117v1366h119l856 -1163v1163z" glyph-name="Eng" horiz-adv-x="1431" unicode="Ŋ"/><glyph d="M940 -127q0 -135 -68.5 -204.5t-193.5 -69.5q-59 0 -113 16l21 92q43 -14 84 -14q164 0 164 180v797q0 135 -61.5 191.5t-178.5 56.5q-92 0 -182 -49.5t-140 -120.5v-748h-106v989h106v-149q59 70 157.5 122t199.5 52q311 0 311 -322v-819z" glyph-name="eng" horiz-adv-x="1105" unicode="ŋ"/><glyph d="M479 1524v75h604v-75h-604zM119 682q0 305 183 506t480 201q295 0 479.5 -201t184.5 -506t-184.5 -506t-479.5 -201q-297 0 -480 201t-183 506zM1323 682q0 264 -148.5 432t-392.5 168q-246 0 -393 -168t-147 -432q0 -262 147.5 -431t392.5 -169q242 0 391.5 169 t149.5 431z" glyph-name="Omacron" horiz-adv-x="1564" unicode="Ō"/><glyph d="M281 1182v75h604v-75h-604zM584 -25q-213 0 -344 149.5t-131 371t131 370t344 148.5q215 0 346 -148.5t131 -370t-131 -371t-346 -149.5zM584 72q168 0 265 123.5t97 300.5q0 174 -97 298t-265 124q-166 0 -263.5 -124t-97.5 -298t97.5 -299t263.5 -125z" glyph-name="omacron" unicode="ō"/><glyph d="M782 1462q-223 0 -360 180l59 52q111 -154 301 -154q188 0 301 154l58 -52q-134 -180 -359 -180zM119 682q0 305 183 506t480 201q295 0 479.5 -201t184.5 -506t-184.5 -506t-479.5 -201q-297 0 -480 201t-183 506zM1323 682q0 264 -148.5 432t-392.5 168 q-246 0 -393 -168t-147 -432q0 -262 147.5 -431t392.5 -169q242 0 391.5 169t149.5 431z" glyph-name="Obreve" horiz-adv-x="1564" unicode="Ŏ"/><glyph d="M584 1120q-223 0 -361 180l60 52q111 -154 301 -154q188 0 301 154l57 -52q-133 -180 -358 -180zM584 -25q-213 0 -344 149.5t-131 371t131 370t344 148.5q215 0 346 -148.5t131 -370t-131 -371t-346 -149.5zM584 72q168 0 265 123.5t97 300.5q0 174 -97 298t-265 124 q-166 0 -263.5 -124t-97.5 -298t97.5 -299t263.5 -125z" glyph-name="obreve" unicode="ŏ"/><glyph d="M670 1481h-76l199 295h112zM954 1481h-75l198 295h113zM119 682q0 305 183 506t480 201q295 0 479.5 -201t184.5 -506t-184.5 -506t-479.5 -201q-297 0 -480 201t-183 506zM1323 682q0 264 -148.5 432t-392.5 168q-246 0 -393 -168t-147 -432q0 -262 147.5 -431 t392.5 -169q242 0 391.5 169t149.5 431z" glyph-name="Ohungarumlaut" horiz-adv-x="1564" unicode="Ő"/><glyph d="M471 1139h-76l199 295h113zM756 1139h-76l199 295h112zM584 -25q-213 0 -344 149.5t-131 371t131 370t344 148.5q215 0 346 -148.5t131 -370t-131 -371t-346 -149.5zM584 72q168 0 265 123.5t97 300.5q0 174 -97 298t-265 124q-166 0 -263.5 -124t-97.5 -298t97.5 -299 t263.5 -125z" glyph-name="ohungarumlaut" unicode="ő"/><glyph d="M1294 0v285q-76 -150 -216 -230t-302 -80q-293 0 -475 201t-182 506t182 504.5t475 199.5q162 0 302.5 -79.5t215.5 -225.5v285h867v-106h-748v-506h733v-107h-733v-541h748v-106h-867zM1294 913q-63 180 -197 273.5t-313 93.5q-248 0 -395 -167t-147 -431t148.5 -432 t393.5 -168q176 0 310.5 95t199.5 276v460z" glyph-name="OE" horiz-adv-x="2283" unicode="Œ"/><glyph d="M1063 461q6 -168 110.5 -280.5t274.5 -112.5q195 0 326 137l55 -70q-156 -160 -387 -160q-182 0 -291 95.5t-147 214.5q-20 -51 -48 -97.5t-77.5 -98.5t-126 -83t-168.5 -31q-213 0 -344 149.5t-131 371t131 370t344 148.5q94 0 170.5 -32t126 -83t78 -98t45.5 -96 q39 113 144 211t273 98q217 0 342 -150.5t125 -374.5v-28h-825zM1780 545q-2 143 -95.5 260t-265.5 117q-162 0 -257 -116t-101 -261h719zM584 918q-164 0 -262.5 -123t-98.5 -299.5t98.5 -301t262.5 -124.5q166 0 264 123.5t98 302.5q0 176 -98 299t-264 123z" glyph-name="oe" horiz-adv-x="1996" unicode="œ"/><glyph d="M657 1481h-90l316 295h127zM971 0l-383 565h-301v-565h-117v1366h510q180 0 298 -108.5t118 -290.5q0 -178 -109.5 -282.5t-269.5 -111.5l395 -573h-141zM973 967q0 129 -84 211t-219 82h-383v-588h383q135 0 219 83t84 212z" glyph-name="Racute" horiz-adv-x="1216" unicode="Ŕ"/><glyph d="M428 1139h-90l315 295h127zM166 0v989h106v-170q145 190 334 191v-117q-18 4 -53 4q-74 0 -160 -55.5t-121 -120.5v-721h-106z" glyph-name="racute" horiz-adv-x="649" unicode="ŕ"/><glyph d="M971 0l-383 565h-301v-565h-117v1366h510q180 0 298 -108.5t118 -290.5q0 -178 -109.5 -282.5t-269.5 -111.5l395 -573h-141zM973 967q0 129 -84 211t-219 82h-383v-588h383q135 0 219 83t84 212zM573 -543l-55 45q47 35 79 86.5t34 96.5l-21 -2q-33 0 -53 21.5t-20 55.5 q0 33 22.5 56.5t54.5 23.5q41 0 69 -32.5t28 -88.5q0 -78 -39.5 -148.5t-98.5 -113.5z" glyph-name="Rcommaaccent" horiz-adv-x="1216" unicode="Ŗ"/><glyph d="M166 0v989h106v-170q145 190 334 191v-117q-18 4 -53 4q-74 0 -160 -55.5t-121 -120.5v-721h-106zM178 -543l-55 45q47 35 78.5 86.5t34.5 96.5l-21 -2q-33 0 -53.5 21.5t-20.5 55.5q0 33 22.5 56.5t55.5 23.5q41 0 68.5 -32.5t27.5 -88.5q0 -78 -39 -148.5t-98 -113.5z " glyph-name="rcommaaccent" horiz-adv-x="649" unicode="ŗ"/><glyph d="M561 1481l-205 295h80l180 -232l170 232h82l-196 -295h-111zM971 0l-383 565h-301v-565h-117v1366h510q180 0 298 -108.5t118 -290.5q0 -178 -109.5 -282.5t-269.5 -111.5l395 -573h-141zM973 967q0 129 -84 211t-219 82h-383v-588h383q135 0 219 83t84 212z" glyph-name="Rcaron" horiz-adv-x="1216" unicode="Ř"/><glyph d="M332 1139l-205 295h80l180 -232l170 232h82l-197 -295h-110zM166 0v989h106v-170q145 190 334 191v-117q-18 4 -53 4q-74 0 -160 -55.5t-121 -120.5v-721h-106z" glyph-name="rcaron" horiz-adv-x="649" unicode="ř"/><glyph d="M627 1481h-90l315 295h127zM94 193l76 88q170 -199 426 -199q190 0 275 83t85 189q0 55 -22.5 100.5t-52 73t-87 53t-98.5 39t-114 31.5q-74 20 -110 31.5t-99.5 35t-96 48.5t-69.5 61.5t-53.5 86t-16.5 110.5q0 164 129 264.5t320 100.5q293 0 463 -193l-78 -86 q-143 172 -391 172q-137 0 -228.5 -70.5t-91.5 -181.5q0 -47 21.5 -85t49 -61.5t82 -46t93.5 -34.5t110 -31q88 -25 135.5 -40t121 -51t110.5 -74t66.5 -101.5t29.5 -143.5q0 -156 -116.5 -271.5t-368.5 -115.5q-322 1 -500 218z" glyph-name="Sacute" horiz-adv-x="1189" unicode="Ś"/><glyph d="M496 1139h-90l315 295h127zM80 131l63 80q51 -63 135 -104t185 -41q123 0 193.5 54t70.5 142q0 37 -16.5 66.5t-39 48t-64.5 36t-71.5 27t-84.5 23.5q-70 16 -103 25.5t-89 33t-84 49t-50.5 69.5t-22.5 99q0 117 95.5 196t257.5 79q223 0 354 -146l-59 -75 q-96 131 -295 131q-113 0 -180.5 -50.5t-67.5 -128.5q0 -33 16.5 -59.5t36 -41.5t61 -31.5t67.5 -23.5t83 -22q70 -18 104.5 -28.5t93 -35t87 -53t52 -75.5t23.5 -109q0 -127 -96 -209t-274 -82q-240 0 -381 156z" glyph-name="sacute" horiz-adv-x="940" unicode="ś"/><glyph d="M762 1481l-176 231l-174 -231h-80l198 295h111l203 -295h-82zM94 193l76 88q170 -199 426 -199q190 0 275 83t85 189q0 55 -22.5 100.5t-52 73t-87 53t-98.5 39t-114 31.5q-74 20 -110 31.5t-99.5 35t-96 48.5t-69.5 61.5t-53.5 86t-16.5 110.5q0 164 129 264.5 t320 100.5q293 0 463 -193l-78 -86q-143 172 -391 172q-137 0 -228.5 -70.5t-91.5 -181.5q0 -47 21.5 -85t49 -61.5t82 -46t93.5 -34.5t110 -31q88 -25 135.5 -40t121 -51t110.5 -74t66.5 -101.5t29.5 -143.5q0 -156 -116.5 -271.5t-368.5 -115.5q-322 1 -500 218z" glyph-name="Scircumflex" horiz-adv-x="1189" unicode="Ŝ"/><glyph d="M631 1139l-176 231l-174 -231h-80l198 295h111l203 -295h-82zM80 131l63 80q51 -63 135 -104t185 -41q123 0 193.5 54t70.5 142q0 37 -16.5 66.5t-39 48t-64.5 36t-71.5 27t-84.5 23.5q-70 16 -103 25.5t-89 33t-84 49t-50.5 69.5t-22.5 99q0 117 95.5 196t257.5 79 q223 0 354 -146l-59 -75q-96 131 -295 131q-113 0 -180.5 -50.5t-67.5 -128.5q0 -33 16.5 -59.5t36 -41.5t61 -31.5t67.5 -23.5t83 -22q70 -18 104.5 -28.5t93 -35t87 -53t52 -75.5t23.5 -109q0 -127 -96 -209t-274 -82q-240 0 -381 156z" glyph-name="scircumflex" horiz-adv-x="940" unicode="ŝ"/><glyph d="M1079 362q0 -70 -23.5 -133t-73.5 -120.5t-143.5 -93t-217.5 -40.5l-35 -90q33 23 76 23q59 0 97 -36t38 -93q0 -76 -59.5 -121t-147.5 -45q-129 0 -199 59l33 66q72 -57 164 -57q57 0 95 25.5t38 72.5q0 74 -84 74q-51 0 -82 -35l-57 32l47 127q-289 18 -451 216l76 88 q170 -199 426 -199q190 0 275 83t85 189q0 55 -22.5 100.5t-52 73t-87 53t-98.5 39t-114 31.5q-74 20 -110 31.5t-99.5 35t-96 48.5t-69.5 61.5t-53.5 86t-16.5 110.5q0 164 129 264.5t320 100.5q293 0 463 -193l-78 -86q-143 172 -391 172q-137 0 -228.5 -70.5 t-91.5 -181.5q0 -47 21.5 -85t49 -61.5t82 -46t93.5 -34.5t110 -31q88 -25 135.5 -40t121 -51t110.5 -74t66.5 -101.5t29.5 -143.5z" glyph-name="Scedilla" horiz-adv-x="1189" unicode="Ş"/><glyph d="M831 266q0 -119 -88 -200.5t-251 -90.5l-35 -90q33 23 75 23q59 0 97.5 -36t38.5 -93q0 -76 -59.5 -121t-147.5 -45q-129 0 -199 59l33 66q72 -57 164 -57q57 0 95 25.5t38 72.5q0 74 -84 74q-51 0 -82 -35l-57 32l47 127q-207 12 -336 154l63 80q51 -63 135 -104 t185 -41q123 0 193.5 54t70.5 142q0 37 -16.5 66.5t-39 48t-64.5 36t-71.5 27t-84.5 23.5q-70 16 -103 25.5t-89 33t-84 49t-50.5 69.5t-22.5 99q0 117 95.5 196t257.5 79q223 0 354 -146l-59 -75q-96 131 -295 131q-113 0 -180.5 -50.5t-67.5 -128.5q0 -33 16.5 -59.5 t36 -41.5t61 -31.5t67.5 -23.5t83 -22q70 -18 104.5 -28.5t93 -35t87 -53t52 -76t23.5 -108.5z" glyph-name="scedilla" horiz-adv-x="940" unicode="ş"/><glyph d="M530 1481l-204 295h80l180 -232l170 232h82l-197 -295h-111zM94 193l76 88q170 -199 426 -199q190 0 275 83t85 189q0 55 -22.5 100.5t-52 73t-87 53t-98.5 39t-114 31.5q-74 20 -110 31.5t-99.5 35t-96 48.5t-69.5 61.5t-53.5 86t-16.5 110.5q0 164 129 264.5t320 100.5 q293 0 463 -193l-78 -86q-143 172 -391 172q-137 0 -228.5 -70.5t-91.5 -181.5q0 -47 21.5 -85t49 -61.5t82 -46t93.5 -34.5t110 -31q88 -25 135.5 -40t121 -51t110.5 -74t66.5 -101.5t29.5 -143.5q0 -156 -116.5 -271.5t-368.5 -115.5q-322 1 -500 218z" glyph-name="Scaron" horiz-adv-x="1189" unicode="Š"/><glyph d="M399 1139l-204 295h79l181 -232l170 232h82l-197 -295h-111zM80 131l63 80q51 -63 135 -104t185 -41q123 0 193.5 54t70.5 142q0 37 -16.5 66.5t-39 48t-64.5 36t-71.5 27t-84.5 23.5q-70 16 -103 25.5t-89 33t-84 49t-50.5 69.5t-22.5 99q0 117 95.5 196t257.5 79 q223 0 354 -146l-59 -75q-96 131 -295 131q-113 0 -180.5 -50.5t-67.5 -128.5q0 -33 16.5 -59.5t36 -41.5t61 -31.5t67.5 -23.5t83 -22q70 -18 104.5 -28.5t93 -35t87 -53t52 -75.5t23.5 -109q0 -127 -96 -209t-274 -82q-240 0 -381 156z" glyph-name="scaron" horiz-adv-x="940" unicode="š"/><glyph d="M518 0v1260h-446v106h1011v-106h-446v-1260h-119zM537 -543l-56 45q47 35 79 86.5t34 96.5l-21 -2q-33 0 -53 21.5t-20 55.5q0 33 22.5 56.5t55.5 23.5q41 0 68.5 -32.5t27.5 -88.5q0 -78 -39 -148.5t-98 -113.5z" glyph-name="Tcommaaccent" horiz-adv-x="1155" unicode="Ţ"/><glyph d="M381 -25q-195 0 -195 215v705h-163v94h163v271h109v-271h201v-94h-201v-688q0 -135 102 -135q68 0 111 47l41 -82q-66 -62 -168 -62zM250 -543l-55 45q47 35 78.5 86.5t33.5 96.5l-20 -2q-33 0 -53.5 21.5t-20.5 55.5q0 33 22.5 56.5t55.5 23.5q41 0 68.5 -32.5 t27.5 -88.5q0 -78 -39 -148.5t-98 -113.5z" glyph-name="tcommaaccent" horiz-adv-x="563" unicode="ţ"/><glyph d="M524 1481l-205 295h80l181 -232l170 232h81l-196 -295h-111zM518 0v1260h-446v106h1011v-106h-446v-1260h-119z" glyph-name="Tcaron" horiz-adv-x="1155" unicode="Ť"/><glyph d="M463 1120l-55 45q47 35 78.5 86.5t33.5 96.5q0 -4 -20 -5q-33 0 -53.5 23t-20.5 57q0 33 22.5 56.5t57.5 23.5q39 0 66.5 -32.5t27.5 -90.5q0 -76 -39 -146.5t-98 -113.5zM381 -25q-195 0 -195 215v705h-163v94h163v271h109v-271h201v-94h-201v-688q0 -135 102 -135 q68 0 111 47l41 -82q-66 -62 -168 -62z" glyph-name="tcaron" horiz-adv-x="583" unicode="ť"/><glyph d="M1083 1260h-446v-553h324v-76h-324v-631h-119v631h-323v76h323v553h-446v106h1011v-106z" glyph-name="Tbar" horiz-adv-x="1155" unicode="Ŧ"/><glyph d="M508 119l41 -82q-66 -61 -168 -62q-195 0 -195 215v289h-163v78h163v338h-163v94h163v271h109v-271h201v-94h-201v-338h145v-78h-145v-272q0 -135 102 -135q68 0 111 47z" glyph-name="tbar" horiz-adv-x="563" unicode="ŧ"/><glyph d="M674 1595q-51 92 -103 93q-49 0 -79.5 -49.5t-30.5 -149.5h-72q0 119 50 196.5t141 77.5q39 0 69.5 -20.5t45 -40t38.5 -57.5q20 -33 29.5 -46.5t30 -29t43.5 -15.5q49 0 78.5 49.5t29.5 147.5h74q0 -121 -49 -197.5t-140 -76.5q-41 0 -72.5 20.5t-44.5 38.5t-38 59z M170 524v842h119v-840q0 -209 107.5 -326.5t305.5 -117.5q201 0 307.5 116.5t106.5 327.5v840h119v-842q0 -258 -136 -403.5t-397 -145.5q-258 0 -395 146.5t-137 402.5z" glyph-name="Utilde" horiz-adv-x="1404" unicode="Ũ"/><glyph d="M524 1253q-51 92 -102 93q-49 0 -80 -49.5t-31 -149.5h-71q0 119 50 196.5t140 77.5q39 0 69.5 -20.5t45 -40t39.5 -57.5q20 -33 29.5 -46.5t30 -29t42.5 -15.5q49 0 79 49.5t30 147.5h73q0 -121 -49 -197.5t-139 -76.5q-41 0 -73 20.5t-45 38.5t-38 59zM834 0v145 q-68 -74 -162 -122t-195 -48q-156 0 -233.5 77t-77.5 241v696h106v-672q0 -137 61.5 -191t178.5 -54q92 0 181 47t141 117v753h106v-989h-106z" glyph-name="utilde" horiz-adv-x="1105" unicode="ũ"/><glyph d="M399 1524v75h605v-75h-605zM170 524v842h119v-840q0 -209 107.5 -326.5t305.5 -117.5q201 0 307.5 116.5t106.5 327.5v840h119v-842q0 -258 -136 -403.5t-397 -145.5q-258 0 -395 146.5t-137 402.5z" glyph-name="Umacron" horiz-adv-x="1404" unicode="Ū"/><glyph d="M250 1182v75h604v-75h-604zM834 0v145q-68 -74 -162 -122t-195 -48q-156 0 -233.5 77t-77.5 241v696h106v-672q0 -137 61.5 -191t178.5 -54q92 0 181 47t141 117v753h106v-989h-106z" glyph-name="umacron" horiz-adv-x="1105" unicode="ū"/><glyph d="M702 1462q-223 0 -360 180l59 52q111 -154 301 -154q188 0 302 154l57 -52q-134 -180 -359 -180zM170 524v842h119v-840q0 -209 107.5 -326.5t305.5 -117.5q201 0 307.5 116.5t106.5 327.5v840h119v-842q0 -258 -136 -403.5t-397 -145.5q-258 0 -395 146.5t-137 402.5z " glyph-name="Ubreve" horiz-adv-x="1404" unicode="Ŭ"/><glyph d="M553 1120q-223 0 -360 180l59 52q111 -154 301 -154q188 0 301 154l57 -52q-133 -180 -358 -180zM834 0v145q-68 -74 -162 -122t-195 -48q-156 0 -233.5 77t-77.5 241v696h106v-672q0 -137 61.5 -191t178.5 -54q92 0 181 47t141 117v753h106v-989h-106z" glyph-name="ubreve" horiz-adv-x="1105" unicode="ŭ"/><glyph d="M508 1661q0 80 57.5 138.5t139.5 58.5q80 0 136 -58.5t56 -138.5q0 -82 -56.5 -139.5t-135.5 -57.5q-82 0 -139.5 57.5t-57.5 139.5zM834 1661q0 53 -38 92t-91.5 39t-92.5 -39t-39 -92t39 -92t92.5 -39t91.5 39t38 92zM170 524v842h119v-840q0 -209 107.5 -326.5 t305.5 -117.5q201 0 307.5 116.5t106.5 327.5v840h119v-842q0 -258 -136 -403.5t-397 -145.5q-258 0 -395 146.5t-137 402.5z" glyph-name="Uring" horiz-adv-x="1404" unicode="Ů"/><glyph d="M356 1319q0 80 57.5 138.5t139.5 58.5q80 0 136 -58.5t56 -138.5q0 -82 -56 -139.5t-136 -57.5q-82 0 -139.5 57.5t-57.5 139.5zM682 1319q0 53 -38 92t-91 39t-92 -39t-39 -92t39 -92t92 -39t91 39t38 92zM834 0v145q-68 -74 -162 -122t-195 -48q-156 0 -233.5 77 t-77.5 241v696h106v-672q0 -137 61.5 -191t178.5 -54q92 0 181 47t141 117v753h106v-989h-106z" glyph-name="uring" horiz-adv-x="1105" unicode="ů"/><glyph d="M590 1481h-76l199 295h112zM874 1481h-75l198 295h113zM170 524v842h119v-840q0 -209 107.5 -326.5t305.5 -117.5q201 0 307.5 116.5t106.5 327.5v840h119v-842q0 -258 -136 -403.5t-397 -145.5q-258 0 -395 146.5t-137 402.5z" glyph-name="Uhungarumlaut" horiz-adv-x="1404" unicode="Ű"/><glyph d="M440 1139h-75l198 295h113zM725 1139h-76l199 295h113zM834 0v145q-68 -74 -162 -122t-195 -48q-156 0 -233.5 77t-77.5 241v696h106v-672q0 -137 61.5 -191t178.5 -54q92 0 181 47t141 117v753h106v-989h-106z" glyph-name="uhungarumlaut" horiz-adv-x="1105" unicode="ű"/><glyph d="M170 524v842h119v-840q0 -209 107.5 -326.5t305.5 -117.5q201 0 307.5 116.5t106.5 327.5v840h119v-842q0 -397 -305 -512q-113 -43 -176.5 -100t-63.5 -121q0 -41 25.5 -65.5t70.5 -24.5q41 0 70 20l35 -69q-53 -33 -121 -33q-78 0 -133 40t-55 110q0 115 163 208 q-14 -2 -43 -2q-258 0 -395 146.5t-137 402.5z" glyph-name="Uogonek" horiz-adv-x="1404" unicode="Ų"/><glyph d="M834 989h106v-989q-201 -94 -201 -209q0 -41 26 -65.5t71 -24.5q39 0 71 20l33 -69q-49 -33 -121 -33q-78 0 -133 40t-55 110q0 129 203 231v145q-68 -74 -162 -122t-195 -48q-156 0 -233.5 77t-77.5 241v696h106v-672q0 -137 61.5 -191t178.5 -54q92 0 181 47t141 117 v753z" glyph-name="uogonek" horiz-adv-x="1105" unicode="ų"/><glyph d="M1065 1481l-176 231l-174 -231h-80l199 295h110l203 -295h-82zM1217 0l-328 1174l-328 -1174h-131l-391 1366h131l330 -1202l336 1202h106l334 -1202l330 1202h131l-389 -1366h-131z" glyph-name="Wcircumflex" horiz-adv-x="1775" unicode="Ŵ"/><glyph d="M913 1139l-176 231l-174 -231h-80l199 295h111l202 -295h-82zM1014 0l-277 846l-278 -846h-103l-321 989h115l262 -839l278 839h92l279 -839l262 839h115l-322 -989h-102z" glyph-name="wcircumflex" horiz-adv-x="1472" unicode="ŵ"/><glyph d="M811 1481l-176 231l-174 -231h-80l199 295h110l203 -295h-82zM573 0v584l-542 782h141l461 -672l461 672h141l-543 -782v-584h-119z" glyph-name="Ycircumflex" horiz-adv-x="1265" unicode="Ŷ"/><glyph d="M494 1370l-175 -231h-79l198 295h111l203 -295h-82zM850 989h121l-512 -1206q-78 -184 -254 -184q-57 0 -105 14l19 98q37 -16 86 -16q100 0 149 121l78 176l-418 997h119l361 -864z" glyph-name="ycircumflex" horiz-adv-x="985" unicode="ŷ"/><glyph d="M424 1505q-31 0 -53.5 22.5t-22.5 55.5q0 31 22.5 53.5t53.5 22.5t53.5 -22.5t22.5 -53.5q0 -33 -22.5 -55.5t-53.5 -22.5zM841.5 1505q-30.5 0 -53 22.5t-22.5 55.5q0 31 22.5 53.5t53 22.5t54.5 -22.5t24 -53.5q0 -33 -24 -55.5t-54.5 -22.5zM573 0v584l-542 782h141 l461 -672l461 672h141l-543 -782v-584h-119z" glyph-name="Ydieresis" horiz-adv-x="1265" unicode="Ÿ"/><glyph d="M637 1481h-90l315 295h127zM102 0v102l824 1158h-824v106h971v-100l-823 -1160h837v-106h-985z" glyph-name="Zacute" horiz-adv-x="1189" unicode="Ź"/><glyph d="M520 1139h-88l316 295h126zM115 0v88l585 807h-585v94h723v-86l-592 -809h600v-94h-731z" glyph-name="zacute" horiz-adv-x="960" unicode="ź"/><glyph d="M518 1577q0 33 22.5 55.5t55.5 22.5q31 0 53.5 -22.5t22.5 -55.5t-22.5 -55.5t-53.5 -22.5q-33 0 -55.5 22.5t-22.5 55.5zM102 0v102l824 1158h-824v106h971v-100l-823 -1160h837v-106h-985z" glyph-name="Zdotaccent" horiz-adv-x="1189" unicode="Ż"/><glyph d="M401 1235q0 33 24 55.5t54 22.5q33 0 55.5 -22.5t22.5 -55.5t-22.5 -55.5t-55.5 -22.5q-31 0 -54.5 22.5t-23.5 55.5zM115 0v88l585 807h-585v94h723v-86l-592 -809h600v-94h-731z" glyph-name="zdotaccent" horiz-adv-x="960" unicode="ż"/><glyph d="M541 1481l-205 295h80l180 -232l170 232h82l-197 -295h-110zM102 0v102l824 1158h-824v106h971v-100l-823 -1160h837v-106h-985z" glyph-name="Zcaron" horiz-adv-x="1189" unicode="Ž"/><glyph d="M426 1139l-205 295h80l180 -232l170 232h82l-196 -295h-111zM115 0v88l585 807h-585v94h723v-86l-592 -809h600v-94h-731z" glyph-name="zcaron" horiz-adv-x="960" unicode="ž"/><glyph d="M201 0v895h-164v94h164v90q0 145 71.5 226t196.5 81q80 0 133 -30l-33 -84q-39 23 -90 22q-172 0 -172 -215v-1079h-106z" glyph-name="longs" horiz-adv-x="542" unicode="ſ"/><glyph d="M721 1389q293 0 492.5 -198t199.5 -509q0 -313 -191.5 -511t-478.5 -198q-305 0 -479 203t-174 537h1198q-10 252 -171 410.5t-396 158.5q-129 0 -240.5 -51t-185.5 -139l-90 63q207 234 516 234zM737 80q223 0 374 146.5t171 381.5h-1065q18 -231 154.5 -379.5 t365.5 -148.5z" glyph-name="uni018F" horiz-adv-x="1531" unicode="Ə"/><glyph d="M68 -330l190 862h-152v101h173l100 452q33 139 122 220t214 81q109 0 174 -67l-62 -86q-41 47 -104 47q-84 0 -144.5 -56.5t-82.5 -152.5l-99 -438h310v-101h-330l-191 -862h-118z" glyph-name="florin" horiz-adv-x="864" unicode="ƒ"/><glyph d="M1145 1366h117v-1366h-115l-860 1180v-1162q0 -205 -117 -312t-297 -107q-61 0 -113 12l11 110q41 -16 98 -16q137 0 219 87t82 226v1348h119l856 -1163v1163z" glyph-name="uni019D" horiz-adv-x="1431" unicode="Ɲ"/><glyph d="M1454 1360q0 -74 -37 -142.5t-92 -109.5q121 -184 121 -426q0 -305 -184.5 -506t-479.5 -201q-297 0 -480 201t-183 506t183 506t480 201q313 0 502 -228q90 78 94 166l-20 -2q-31 0 -51.5 21.5t-20.5 54.5q0 31 21.5 53.5t54.5 22.5q39 0 65.5 -31t26.5 -86zM782 82 q242 0 391.5 169t149.5 431q0 264 -148.5 432t-392.5 168q-246 0 -393 -168t-147 -432q0 -262 147 -431t393 -169z" glyph-name="Ohorn" horiz-adv-x="1564" unicode="Ơ"/><glyph d="M946 846q115 -143 115 -350q0 -221 -131 -371t-346 -150q-213 0 -344 149.5t-131 371t131 370t344 148.5q186 0 315 -119q80 78 84 158l-20 -2q-31 0 -51.5 21.5t-20.5 53.5q0 31 21.5 53.5t54.5 22.5q39 0 65.5 -30.5t26.5 -86.5q0 -139 -113 -239zM584 72 q168 0 265 123.5t97 300.5q0 174 -97 298t-265 124q-166 0 -263.5 -124t-97.5 -298t97.5 -299t263.5 -125z" glyph-name="ohorn" unicode="ơ"/><glyph d="M1477 1493q0 -100 -67 -186t-175 -127v-656q0 -258 -136 -403.5t-397 -145.5q-258 0 -395 146.5t-137 402.5v842h119v-840q0 -209 107.5 -326.5t305.5 -117.5q201 0 307.5 116.5t106.5 327.5v840h119v-117q70 31 117 91.5t49 121.5q0 -4 -19 -4q-33 0 -53 22.5t-20 55.5 q0 31 21.5 53.5t53.5 22.5q39 0 66 -32t27 -87z" glyph-name="Uhorn" horiz-adv-x="1404" unicode="Ư"/><glyph d="M1141 1092q0 -92 -54.5 -171t-146.5 -126v-795h-106v145q-68 -74 -162 -122t-195 -48q-156 0 -233.5 77t-77.5 241v696h106v-672q0 -137 61.5 -191t178.5 -54q92 0 181 47t141 117v753h106v-121q121 80 125 191q-12 -2 -18 -2q-33 0 -53.5 21.5t-20.5 54.5q0 31 22.5 53 t55.5 22q39 0 64.5 -30.5t25.5 -85.5z" glyph-name="uhorn" horiz-adv-x="1105" unicode="ư"/><glyph d="M756 1481l-205 295h80l180 -232l170 232h82l-197 -295h-110zM119 682q0 311 199.5 509t492.5 198q311 0 514 -234l-88 -63q-74 88 -185.5 139t-240.5 51q-244 0 -406.5 -168t-162.5 -432q0 -262 162.5 -432t406.5 -170q125 0 229.5 49t171.5 117v327h-516v105h633v-477 q-203 -227 -518 -228q-293 0 -492.5 199t-199.5 510z" glyph-name="Gcaron" horiz-adv-x="1456" unicode="Ǧ"/><glyph d="M535 1139l-205 295h80l180 -232l170 232h82l-197 -295h-110zM168 -252l61 82q63 -76 139 -107.5t189 -31.5q147 0 242.5 78.5t95.5 238.5v156q-55 -80 -146.5 -132t-197.5 -52q-199 0 -320.5 140t-121.5 376q0 233 122.5 375.5t319.5 142.5q213 0 344 -185v160h109v-979 q0 -213 -124 -312t-323 -99q-129 0 -217 31.5t-172 117.5zM895 256v481q-45 76 -135 128.5t-191 52.5q-160 0 -253 -119t-93 -303.5t93.5 -302t252.5 -117.5q100 0 190.5 52t135.5 128z" glyph-name="gcaron" horiz-adv-x="1167" unicode="ǧ"/><glyph d="M930 -10q-180 -90 -180 -199q0 -41 25.5 -65.5t70.5 -24.5q39 0 72 20l32 -69q-49 -33 -121 -33q-78 0 -133 40t-55 110q0 113 160 206h-19q-297 0 -480 201t-183 506t183 506t480 201q295 0 479.5 -201t184.5 -506q0 -262 -140 -451.5t-376 -240.5zM242 682 q0 -262 147.5 -431t392.5 -169q242 0 391.5 169t149.5 431q0 264 -148.5 432t-392.5 168q-246 0 -393 -168t-147 -432z" glyph-name="uni01EA" horiz-adv-x="1564" unicode="Ǫ"/><glyph d="M715 -8q-184 -90 -185 -201q0 -41 26 -65.5t71 -24.5q39 0 71 20l33 -69q-49 -33 -121 -33q-78 0 -133 40t-55 110q0 113 158 206q-211 2 -341 151.5t-130 369.5q0 221 131 369.5t344 148.5q215 0 346 -148.5t131 -369.5q0 -184 -93 -321.5t-253 -182.5zM223 496 q0 -174 97.5 -299t263.5 -125q168 0 265 123.5t97 300.5q0 174 -97 298t-265 124q-166 0 -263.5 -124t-97.5 -298z" glyph-name="uni01EB" unicode="ǫ"/><glyph d="M702 1915h-90l316 295h127zM467 1661q0 80 57.5 138.5t139.5 58.5q80 0 136 -58.5t56 -138.5q0 -82 -56.5 -139.5t-135.5 -57.5q-82 0 -139.5 57.5t-57.5 139.5zM793 1661q0 53 -38 92t-91.5 39t-92.5 -39t-39 -92t39 -92t92.5 -39t91.5 39t38 92zM1163 0l-137 336h-727 l-137 -336h-131l559 1366h145l559 -1366h-131zM662 1251l-326 -809h653z" glyph-name="Aringacute" horiz-adv-x="1325" unicode="Ǻ"/><glyph d="M582 1573h-90l315 295h127zM346 1319q0 80 57.5 138.5t139.5 58.5q80 0 136 -58.5t56 -138.5q0 -82 -56 -139.5t-136 -57.5q-82 0 -139.5 57.5t-57.5 139.5zM672 1319q0 53 -38 92t-91.5 39t-92 -39t-38.5 -92t38.5 -92t92 -39t91.5 39t38 92zM795 0v117 q-129 -141 -336 -142q-137 0 -241.5 89.5t-104.5 240.5q0 154 103 241t243 87q209 0 336 -141v200q0 106 -76 167t-191 61q-182 0 -309 -146l-59 74q154 166 381 166q160 0 260 -80t100 -238v-696h-106zM795 195v217q-106 137 -299 137q-121 0 -196 -69.5t-75 -176 t75 -175.5t196 -69q195 1 299 136z" glyph-name="aringacute" horiz-adv-x="1067" unicode="ǻ"/><glyph d="M1034 1481h-90l316 295h126zM934 0v336h-563l-211 -336h-131l862 1366h909v-106h-747v-506h733v-107h-733v-541h747v-106h-866zM934 1253l-506 -811h506v811z" glyph-name="AEacute" horiz-adv-x="1923" unicode="Ǽ"/><glyph d="M1298 1434l-352 -295h-90l315 295h127zM1729 489v-28h-777q8 -168 104.5 -280.5t252.5 -112.5q182 0 303 137l55 -70q-147 -160 -358 -160q-137 0 -241.5 68t-160.5 197q-47 -121 -154.5 -193t-244.5 -72q-172 0 -283.5 88.5t-111.5 242t106.5 240.5t259.5 87 q227 0 367 -137v196q0 109 -79 168.5t-210 59.5q-199 0 -338 -146l-59 74q154 166 413 166q129 0 228.5 -56.5t120.5 -179.5q53 104 148 170t220 66q207 0 323 -150t116 -375zM952 545h668q0 145 -86 261t-248 116q-150 0 -239 -117t-95 -260zM846 377v33q-117 139 -326 139 q-133 0 -214 -67.5t-81 -172.5q0 -106 81 -173.5t214 -67.5q141 0 233.5 93t92.5 216z" glyph-name="aeacute" horiz-adv-x="1837" unicode="ǽ"/><glyph d="M1114 1776l-352 -295h-90l315 295h127zM1192 1251q121 -96 187.5 -244.5t66.5 -324.5q0 -305 -184.5 -506t-479.5 -201q-190 0 -344 91l-41 -66h-104l74 117q-119 96 -183.5 242.5t-64.5 322.5q0 305 183 506t480 201q188 0 336 -86l41 63h107zM242 682q0 -299 186 -469 l631 995q-121 74 -277 74q-246 0 -393 -168t-147 -432zM782 82q242 0 391.5 169t149.5 431q0 307 -193 473l-632 -995q126 -78 284 -78z" glyph-name="Oslashacute" horiz-adv-x="1564" unicode="Ǿ"/><glyph d="M979 1434l-352 -295h-90l315 295h127zM915 881q145 -150 146 -385q0 -221 -131 -371t-346 -150q-168 0 -287 97l-55 -72h-90l92 121q-135 147 -135 375q0 221 131 369.5t344 148.5q156 0 278 -86l47 61h90zM223 496q0 -168 88 -287l488 635q-90 74 -215 74 q-166 0 -263.5 -124t-97.5 -298zM584 72q168 0 265 123.5t97 300.5q0 174 -96 297l-490 -639q93 -82 224 -82z" glyph-name="oslashacute" unicode="ǿ"/><glyph d="M94 193l76 88q170 -199 426 -199q190 0 275 83t85 189q0 55 -22.5 100.5t-52 73t-87 53t-98.5 39t-114 31.5q-74 20 -110 31.5t-99.5 35t-96 48.5t-69.5 61.5t-53.5 86t-16.5 110.5q0 164 129 264.5t320 100.5q293 0 463 -193l-78 -86q-143 172 -391 172 q-137 0 -228.5 -70.5t-91.5 -181.5q0 -47 21.5 -85t49 -61.5t82 -46t93.5 -34.5t110 -31q88 -25 135.5 -40t121 -51t110.5 -74t66.5 -101.5t29.5 -143.5q0 -156 -116.5 -271.5t-368.5 -115.5q-322 1 -500 218zM543 -543l-56 45q47 35 79 86.5t34 96.5l-20 -2 q-33 0 -53.5 21.5t-20.5 55.5q0 33 22.5 56.5t55.5 23.5q41 0 68.5 -32.5t27.5 -88.5q0 -78 -39 -148.5t-98 -113.5z" glyph-name="Scommaaccent" horiz-adv-x="1189" unicode="Ș"/><glyph d="M80 131l63 80q51 -63 135 -104t185 -41q123 0 193.5 54t70.5 142q0 37 -16.5 66.5t-39 48t-64.5 36t-71.5 27t-84.5 23.5q-70 16 -103 25.5t-89 33t-84 49t-50.5 69.5t-22.5 99q0 117 95.5 196t257.5 79q223 0 354 -146l-59 -75q-96 131 -295 131q-113 0 -180.5 -50.5 t-67.5 -128.5q0 -33 16.5 -59.5t36 -41.5t61 -31.5t67.5 -23.5t83 -22q70 -18 104.5 -28.5t93 -35t87 -53t52 -75.5t23.5 -109q0 -127 -96 -209t-274 -82q-240 0 -381 156zM412 -543l-56 45q47 35 79 86.5t34 96.5l-20 -2q-33 0 -53.5 21.5t-20.5 55.5q0 33 22.5 56.5 t55.5 23.5q41 0 68.5 -32.5t27.5 -88.5q0 -78 -39 -148.5t-98 -113.5z" glyph-name="scommaaccent" horiz-adv-x="940" unicode="ș"/><glyph d="M518 0v1260h-446v106h1011v-106h-446v-1260h-119zM537 -543l-56 45q47 35 79 86.5t34 96.5l-21 -2q-33 0 -53 21.5t-20 55.5q0 33 22.5 56.5t55.5 23.5q41 0 68.5 -32.5t27.5 -88.5q0 -78 -39 -148.5t-98 -113.5z" glyph-name="uni021A" horiz-adv-x="1155" unicode="Ț"/><glyph d="M381 -25q-195 0 -195 215v705h-163v94h163v271h109v-271h201v-94h-201v-688q0 -135 102 -135q68 0 111 47l41 -82q-66 -62 -168 -62zM250 -543l-55 45q47 35 78.5 86.5t33.5 96.5l-20 -2q-33 0 -53.5 21.5t-20.5 55.5q0 33 22.5 56.5t55.5 23.5q41 0 68.5 -32.5 t27.5 -88.5q0 -78 -39 -148.5t-98 -113.5z" glyph-name="uni021B" horiz-adv-x="563" unicode="ț"/><glyph d="M330 1524v75h604v-75h-604zM573 0v584l-542 782h141l461 -672l461 672h141l-543 -782v-584h-119z" glyph-name="uni0232" horiz-adv-x="1265" unicode="Ȳ"/><glyph d="M795 1257v-75h-605v75h605zM850 989h121l-512 -1206q-78 -184 -254 -184q-57 0 -105 14l19 98q37 -16 86 -16q100 0 149 121l78 176l-418 997h119l361 -864z" glyph-name="uni0233" horiz-adv-x="985" unicode="ȳ"/><glyph d="M-102 -385l20 92q43 -14 84 -14q164 0 164 180v1116h106v-1116q0 -135 -68.5 -204.5t-193.5 -69.5q-59 0 -112 16z" glyph-name="uni0237" horiz-adv-x="438" unicode="ȷ"/><glyph d="M1051 494q0 -217 -135.5 -368t-340.5 -151q-217 0 -341.5 150.5t-124.5 374.5v30h827q-8 166 -112.5 279t-274.5 113q-197 0 -324 -138l-55 70q154 160 387 160q217 0 355.5 -145.5t138.5 -374.5zM578 68q162 0 257 115.5t101 260.5h-719q0 -143 94.5 -259.5 t266.5 -116.5z" glyph-name="uni0259" horiz-adv-x="1161" unicode="ə"/><glyph d="M629 1014q311 0 311 -322v-692h-106v670q0 135 -61.5 191.5t-178.5 56.5q-92 0 -182 -49.5t-140 -120.5v-875q0 -135 -68.5 -204.5t-193.5 -69.5q-59 0 -112 16l20 92q43 -14 84 -14q164 0 164 180v1116h106v-149q59 70 158 122t199 52z" glyph-name="uni0272" horiz-adv-x="1105" unicode="ɲ"/><glyph d="M584 668v426q0 88 -40 123.5t-116 35.5q-59 0 -117.5 -30.5t-91.5 -73.5v-481h-86v888h86v-342q39 45 104.5 79t135.5 34q213 0 213 -221v-438h-88z" glyph-name="uni02B0" horiz-adv-x="802" unicode="ʰ"/><glyph d="M178 977l-59 49q49 33 81.5 87t37.5 104q0 -4 -21 -5q-37 0 -60.5 25t-23.5 61q0 35 25.5 61.5t62.5 26.5q43 0 74 -34.5t31 -96.5q0 -82 -42.5 -158.5t-105.5 -119.5z" glyph-name="afii57929" horiz-adv-x="448" unicode="ʼ"/><glyph d="M430 1139l-176 231l-174 -231h-80l199 295h110l203 -295h-82z" glyph-name="circumflex" horiz-adv-x="512" unicode="ˆ"/><glyph d="M205 1139l-205 295h80l180 -232l170 232h82l-197 -295h-110z" glyph-name="caron" horiz-adv-x="512" unicode="ˇ"/><glyph d="M70 1210v78h604v-78h-604z" glyph-name="uni02C9" horiz-adv-x="743" unicode="ˉ"/><glyph d="M352 1139l-352 295h127l315 -295h-90z" glyph-name="uni02CB" horiz-adv-x="442" unicode="ˋ"/><glyph d="M360 1120q-223 0 -360 180l59 52q111 -154 301 -154q188 0 302 154l57 -52q-134 -180 -359 -180z" glyph-name="breve" horiz-adv-x="718" unicode="˘"/><glyph d="M117 1313q31 0 53.5 -22.5t22.5 -55.5t-23 -55.5t-53 -22.5q-33 0 -55.5 22.5t-22.5 55.5t22.5 55.5t55.5 22.5z" glyph-name="dotaccent" horiz-adv-x="231" unicode="˙"/><glyph d="M41 1319q0 80 57.5 138.5t139.5 58.5q80 0 136 -58.5t56 -138.5q0 -82 -56.5 -139.5t-135.5 -57.5q-82 0 -139.5 57.5t-57.5 139.5zM367 1319q0 53 -38 92t-91.5 39t-92.5 -39t-39 -92t39 -92t92.5 -39t91.5 39t38 92z" glyph-name="ring" horiz-adv-x="471" unicode="˚"/><glyph d="M344 -348q-49 -33 -121 -33q-78 0 -133 40t-55 109.5t63.5 134t165.5 109.5l80 -12q-201 -94 -201 -209q0 -41 26 -65.5t71 -24.5q39 0 71 20z" glyph-name="ogonek" horiz-adv-x="378" unicode="˛"/><glyph d="M285 1253q-51 92 -103 93q-49 0 -79.5 -49.5t-30.5 -149.5h-72q0 119 50 196.5t140 77.5q39 0 70 -20.5t45 -40t39 -57.5q20 -33 29.5 -46.5t30 -29t42.5 -15.5q49 0 79 49.5t30 147.5h74q0 -121 -49.5 -197.5t-139.5 -76.5q-41 0 -72.5 20.5t-44.5 38.5t-38 59z" glyph-name="tilde" horiz-adv-x="628" unicode="˜"/><glyph d="M76 1139h-76l199 295h112zM360 1139h-75l198 295h113z" glyph-name="hungarumlaut" horiz-adv-x="595" unicode="˝"/><glyph d="M-90 1139l-352 295h127l317 -295h-92z" glyph-name="gravecomb" horiz-adv-x="0" unicode="̀"/><glyph d="M-352 1139h-90l315 295h129z" glyph-name="acutecomb" horiz-adv-x="0" unicode="́"/><glyph d="M-82 1139l-176 231l-174 -231h-80l199 295h110l203 -295h-82z" glyph-name="uni0302" horiz-adv-x="0" unicode="̂"/><glyph d="M-344 1253q-51 92 -102 93q-49 0 -80 -49.5t-31 -149.5h-72q0 119 50.5 196.5t140.5 77.5q39 0 69.5 -20.5t45 -40t38.5 -57.5q20 -33 29.5 -46.5t30 -29t43.5 -15.5q49 0 78.5 49.5t29.5 147.5h74q0 -121 -49 -197.5t-139 -76.5q-41 0 -73 20.5t-45 38.5t-38 59z" glyph-name="tildecomb" horiz-adv-x="0" unicode="̃"/><glyph d="M-674 1182v75h604v-75h-604z" glyph-name="uni0304" horiz-adv-x="0" unicode="̄"/><glyph d="M-358 1120q-223 0 -361 180l60 52q111 -154 301 -154q188 0 301 154l57 -52q-133 -180 -358 -180z" glyph-name="uni0306" horiz-adv-x="0" unicode="̆"/><glyph d="M-115 1313q31 0 53.5 -22.5t22.5 -55.5t-22.5 -55.5t-53.5 -22.5q-33 0 -55.5 22.5t-22.5 55.5t22.5 55.5t55.5 22.5zM-193 1235z" glyph-name="uni0307" horiz-adv-x="0" unicode="̇"/><glyph d="M-626.5 1163q-30.5 0 -53 22.5t-22.5 55.5q0 31 22.5 53.5t53 22.5t53 -22.5t22.5 -53.5q0 -33 -22.5 -55.5t-53 -22.5zM-209 1163q-31 0 -53.5 22.5t-22.5 55.5q0 31 22.5 53.5t53.5 22.5t54.5 -22.5t23.5 -53.5q0 -33 -23.5 -55.5t-54.5 -22.5z" glyph-name="uni0308" horiz-adv-x="0" unicode="̈"/><glyph d="M-367 1325q18 61 65.5 101t119.5 40q78 0 129 -45t51 -135q0 -70 -53 -145h-88q66 68 65 145q0 53 -27.5 82t-76.5 29q-84 0 -115 -94z" glyph-name="hookabovecomb" horiz-adv-x="0" unicode="̉"/><glyph d="M-430 1319q0 80 57.5 138.5t139.5 58.5q80 0 136 -58.5t56 -138.5q0 -82 -56.5 -139.5t-135.5 -57.5q-82 0 -139.5 57.5t-57.5 139.5zM-104 1319q0 53 -38 92t-91.5 39t-92.5 -39t-39 -92t39 -92t92.5 -39t91.5 39t38 92z" glyph-name="uni030A" horiz-adv-x="0" unicode="̊"/><glyph d="M-520 1139h-76l199 295h112zM-236 1139h-75l198 295h113z" glyph-name="uni030B" horiz-adv-x="0" unicode="̋"/><glyph d="M-307 1139l-205 295h80l180 -232l170 232h82l-197 -295h-110z" glyph-name="uni030C" horiz-adv-x="0" unicode="̌"/><glyph d="M-268 -543l-56 45q47 35 79 86.5t34 96.5l-20 -2q-33 0 -53.5 21.5t-20.5 55.5q0 33 22.5 56.5t55.5 23.5q41 0 68.5 -32.5t27.5 -88.5q0 -78 -39 -148.5t-98 -113.5z" glyph-name="uni0326" horiz-adv-x="0" unicode="̦"/><glyph d="M-406 -328l33 66q72 -57 164 -57q57 0 95 25.5t38 72.5q0 74 -84 74q-51 0 -82 -35l-57 32l63 173h78l-53 -140q31 25 76 25q59 0 97 -36t38 -93q0 -76 -59.5 -121t-147.5 -45q-129 0 -199 59z" glyph-name="uni0327" horiz-adv-x="0" unicode="̧"/><glyph d="M-35 -348q-49 -33 -121 -33q-78 0 -133 40t-55 109.5t63.5 134t165.5 109.5l80 -12q-201 -94 -201 -209q0 -41 26 -65.5t71 -24.5q39 0 71 20z" glyph-name="uni0328" horiz-adv-x="0" unicode="̨"/><glyph d="M223 825q-37 0 -63.5 27t-26.5 61q0 37 26.5 64t63.5 27t64.5 -27t27.5 -64q0 -35 -27.5 -61.5t-64.5 -26.5zM178 -252l-59 51q49 33 81.5 87.5t37.5 101.5l-21 -2q-37 0 -60.5 24.5t-23.5 61.5q0 35 25.5 61.5t62.5 26.5q43 0 74 -35t31 -96q0 -82 -42.5 -159 t-105.5 -122z" glyph-name="uni037E" horiz-adv-x="448" unicode=";"/><glyph d="M35 1176l37 401h131l-107 -401h-61z" glyph-name="tonos" horiz-adv-x="237" unicode="΄"/><glyph d="M317 1176l37 401h131l-106 -401h-62zM110.5 1163q-30.5 0 -53 22.5t-22.5 55.5q0 31 22.5 53.5t53 22.5t53 -22.5t22.5 -53.5q0 -33 -22.5 -55.5t-53 -22.5zM635 1163q-33 0 -54.5 22.5t-21.5 55.5q0 31 21.5 53.5t54.5 22.5q31 0 53.5 -22.5t22.5 -53.5 q0 -33 -22.5 -55.5t-53.5 -22.5z" glyph-name="dieresistonos" horiz-adv-x="745" unicode="΅"/><glyph d="M285 1176l37 401h131l-107 -401h-61zM1163 0l-137 336h-727l-137 -336h-131l559 1366h145l559 -1366h-131zM662 1251l-326 -809h653z" glyph-name="Alphatonos" horiz-adv-x="1325" unicode="Ά"/><glyph d="M-59 1176l36 401h132l-107 -401h-61zM170 0v1366h866v-106h-749v-506h735v-107h-735v-541h749v-106h-866z" glyph-name="Epsilontonos" horiz-adv-x="1155" unicode="Έ"/><glyph d="M-41 1176l37 401h131l-107 -401h-61zM1174 0v649h-867v-649h-119v1366h119v-610h867v610h116v-1366h-116z" glyph-name="Etatonos" horiz-adv-x="1460" unicode="Ή"/><glyph d="M-41 1176l37 401h131l-107 -401h-61zM188 0v1366h119v-1366h-119z" glyph-name="Iotatonos" horiz-adv-x="477" unicode="Ί"/><glyph d="M45 1176l37 401h131l-107 -401h-61zM106 682q0 305 184.5 506t481.5 201q295 0 479.5 -201t184.5 -506t-184.5 -506t-479.5 -201q-297 0 -481.5 201t-184.5 506zM1311 682q0 264 -147.5 432t-391.5 168q-246 0 -393.5 -168t-147.5 -432q0 -262 147.5 -431t393.5 -169 q242 0 390.5 169t148.5 431z" glyph-name="Omicrontonos" horiz-adv-x="1554" unicode="Ό"/><glyph d="M-41 1176l37 401h131l-107 -401h-61zM657 0v584l-542 782h139l463 -672l459 672h141l-543 -782v-584h-117z" glyph-name="Upsilontonos" horiz-adv-x="1349" unicode="Ύ"/><glyph d="M57 1176l37 401h131l-106 -401h-62zM446 106q-328 193 -327 592q0 299 184 495t479 196q297 0 480.5 -196t183.5 -495q0 -399 -326 -592h291v-106h-467v106q152 37 265.5 190t113.5 386q0 260 -145.5 429t-395.5 169t-395 -169t-145 -429q0 -233 114.5 -385t266.5 -191 v-106h-465v106h288z" glyph-name="Omegatonos" horiz-adv-x="1564" unicode="Ώ"/><glyph d="M186 1176l37 401h131l-106 -401h-62zM-20.5 1163q-30.5 0 -53 22.5t-22.5 55.5q0 31 22.5 53.5t53 22.5t53 -22.5t22.5 -53.5q0 -33 -22.5 -55.5t-53 -22.5zM504 1163q-33 0 -54.5 22.5t-21.5 55.5q0 31 21.5 53.5t54.5 22.5q31 0 53.5 -22.5t22.5 -53.5 q0 -33 -22.5 -55.5t-53.5 -22.5zM166 190v799h106v-786q0 -131 101 -131q25 0 41 4l8 -94q-25 -6 -64 -7q-192 0 -192 215z" glyph-name="iotadieresistonos" horiz-adv-x="466" unicode="ΐ"/><glyph d="M1163 0l-137 336h-727l-137 -336h-131l559 1366h145l559 -1366h-131zM662 1251l-326 -809h653z" glyph-name="Alpha" horiz-adv-x="1325" unicode="Α"/><glyph d="M170 0v1366h561q172 0 274.5 -94t102.5 -254q0 -123 -70.5 -208t-169.5 -105q109 -16 188 -116t79 -220q0 -170 -104.5 -269.5t-287.5 -99.5h-573zM287 754h430q127 0 197.5 70.5t70.5 181.5q0 109 -70.5 181.5t-197.5 72.5h-430v-506zM287 106h438q135 0 211 73t76 198 q0 113 -76 191.5t-211 78.5h-438v-541z" glyph-name="Beta" horiz-adv-x="1257" unicode="Β"/><glyph d="M170 0v1366h866v-106h-749v-1260h-117z" glyph-name="Gamma" horiz-adv-x="1110" unicode="Γ"/><glyph d="M31 0l559 1366h145l559 -1366h-1263zM662 1241l-461 -1135h923z" glyph-name="Delta" horiz-adv-x="1325" unicode="Δ"/><glyph d="M170 0v1366h866v-106h-749v-506h735v-107h-735v-541h749v-106h-866z" glyph-name="Epsilon" horiz-adv-x="1155" unicode="Ε"/><glyph d="M102 0v102l824 1158h-824v106h971v-100l-823 -1160h837v-106h-985z" glyph-name="Zeta" horiz-adv-x="1189" unicode="Ζ"/><glyph d="M1153 0v649h-866v-649h-117v1366h117v-610h866v610h119v-1366h-119z" glyph-name="Eta" horiz-adv-x="1439" unicode="Η"/><glyph d="M119 682q0 305 183 506t480 201q295 0 479.5 -201t184.5 -506t-184.5 -506t-479.5 -201q-297 0 -480 201t-183 506zM1323 682q0 264 -148.5 432t-392.5 168q-246 0 -393 -168t-147 -432q0 -262 147.5 -431t392.5 -169q242 0 391.5 169t149.5 431zM371 647v107h823v-107 h-823z" glyph-name="Theta" horiz-adv-x="1564" unicode="Θ"/><glyph d="M170 0v1366h117v-1366h-117z" glyph-name="Iota" horiz-adv-x="456" unicode="Ι"/><glyph d="M1001 0l-563 643l-151 -166v-477h-117v1366h117v-748l659 748h150l-582 -651l637 -715h-150z" glyph-name="Kappa" horiz-adv-x="1200" unicode="Κ"/><glyph d="M1159 0l-497 1241l-496 -1241h-135l559 1366h145l559 -1366h-135z" glyph-name="Lambda" horiz-adv-x="1325" unicode="Λ"/><glyph d="M1329 0v1212l-498 -1212h-45l-499 1212v-1212h-117v1366h174l465 -1133l463 1133h176v-1366h-119z" glyph-name="Mu" horiz-adv-x="1617" unicode="Μ"/><glyph d="M1147 0l-860 1180v-1180h-117v1366h119l856 -1163v1163h117v-1366h-115z" glyph-name="Nu" horiz-adv-x="1431" unicode="Ν"/><glyph d="M121 1260v106h1012v-106h-1012zM135 647v107h985v-107h-985zM119 0v106h1014v-106h-1014z" glyph-name="Xi" horiz-adv-x="1253" unicode="Ξ"/><glyph d="M119 682q0 305 183 506t480 201q295 0 479.5 -201t184.5 -506t-184.5 -506t-479.5 -201q-297 0 -480 201t-183 506zM1323 682q0 264 -148.5 432t-392.5 168q-246 0 -393 -168t-147 -432q0 -262 147.5 -431t392.5 -169q242 0 391.5 169t149.5 431z" glyph-name="Omicron" horiz-adv-x="1564" unicode="Ο"/><glyph d="M1153 0v1260h-866v-1260h-117v1366h1102v-1366h-119z" glyph-name="Pi" horiz-adv-x="1439" unicode="Π"/><glyph d="M170 0v1366h512q190 0 301 -115.5t111 -283.5t-112 -284t-300 -116h-395v-567h-117zM971 967q0 129 -83 211t-218 82h-383v-586h383q135 0 218 82t83 211z" glyph-name="Rho" unicode="Ρ"/><glyph d="M258 106h793v-106h-932v106l497 596l-495 558v106h930v-106h-787l496 -555z" glyph-name="Sigma" unicode="Σ"/><glyph d="M518 0v1260h-446v106h1011v-106h-446v-1260h-119z" glyph-name="Tau" horiz-adv-x="1155" unicode="Τ"/><glyph d="M573 0v584l-542 782h141l461 -672l461 672h141l-543 -782v-584h-119z" glyph-name="Upsilon" horiz-adv-x="1265" unicode="Υ"/><glyph d="M1489 682q0 -231 -170 -383t-457 -166v-133h-117v133q-287 14 -456.5 166t-169.5 383t170 383t456 166v135h117v-135q287 -14 457 -166t170 -383zM242 682q0 -186 135 -307t368 -135v884q-233 -12 -368 -133t-135 -309zM862 240q231 14 366.5 135t135.5 307 q0 188 -135 309t-367 133v-884z" glyph-name="Phi" horiz-adv-x="1607" unicode="Φ"/><glyph d="M1137 0l-478 616l-475 -616h-147l551 700l-520 666h149l442 -580l445 580h147l-518 -664l549 -702h-145z" glyph-name="Chi" horiz-adv-x="1320" unicode="Χ"/><glyph d="M1280 1366h119v-563q0 -246 -142.5 -389.5t-412.5 -157.5v-256h-119v256q-270 14 -412.5 158.5t-142.5 388.5v563h119v-561q0 -199 111.5 -313.5t324.5 -129.5v1004h119v-1004q211 14 323.5 129t112.5 314v561z" glyph-name="Psi" horiz-adv-x="1568" unicode="Ψ"/><glyph d="M446 106q-328 193 -327 592q0 299 184 495t479 196q297 0 480.5 -196t183.5 -495q0 -399 -326 -592h291v-106h-467v106q152 37 265.5 190t113.5 386q0 260 -145.5 429t-395.5 169t-395 -169t-145 -429q0 -233 114.5 -385t266.5 -191v-106h-465v106h288z" glyph-name="Omega" horiz-adv-x="1564" unicode="Ω"/><glyph d="M20.5 1505q-30.5 0 -53 22.5t-22.5 55.5q0 31 22.5 53.5t53 22.5t53 -22.5t22.5 -53.5q0 -33 -22.5 -55.5t-53 -22.5zM438.5 1505q-30.5 0 -53.5 22.5t-23 55.5q0 31 23 53.5t53.5 22.5t54 -22.5t23.5 -53.5q0 -33 -23.5 -55.5t-54 -22.5zM170 0v1366h117v-1366h-117z " glyph-name="Iotadieresis" horiz-adv-x="456" unicode="Ϊ"/><glyph d="M424 1505q-31 0 -53.5 22.5t-22.5 55.5q0 31 22.5 53.5t53.5 22.5t53.5 -22.5t22.5 -53.5q0 -33 -22.5 -55.5t-53.5 -22.5zM841.5 1505q-30.5 0 -53 22.5t-22.5 55.5q0 31 22.5 53.5t53 22.5t54.5 -22.5t24 -53.5q0 -33 -24 -55.5t-54.5 -22.5zM573 0v584l-542 782h141 l461 -672l461 672h141l-543 -782v-584h-119z" glyph-name="Upsilondieresis" horiz-adv-x="1265" unicode="Ϋ"/><glyph d="M557 1176l37 401h131l-107 -401h-61zM1153 -18q-25 -6 -63 -7q-174 0 -191 187q-53 -82 -146.5 -134.5t-201.5 -52.5q-199 0 -320.5 141.5t-121.5 377.5q0 233 122.5 376.5t319.5 143.5q213 0 344 -185v160h109v-786q0 -59 26.5 -95t73.5 -36q25 0 41 4zM895 248v489 q-45 74 -135 127.5t-191 53.5q-160 0 -253 -120t-93 -304.5t93.5 -303t252.5 -118.5q100 0 190.5 51t135.5 125z" glyph-name="alphatonos" horiz-adv-x="1198" unicode="ά"/><glyph d="M487 1176l37 401h131l-106 -401h-62zM516 -25q-193 0 -300 80t-107 207q0 113 79.5 173.5t173.5 68.5q-88 12 -160.5 75.5t-72.5 170.5q0 123 109.5 193.5t277.5 70.5q238 0 383 -164l-63 -68q-119 139 -322 140q-117 0 -194.5 -50.5t-77.5 -130.5q0 -96 79.5 -145 t208.5 -49h172v-90h-172q-307 0 -307 -189q0 -92 79 -147t214 -55q205 0 340 145l64 -74q-150 -162 -404 -162z" glyph-name="epsilontonos" horiz-adv-x="995" unicode="έ"/><glyph d="M522 1176l37 401h131l-106 -401h-62zM834 -377v1047q0 135 -61.5 191.5t-178.5 56.5q-92 0 -182 -49.5t-140 -120.5v-748h-106v989h106v-149q59 70 157.5 122t199.5 52q311 0 311 -322v-1069h-106z" glyph-name="etatonos" horiz-adv-x="1105" unicode="ή"/><glyph d="M186 1176l37 401h131l-106 -401h-62zM166 190v799h106v-786q0 -131 101 -131q25 0 41 4l8 -94q-25 -6 -64 -7q-192 0 -192 215z" glyph-name="iotatonos" horiz-adv-x="466" unicode="ί"/><glyph d="M520 1176l37 401h131l-106 -401h-62zM313.5 1163q-30.5 0 -53 22.5t-22.5 55.5q0 31 22.5 53.5t53 22.5t53 -22.5t22.5 -53.5q0 -33 -22.5 -55.5t-53 -22.5zM838 1163q-33 0 -54.5 22.5t-21.5 55.5q0 31 21.5 53.5t54.5 22.5q31 0 53 -22.5t22 -53.5q0 -33 -22 -55.5 t-53 -22.5zM553 -25q-188 0 -287.5 121t-99.5 332v561h106v-559q0 -168 74 -263t207 -95q168 0 264 125t96 307q0 279 -161 454l92 56q184 -217 184 -510q0 -227 -131 -378t-344 -151z" glyph-name="upsilondieresistonos" horiz-adv-x="1136" unicode="ΰ"/><glyph d="M1153 -18q-25 -6 -63 -7q-174 0 -191 187q-53 -82 -146.5 -134.5t-201.5 -52.5q-199 0 -320.5 141.5t-121.5 377.5q0 233 122.5 376.5t319.5 143.5q213 0 344 -185v160h109v-786q0 -59 26.5 -95t73.5 -36q25 0 41 4zM895 248v489q-45 74 -135 127.5t-191 53.5 q-160 0 -253 -120t-93 -304.5t93.5 -303t252.5 -118.5q100 0 190.5 51t135.5 125z" glyph-name="alpha" horiz-adv-x="1198" unicode="α"/><glyph d="M272 -377h-106v1315q0 219 131 333.5t319 114.5q174 0 293 -96t119 -264q0 -141 -87 -221t-196 -98q111 -12 212.5 -101.5t101.5 -247.5q0 -172 -121 -277.5t-309 -105.5q-115 0 -208 50.5t-149 132.5v-535zM272 248q47 -74 138.5 -125t193.5 -51q162 0 251 79.5 t89 219.5q0 141 -100.5 212.5t-255.5 71.5h-68v95h66q141 0 234 68.5t93 199.5q0 123 -86 197.5t-211 74.5q-147 0 -245.5 -91t-98.5 -261v-690z" glyph-name="beta" unicode="β"/><glyph d="M438 -377v301q0 303 -125 591t-319 474h131q145 -141 259 -386t136 -460q129 174 211 401.5t82 444.5h107q0 -236 -100.5 -498t-272.5 -483v-385h-109z" glyph-name="gamma" horiz-adv-x="985" unicode="γ"/><glyph d="M592 938q84 -27 131 -43t121 -57t113.5 -87t71.5 -125t32 -180q0 -188 -132 -329.5t-341 -141.5q-211 0 -345 141.5t-134 332.5q0 158 86 272.5t229 169.5q-92 37 -142.5 88t-50.5 137q0 119 94.5 197t258.5 78q221 0 352 -146l-59 -76q-96 131 -293 131 q-115 0 -181.5 -51t-66.5 -129q0 -37 18.5 -65.5t59.5 -50t76.5 -35t101.5 -31.5zM586 72q166 0 267 116.5t101 257.5q0 78 -24.5 138.5t-56 98.5t-93 71.5t-104.5 50t-119 41.5q-162 -45 -248 -148.5t-86 -248.5q0 -143 99.5 -260t263.5 -117z" glyph-name="delta" unicode="δ"/><glyph d="M516 -25q-193 0 -300 80t-107 207q0 113 79.5 173.5t173.5 68.5q-88 12 -160.5 75.5t-72.5 170.5q0 123 109.5 193.5t277.5 70.5q238 0 383 -164l-63 -68q-119 139 -322 140q-117 0 -194.5 -50.5t-77.5 -130.5q0 -96 79.5 -145t208.5 -49h172v-90h-172q-307 0 -307 -189 q0 -92 79 -147t214 -55q205 0 340 145l64 -74q-150 -162 -404 -162z" glyph-name="epsilon" horiz-adv-x="995" unicode="ε"/><glyph d="M664 0q-254 0 -404.5 112.5t-150.5 321.5q0 469 657 838h-625v94h768v-86q-338 -199 -512 -402.5t-174 -439.5q0 -170 121 -256t330 -86q240 0 239 -190q0 -92 -79 -228h-119q86 141 86 213q0 109 -137 109z" glyph-name="zeta" horiz-adv-x="1005" unicode="ζ"/><glyph d="M834 -377v1047q0 135 -61.5 191.5t-178.5 56.5q-92 0 -182 -49.5t-140 -120.5v-748h-106v989h106v-149q59 70 157.5 122t199.5 52q311 0 311 -322v-1069h-106z" glyph-name="eta" horiz-adv-x="1105" unicode="η"/><glyph d="M584 1391q236 0 356.5 -197t120.5 -510q0 -203 -49 -359.5t-160 -253t-268 -96.5q-231 0 -353 199t-122 510q0 203 50 359.5t159.5 252t265.5 95.5zM584 1294q-178 0 -265.5 -155.5t-93.5 -403.5h719q-6 250 -93 404.5t-267 154.5zM584 72q180 0 267 156.5t93 410.5h-719 q4 -164 40 -286t117 -201.5t202 -79.5z" glyph-name="theta" unicode="θ"/><glyph d="M166 190v799h106v-786q0 -131 101 -131q25 0 41 4l8 -94q-25 -6 -64 -7q-192 0 -192 215z" glyph-name="iota" horiz-adv-x="466" unicode="ι"/><glyph d="M852 0l-395 471l-185 -174v-297h-106v989h106v-565l584 565h141l-460 -446l458 -543h-143z" glyph-name="kappa" horiz-adv-x="1034" unicode="κ"/><glyph d="M205 1391q176 -4 254 -185l512 -1206h-121l-356 864l-361 -864h-119l418 997l-78 177q-49 121 -149 120q-49 0 -86 -16l-19 98q48 15 105 15z" glyph-name="lambda" horiz-adv-x="985" unicode="λ"/><glyph d="M272 -377h-106v1366h106v-672q0 -250 242 -249q90 0 179 49t141 119v753h106v-786q0 -131 100 -131q25 0 41 4l9 -94q-25 -6 -64 -7q-166 0 -190 177q-59 -76 -148.5 -126.5t-181.5 -50.5q-172 0 -234 115v-467z" glyph-name="mu" horiz-adv-x="1134" unicode="μ"/><glyph d="M432 0l-418 989h119l365 -878q145 197 230 428t85 450h107q0 -238 -102.5 -503t-276.5 -486h-109z" glyph-name="nu" horiz-adv-x="985" unicode="ν"/><glyph d="M109 358q0 150 95 236t202 100q-102 18 -188.5 89t-86.5 194q0 92 66.5 175t164.5 120h-217v94h744v-94h-383q-111 -27 -185.5 -107t-74.5 -170q0 -117 98 -180t244 -63h286v-95h-286q-160 0 -262.5 -70.5t-102.5 -213.5q0 -279 451 -279q240 0 239 -188q0 -92 -79 -228 h-119q86 141 86 220q0 100 -137 100q-268 0 -411.5 91t-143.5 269z" glyph-name="xi" horiz-adv-x="1005" unicode="ξ"/><glyph d="M584 -25q-213 0 -344 149.5t-131 371t131 370t344 148.5q215 0 346 -148.5t131 -370t-131 -371t-346 -149.5zM584 72q168 0 265 123.5t97 300.5q0 174 -97 298t-265 124q-166 0 -263.5 -124t-97.5 -298t97.5 -299t263.5 -125z" glyph-name="omicron" unicode="ο"/><glyph d="M854 0v895h-559v-895h-109v895h-163v94h1103v-94h-163v-895h-109z" glyph-name="pi" horiz-adv-x="1148" unicode="π"/><glyph d="M272 160v-537h-106v873q0 221 122 369.5t322.5 148.5t324.5 -148.5t124 -369.5q0 -236 -122 -378.5t-321 -142.5q-213 1 -344 185zM944 496q0 174 -90 298t-245.5 124t-246 -124t-90.5 -298v-244q45 -74 136.5 -127t189.5 -53q162 0 254 119t92 305z" glyph-name="rho" horiz-adv-x="1161" unicode="ρ"/><glyph d="M109 496q0 221 133 369.5t348 148.5q217 0 350 -168l-74 -66q-100 137 -270 137.5t-271.5 -119.5t-101.5 -302q0 -203 119 -301.5t324 -98.5q127 0 185 -38t58 -128q0 -111 -80 -252h-110q86 141 86 238q0 47 -36 65.5t-110 18.5q-256 0 -403 128t-147 368z" glyph-name="sigma1" horiz-adv-x="980" unicode="ς"/><glyph d="M584 -25q-213 0 -344 149.5t-131 371.5q0 211 137 352t372 141h494v-96h-256q199 -156 199 -422q0 -209 -129 -352.5t-342 -143.5zM715 893h-97q-186 0 -290.5 -118t-104.5 -279q0 -174 97.5 -299t263.5 -125t264 121.5t98 287.5q0 143 -63.5 252t-167.5 160z" glyph-name="sigma" unicode="σ"/><glyph d="M399 190v705h-340v94h809v-94h-362v-688q0 -135 102 -135q72 0 111 47l41 -82q-66 -61 -168 -62q-193 0 -193 215z" glyph-name="tau" horiz-adv-x="927" unicode="τ"/><glyph d="M553 -25q-188 0 -287.5 121t-99.5 332v561h106v-559q0 -168 74 -263t207 -95q168 0 264 125t96 307q0 279 -161 454l92 56q184 -217 184 -510q0 -227 -131 -378t-344 -151z" glyph-name="upsilon" horiz-adv-x="1136" unicode="υ"/><glyph d="M1315 483q0 -225 -141.5 -361t-407.5 -145v-354h-107v354q-266 8 -408 153.5t-142 385.5q0 168 98 295t252 195l51 -80q-287 -135 -287 -410q0 -197 108.5 -316.5t327.5 -127.5v917h66q289 0 439.5 -138.5t150.5 -367.5zM766 72q217 4 325.5 116.5t108.5 295t-108.5 292 t-325.5 117.5v-821z" glyph-name="phi" horiz-adv-x="1425" unicode="φ"/><glyph d="M825 -377l-333 602l-336 -602h-121l391 703l-369 663h121l314 -563l311 563h121l-369 -663l391 -703h-121z" glyph-name="chi" horiz-adv-x="980" unicode="χ"/><glyph d="M1169 989h107v-549q0 -211 -125 -330.5t-377 -132.5v-354h-106v354q-252 10 -377 131t-125 332v549h106v-549q0 -166 100.5 -261t295.5 -105v1292h106v-1292q195 10 295 105t100 261v549z" glyph-name="psi" horiz-adv-x="1441" unicode="ψ"/><glyph d="M1110 -25q-133 0 -212 91.5t-110 218.5q-33 -127 -109.5 -218.5t-209.5 -91.5q-162 0 -261 145.5t-99 354.5q0 383 194 539l90 -53q-170 -150 -170 -486q0 -162 68.5 -282.5t187.5 -120.5q123 0 189.5 122.5t66.5 301.5v252h109v-252q0 -178 65.5 -301t188.5 -123 q119 0 187.5 120.5t68.5 282.5q0 338 -170 486l92 53q193 -154 192 -539q0 -209 -98 -354.5t-260 -145.5z" glyph-name="omega" horiz-adv-x="1579" unicode="ω"/><glyph d="M10.5 1163q-30.5 0 -53.5 22.5t-23 55.5q0 31 23 53.5t53.5 22.5t53 -22.5t22.5 -53.5q0 -33 -22.5 -55.5t-53 -22.5zM428 1163q-31 0 -53.5 22.5t-22.5 55.5q0 31 22.5 53.5t53.5 22.5t54.5 -22.5t23.5 -53.5q0 -33 -23.5 -55.5t-54.5 -22.5zM166 190v799h106v-786 q0 -131 101 -131q25 0 41 4l8 -94q-25 -6 -64 -7q-192 0 -192 215z" glyph-name="iotadieresis" horiz-adv-x="466" unicode="ϊ"/><glyph d="M344 1163q-31 0 -53.5 22.5t-22.5 55.5q0 31 22.5 53.5t53.5 22.5t53.5 -22.5t22.5 -53.5q0 -33 -22.5 -55.5t-53.5 -22.5zM762 1163q-31 0 -53.5 22.5t-22.5 55.5q0 31 22.5 53.5t53.5 22.5t54.5 -22.5t23.5 -53.5q0 -33 -23.5 -55.5t-54.5 -22.5zM553 -25 q-188 0 -287.5 121t-99.5 332v561h106v-559q0 -168 74 -263t207 -95q168 0 264 125t96 307q0 279 -161 454l92 56q184 -217 184 -510q0 -227 -131 -378t-344 -151z" glyph-name="upsilondieresis" horiz-adv-x="1136" unicode="ϋ"/><glyph d="M553 1176l37 401h131l-107 -401h-61zM584 -25q-213 0 -344 149.5t-131 371t131 370t344 148.5q215 0 346 -148.5t131 -370t-131 -371t-346 -149.5zM584 72q168 0 265 123.5t97 300.5q0 174 -97 298t-265 124q-166 0 -263.5 -124t-97.5 -298t97.5 -299t263.5 -125z" glyph-name="omicrontonos" unicode="ό"/><glyph d="M522 1176l37 401h131l-106 -401h-62zM553 -25q-188 0 -287.5 121t-99.5 332v561h106v-559q0 -168 74 -263t207 -95q168 0 264 125t96 307q0 279 -161 454l92 56q184 -217 184 -510q0 -227 -131 -378t-344 -151z" glyph-name="upsilontonos" horiz-adv-x="1136" unicode="ύ"/><glyph d="M758 1176l37 401h131l-107 -401h-61zM1110 -25q-133 0 -212 91.5t-110 218.5q-33 -127 -109.5 -218.5t-209.5 -91.5q-162 0 -261 145.5t-99 354.5q0 383 194 539l90 -53q-170 -150 -170 -486q0 -162 68.5 -282.5t187.5 -120.5q123 0 189.5 122.5t66.5 301.5v252h109v-252 q0 -178 65.5 -301t188.5 -123q119 0 187.5 120.5t68.5 282.5q0 338 -170 486l92 53q193 -154 192 -539q0 -209 -98 -354.5t-260 -145.5z" glyph-name="omegatonos" horiz-adv-x="1579" unicode="ώ"/><glyph d="M403.5 1505q-30.5 0 -53 22.5t-22.5 55.5q0 31 22.5 53.5t53 22.5t53 -22.5t22.5 -53.5q0 -33 -22.5 -55.5t-53 -22.5zM821.5 1505q-30.5 0 -53.5 22.5t-23 55.5q0 31 23 53.5t53.5 22.5t54 -22.5t23.5 -53.5q0 -33 -23.5 -55.5t-54 -22.5zM170 0v1366h866v-106h-749 v-506h735v-107h-735v-541h749v-106h-866z" glyph-name="afii10023" horiz-adv-x="1155" unicode="Ё"/><glyph d="M1022 82q147 0 224 68.5t77 226.5v35q0 160 -74.5 232.5t-240.5 72.5q-217 0 -371 -72v-645h-119v1260h-446v106h1011v-106h-446v-519q184 82 393 82q213 0 312.5 -100t99.5 -311v-35q0 -401 -420 -402v107z" glyph-name="afii10051" horiz-adv-x="1583" unicode="Ђ"/><glyph d="M653 1481h-100l315 295h138zM170 0v1366h866v-106h-749v-1260h-117z" glyph-name="afii10052" horiz-adv-x="1110" unicode="Ѓ"/><glyph d="M811 82q121 0 227.5 54t171.5 145l99 -62q-197 -244 -498 -244q-295 0 -493.5 198t-198.5 509t198.5 509t493.5 198q303 0 498 -242l-99 -64q-66 90 -172 144.5t-227 54.5q-225 0 -384 -146.5t-179 -381.5h821v-107h-823q8 -248 170 -406.5t395 -158.5z" glyph-name="afii10053" horiz-adv-x="1376" unicode="Є"/><glyph d="M94 193l76 88q170 -199 426 -199q190 0 275 83t85 189q0 55 -22.5 100.5t-52 73t-87 53t-98.5 39t-114 31.5q-74 20 -110 31.5t-99.5 35t-96 48.5t-69.5 61.5t-53.5 86t-16.5 110.5q0 164 129 264.5t320 100.5q293 0 463 -193l-78 -86q-143 172 -391 172 q-137 0 -228.5 -70.5t-91.5 -181.5q0 -47 21.5 -85t49 -61.5t82 -46t93.5 -34.5t110 -31q88 -25 135.5 -40t121 -51t110.5 -74t66.5 -101.5t29.5 -143.5q0 -156 -116.5 -271.5t-368.5 -115.5q-322 1 -500 218z" glyph-name="afii10054" horiz-adv-x="1189" unicode="Ѕ"/><glyph d="M170 0v1366h117v-1366h-117z" glyph-name="afii10055" horiz-adv-x="456" unicode="І"/><glyph d="M20.5 1505q-30.5 0 -53 22.5t-22.5 55.5q0 31 22.5 53.5t53 22.5t53 -22.5t22.5 -53.5q0 -33 -22.5 -55.5t-53 -22.5zM438.5 1505q-30.5 0 -53.5 22.5t-23 55.5q0 31 23 53.5t53.5 22.5t54 -22.5t23.5 -53.5q0 -33 -23.5 -55.5t-54 -22.5zM170 0v1366h117v-1366h-117z " glyph-name="afii10056" horiz-adv-x="456" unicode="Ї"/><glyph d="M29 143l71 88q115 -150 273 -149q137 0 219 87t82 226v971h119v-971q0 -205 -117 -312.5t-297 -107.5q-221 0 -350 168z" glyph-name="afii10057" horiz-adv-x="962" unicode="Ј"/><glyph d="M72 90q57 0 101 18.5t90 75t82 154.5t68.5 266t55.5 402l35 360h768v-567h393q188 0 301 -116t113 -284t-112 -283.5t-302 -115.5h-512v1260h-549l-26 -263q-27 -270 -67 -462.5t-83 -300t-106.5 -167t-117.5 -76t-132 -16.5v115zM1272 692v-586h381q135 0 218 82t83 211 t-83 211t-218 82h-381z" glyph-name="afii10058" horiz-adv-x="2152" unicode="Љ"/><glyph d="M170 1366h117v-610h866v610h119v-610h416q178 0 284.5 -109.5t106.5 -269.5t-105.5 -268.5t-285.5 -108.5h-535v649h-866v-649h-117v1366zM1677 106q123 0 200 76t77 195q0 121 -77 196.5t-200 75.5h-405v-543h405z" glyph-name="afii10059" horiz-adv-x="2152" unicode="Њ"/><glyph d="M1323 375q0 186 -72.5 264t-242.5 78q-217 0 -371 -72v-645h-119v1260h-446v106h1011v-106h-446v-519q184 82 393 82q217 0 314.5 -105.5t97.5 -342.5v-375h-119v375z" glyph-name="afii10060" horiz-adv-x="1599" unicode="Ћ"/><glyph d="M670 1481h-101l316 295h137zM1001 0l-563 643l-151 -166v-477h-117v1366h117v-748l659 748h150l-582 -651l637 -715h-150z" glyph-name="afii10061" horiz-adv-x="1200" unicode="Ќ"/><glyph d="M632.5 1462q-198.5 0 -313.5 158l66 53q92 -127 248 -127q160 0 248 127l65 -53q-115 -158 -313.5 -158zM1100 1366h135l-559 -1135q-66 -133 -139.5 -194.5t-192.5 -61.5q-84 0 -141 29l33 102q49 -25 106 -24q74 0 122 44t109 161l45 86l-587 993h137l512 -883z" glyph-name="afii10062" horiz-adv-x="1265" unicode="Ў"/><glyph d="M1245 1366v-1366h-483v-260h-107v260h-485v1366h117v-1260h839v1260h119z" glyph-name="afii10145" horiz-adv-x="1413" unicode="Џ"/><glyph d="M1163 0l-137 336h-727l-137 -336h-131l559 1366h145l559 -1366h-131zM662 1251l-326 -809h653z" glyph-name="afii10017" horiz-adv-x="1325" unicode="А"/><glyph d="M1022 1366v-106h-735v-461h395q188 0 300 -116t112 -284t-111 -283.5t-301 -115.5h-512v1366h852zM287 692v-586h383q135 0 218 82t83 211t-83 211t-218 82h-383z" glyph-name="afii10018" unicode="Б"/><glyph d="M170 0v1366h561q172 0 274.5 -94t102.5 -254q0 -123 -70.5 -208t-169.5 -105q109 -16 188 -116t79 -220q0 -170 -104.5 -269.5t-287.5 -99.5h-573zM287 754h430q127 0 197.5 70.5t70.5 181.5q0 109 -70.5 181.5t-197.5 72.5h-430v-506zM287 106h438q135 0 211 73t76 198 q0 113 -76 191.5t-211 78.5h-438v-541z" glyph-name="afii10019" horiz-adv-x="1257" unicode="В"/><glyph d="M170 0v1366h866v-106h-749v-1260h-117z" glyph-name="afii10020" horiz-adv-x="1110" unicode="Г"/><glyph d="M66 106h104q174 166 274 938l39 322h756v-1260h147v-358h-104v252h-1110v-252h-106v358zM551 1034q-55 -438 -113.5 -639.5t-128.5 -288.5h811v1154h-540z" glyph-name="afii10021" horiz-adv-x="1462" unicode="Д"/><glyph d="M170 0v1366h866v-106h-749v-506h735v-107h-735v-541h749v-106h-866z" glyph-name="afii10022" horiz-adv-x="1155" unicode="Е"/><glyph d="M1630 0l-569 655h-88v-655h-119v655h-88l-569 -655h-148l623 709l-568 657h148l522 -616h80v616h119v-616h80l522 616h147l-567 -657l623 -709h-148z" glyph-name="afii10024" horiz-adv-x="1826" unicode="Ж"/><glyph d="M66 203l79 71q61 -86 171 -139t245 -53q170 0 269.5 78t99.5 213q0 139 -102.5 207.5t-270.5 68.5h-242v107h242q152 0 251 65.5t99 194.5q0 123 -100 193.5t-248 70.5q-229 0 -393 -174l-72 74q78 92 200 149t271 57q195 0 330 -97t135 -263q0 -96 -51 -170 t-112.5 -105.5t-129.5 -43.5q111 -12 212.5 -100.5t101.5 -239.5q0 -172 -133.5 -282t-356.5 -110q-168 0 -297.5 65t-197.5 163z" glyph-name="afii10025" horiz-adv-x="1173" unicode="З"/><glyph d="M170 1366h117v-1176l856 1176h119v-1366h-117v1192l-860 -1192h-115v1366z" glyph-name="afii10026" horiz-adv-x="1431" unicode="И"/><glyph d="M716.5 1462q-198.5 0 -313.5 158l66 53q92 -127 248 -127q160 0 248 127l65 -53q-115 -158 -313.5 -158zM170 1366h117v-1176l856 1176h119v-1366h-117v1192l-860 -1192h-115v1366z" glyph-name="afii10027" horiz-adv-x="1431" unicode="Й"/><glyph d="M1001 0l-563 643l-151 -166v-477h-117v1366h117v-748l659 748h150l-582 -651l637 -715h-150z" glyph-name="afii10028" horiz-adv-x="1200" unicode="К"/><glyph d="M72 90q57 0 101 18.5t90 75t82 154.5t68.5 266t55.5 402l35 360h768v-1366h-119v1260h-549l-26 -263q-27 -270 -67 -462.5t-83 -300t-106.5 -167t-117.5 -76t-132 -16.5v115z" glyph-name="afii10029" horiz-adv-x="1439" unicode="Л"/><glyph d="M1329 0v1212l-498 -1212h-45l-499 1212v-1212h-117v1366h174l465 -1133l463 1133h176v-1366h-119z" glyph-name="afii10030" horiz-adv-x="1617" unicode="М"/><glyph d="M1153 0v649h-866v-649h-117v1366h117v-610h866v610h119v-1366h-119z" glyph-name="afii10031" horiz-adv-x="1439" unicode="Н"/><glyph d="M119 682q0 305 183 506t480 201q295 0 479.5 -201t184.5 -506t-184.5 -506t-479.5 -201q-297 0 -480 201t-183 506zM1323 682q0 264 -148.5 432t-392.5 168q-246 0 -393 -168t-147 -432q0 -262 147.5 -431t392.5 -169q242 0 391.5 169t149.5 431z" glyph-name="afii10032" horiz-adv-x="1564" unicode="О"/><glyph d="M1153 0v1260h-866v-1260h-117v1366h1102v-1366h-119z" glyph-name="afii10033" horiz-adv-x="1439" unicode="П"/><glyph d="M170 0v1366h512q190 0 301 -115.5t111 -283.5t-112 -284t-300 -116h-395v-567h-117zM971 967q0 129 -83 211t-218 82h-383v-586h383q135 0 218 82t83 211z" glyph-name="afii10034" unicode="Р"/><glyph d="M807 -25q-291 0 -489.5 199t-198.5 508t198.5 508t489.5 199q307 0 502 -242l-99 -64q-66 90 -173 144.5t-230 54.5q-242 0 -403.5 -168t-161.5 -432q0 -262 162.5 -431t402.5 -169q123 0 230.5 54t172.5 145l99 -62q-197 -244 -502 -244z" glyph-name="afii10035" horiz-adv-x="1376" unicode="С"/><glyph d="M518 0v1260h-446v106h1011v-106h-446v-1260h-119z" glyph-name="afii10036" horiz-adv-x="1155" unicode="Т"/><glyph d="M1100 1366h135l-559 -1135q-66 -133 -139.5 -194.5t-192.5 -61.5q-84 0 -141 29l33 102q49 -25 106 -24q74 0 122 44t109 161l45 86l-587 993h137l512 -883z" glyph-name="afii10037" horiz-adv-x="1265" unicode="У"/><glyph d="M1489 682q0 -231 -170 -383t-457 -166v-133h-117v133q-287 14 -456.5 166t-169.5 383t170 383t456 166v135h117v-135q287 -14 457 -166t170 -383zM242 682q0 -186 135 -307t368 -135v884q-233 -12 -368 -133t-135 -309zM862 240q231 14 366.5 135t135.5 307 q0 188 -135 309t-367 133v-884z" glyph-name="afii10038" horiz-adv-x="1607" unicode="Ф"/><glyph d="M1137 0l-478 616l-475 -616h-147l551 700l-520 666h149l442 -580l445 580h147l-518 -664l549 -702h-145z" glyph-name="afii10039" horiz-adv-x="1320" unicode="Х"/><glyph d="M1288 0h-1118v1366h117v-1260h839v1260h119v-1260h148v-358h-105v252z" glyph-name="afii10040" horiz-adv-x="1468" unicode="Ц"/><glyph d="M244 991q0 -186 73.5 -264t243.5 -78q217 0 371 72v645h117v-1366h-117v625q-184 -82 -393 -82q-217 0 -314.5 105.5t-97.5 342.5v375h117v-375z" glyph-name="afii10041" horiz-adv-x="1218" unicode="Ч"/><glyph d="M1800 1366v-1366h-1630v1366h117v-1260h639v1260h118v-1260h639v1260h117z" glyph-name="afii10042" horiz-adv-x="1970" unicode="Ш"/><glyph d="M1800 1366v-1260h150v-358h-107v252h-1673v1366h117v-1260h639v1260h118v-1260h639v1260h117z" glyph-name="afii10043" horiz-adv-x="2023" unicode="Щ"/><glyph d="M518 0v1260h-446v106h565v-567h393q188 0 301 -116t113 -284t-111.5 -283.5t-302.5 -115.5h-512zM637 692v-586h381q135 0 218 82t83 211t-83 211t-218 82h-381z" glyph-name="afii10044" horiz-adv-x="1517" unicode="Ъ"/><glyph d="M287 1366v-567h395q188 0 300 -116t112 -284t-111 -283.5t-301 -115.5h-512v1366h117zM1257 0v1366h117v-1366h-117zM287 692v-586h383q135 0 218 82t83 211t-83 211t-218 82h-383z" glyph-name="afii10045" horiz-adv-x="1544" unicode="Ы"/><glyph d="M287 1366v-567h395q188 0 300 -116t112 -284t-111 -283.5t-301 -115.5h-512v1366h117zM287 692v-586h383q135 0 218 82t83 211t-83 211t-218 82h-383z" glyph-name="afii10046" unicode="Ь"/><glyph d="M565 1389q293 0 492.5 -199t199.5 -508t-199.5 -508t-492.5 -199q-299 0 -499 244l98 62q68 -90 174 -144.5t227 -54.5q233 0 394 158.5t171 406.5h-823v107h821q-23 236 -181.5 382t-381.5 146q-121 0 -227.5 -54t-173.5 -145l-96 64q190 242 497 242z" glyph-name="afii10047" horiz-adv-x="1376" unicode="Э"/><glyph d="M1212 1389q295 0 479.5 -201t184.5 -506t-184.5 -506t-479.5 -201q-287 0 -469 190.5t-192 483.5h-264v-649h-117v1366h117v-610h266q23 279 203 456t456 177zM1212 82q242 0 391.5 169t149.5 431q0 264 -148.5 432t-392 168t-392 -168t-148.5 -432q0 -262 147 -431 t393 -169z" glyph-name="afii10048" horiz-adv-x="1994" unicode="Ю"/><glyph d="M104 0l396 573q-162 6 -270.5 110.5t-108.5 283.5q0 182 117.5 290.5t298.5 108.5h510v-1366h-119v565h-299l-383 -565h-142zM928 672v588h-381q-135 0 -219 -82t-84 -211t84 -212t219 -83h381z" glyph-name="afii10049" horiz-adv-x="1216" unicode="Я"/><glyph d="M795 0v117q-129 -141 -336 -142q-137 0 -241.5 89.5t-104.5 240.5q0 154 103 241t243 87q209 0 336 -141v200q0 106 -76 167t-191 61q-182 0 -309 -146l-59 74q154 166 381 166q160 0 260 -80t100 -238v-696h-106zM795 195v217q-106 137 -299 137q-121 0 -196 -69.5 t-75 -176t75 -175.5t196 -69q195 1 299 136z" glyph-name="afii10065" horiz-adv-x="1067" unicode="а"/><glyph d="M111 557q0 352 145 542.5t467 246.5l254 45v-101l-246 -45q-252 -45 -372.5 -173t-153.5 -316q133 246 393 245q205 0 333 -145t128 -358q0 -223 -130 -373t-345 -150q-217 0 -345 160t-128 422zM946 498q0 172 -97 296t-265 124q-164 0 -262.5 -124t-98.5 -296 q0 -176 97.5 -301t263.5 -125q168 0 265 125t97 301z" glyph-name="afii10066" horiz-adv-x="1179" unicode="б"/><glyph d="M166 0v989h467q145 0 227 -67.5t82 -186.5q0 -86 -47 -145.5t-117 -79.5q78 -20 130.5 -89t52.5 -153q0 -125 -84 -196.5t-240 -71.5h-471zM831 725q0 78 -52 124t-146 46h-361v-338h361q94 0 146 47t52 121zM848 276q0 76 -55.5 131.5t-155.5 55.5h-365v-367h365 q100 0 155.5 48t55.5 132z" glyph-name="afii10067" horiz-adv-x="1091" unicode="в"/><glyph d="M815 895h-543v-895h-106v989h649v-94z" glyph-name="afii10068" horiz-adv-x="870" unicode="г"/><glyph d="M37 96h88q113 156 168 670l22 223h625v-893h119v-348h-94v252h-832v-252h-96v348zM389 741q-55 -510 -156 -645h601v799h-428z" glyph-name="afii10069" horiz-adv-x="1132" unicode="д"/><glyph d="M109 496q0 217 136 367.5t341 150.5q217 0 342 -150.5t125 -374.5v-28h-828q8 -168 112.5 -280.5t274.5 -112.5q197 0 324 137l55 -70q-154 -160 -387 -160q-217 0 -356 146t-139 375zM584 922q-162 0 -257.5 -116t-101.5 -261h719q-2 143 -95 260t-265 117z" glyph-name="afii10070" horiz-adv-x="1161" unicode="е"/><glyph d="M1384 989l-456 -485l454 -504h-137l-414 461h-67v-461h-107v461h-67l-414 -461h-137l455 504l-457 485h135l416 -444h69v444h107v-444h70l415 444h135z" glyph-name="afii10072" horiz-adv-x="1421" unicode="ж"/><glyph d="M78 137l63 76q137 -147 340 -147q133 0 212 55t79 147q0 188 -307 189h-170v90h170q129 0 209 49t80 145q0 80 -77 130.5t-196 50.5q-203 0 -321 -140l-62 68q145 164 381 164q170 0 278.5 -70t108.5 -194q0 -106 -72.5 -170t-160.5 -76q94 -8 174 -68.5t80 -173.5 q0 -127 -107.5 -207t-298.5 -80q-253 0 -403 162z" glyph-name="afii10073" horiz-adv-x="995" unicode="з"/><glyph d="M166 0v989h106v-823l564 823h104v-989h-106v836l-566 -836h-102z" glyph-name="afii10074" horiz-adv-x="1105" unicode="и"/><glyph d="M553 1120q-199 0 -313 158l65 53q92 -127 248 -127q160 0 248 127l65 -53q-114 -158 -313 -158zM166 0v989h106v-823l564 823h104v-989h-106v836l-566 -836h-102z" glyph-name="afii10075" horiz-adv-x="1105" unicode="й"/><glyph d="M852 0l-395 471l-185 -174v-297h-106v989h106v-565l584 565h141l-460 -446l458 -543h-143z" glyph-name="afii10076" horiz-adv-x="1034" unicode="к"/><glyph d="M313 989h627v-989h-106v895h-428l-15 -135q-31 -315 -84 -492.5t-115.5 -235t-154.5 -57.5v103q57 0 99 50t84 208t71 428z" glyph-name="afii10077" horiz-adv-x="1105" unicode="л"/><glyph d="M1061 0v850l-373 -850h-39l-377 850v-850h-106v989h141l361 -815l356 815h145v-989h-108z" glyph-name="afii10078" horiz-adv-x="1335" unicode="м"/><glyph d="M166 0v989h106v-430h562v430h106v-989h-106v465h-562v-465h-106z" glyph-name="afii10079" horiz-adv-x="1105" unicode="н"/><glyph d="M584 -25q-213 0 -344 149.5t-131 371t131 370t344 148.5q215 0 346 -148.5t131 -370t-131 -371t-346 -149.5zM584 72q168 0 265 123.5t97 300.5q0 174 -97 298t-265 124q-166 0 -263.5 -124t-97.5 -298t97.5 -299t263.5 -125z" glyph-name="afii10080" unicode="о"/><glyph d="M834 0v895h-562v-895h-106v989h774v-989h-106z" glyph-name="afii10081" horiz-adv-x="1105" unicode="п"/><glyph d="M272 -377h-106v1366h106v-155q55 80 146.5 130t197.5 50q199 0 321 -140.5t122 -377.5q0 -236 -122 -378.5t-321 -142.5q-213 0 -344 185v-537zM944 496q0 184 -92 303t-254 119q-100 0 -190.5 -51.5t-135.5 -125.5v-489q45 -74 136.5 -127t189.5 -53q162 0 254 119 t92 305z" glyph-name="afii10082" horiz-adv-x="1167" unicode="р"/><glyph d="M109 495.5q0 221.5 133 370t348 148.5q217 0 350 -168l-74 -66q-100 137 -270 137.5t-271.5 -119.5t-101.5 -302.5t101.5 -303t271.5 -120.5q168 0 270 139l74 -66q-133 -170 -350 -170q-215 0 -348 149.5t-133 371z" glyph-name="afii10083" horiz-adv-x="1011" unicode="с"/><glyph d="M346 0v895h-291v94h690v-94h-292v-895h-107z" glyph-name="afii10084" horiz-adv-x="800" unicode="т"/><glyph d="M850 989h121l-512 -1206q-78 -184 -254 -184q-57 0 -105 14l19 98q37 -16 86 -16q100 0 149 121l78 176l-418 997h119l361 -864z" glyph-name="afii10085" horiz-adv-x="985" unicode="у"/><glyph d="M752 1014q256 -10 395 -150.5t139 -367.5q0 -225 -139 -367.5t-395 -153.5v-352h-107v352q-258 10 -397 152.5t-139 368.5q0 227 139 367.5t397 150.5v352h107v-352zM223 496q0 -182 107.5 -301t314.5 -123v846q-207 -4 -314.5 -121t-107.5 -301zM752 72q205 4 312 122.5 t107 301t-106.5 300t-312.5 122.5v-846z" glyph-name="afii10086" horiz-adv-x="1396" unicode="ф"/><glyph d="M819 0l-327 436l-330 -436h-127l391 508l-369 481h127l308 -407l305 407h127l-369 -481l391 -508h-127z" glyph-name="afii10087" horiz-adv-x="980" unicode="х"/><glyph d="M950 0h-784v989h106v-893h547v893h107v-893h118v-348h-94v252z" glyph-name="afii10088" horiz-adv-x="1118" unicode="ц"/><glyph d="M262 989v-289q0 -147 64.5 -204.5t201.5 -57.5q174 0 295 68v483h107v-989h-107v418q-147 -76 -315 -76q-184 0 -268 78t-84 258v311h106z" glyph-name="afii10089" horiz-adv-x="1095" unicode="ч"/><glyph d="M1425 989v-989h-1259v989h106v-893h469v893h107v-893h471v893h106z" glyph-name="afii10090" horiz-adv-x="1591" unicode="ш"/><glyph d="M1425 989v-893h125v-348h-94v252h-1290v989h106v-893h469v893h107v-893h471v893h106z" glyph-name="afii10091" horiz-adv-x="1624" unicode="щ"/><glyph d="M346 0v895h-291v94h398v-368h366q152 0 236 -91.5t84 -220.5q0 -125 -84 -217t-236 -92h-473zM453 526v-430h360q104 0 158.5 60.5t54.5 152.5q0 94 -53 155.5t-160 61.5h-360z" glyph-name="afii10092" horiz-adv-x="1222" unicode="ъ"/><glyph d="M272 989v-368h367q152 0 235.5 -91.5t83.5 -220.5q0 -125 -83.5 -217t-235.5 -92h-473v989h106zM1126 0v989h109v-989h-109zM272 526v-430h361q104 0 158.5 60.5t54.5 152.5q0 94 -53.5 155.5t-159.5 61.5h-361z" glyph-name="afii10093" horiz-adv-x="1400" unicode="ы"/><glyph d="M272 989v-368h367q152 0 235.5 -91.5t83.5 -220.5q0 -125 -83.5 -217t-235.5 -92h-473v989h106zM272 526v-430h361q104 0 158.5 60.5t54.5 152.5q0 94 -53.5 155.5t-159.5 61.5h-361z" glyph-name="afii10094" horiz-adv-x="1042" unicode="ь"/><glyph d="M459 1014q219 0 357 -147.5t138 -370.5q0 -229 -139 -375t-356 -146q-231 0 -387 160l55 70q131 -137 326 -137q168 0 273 112.5t112 274.5h-590v94h590q-6 145 -109.5 259t-275.5 114q-178 0 -303 -138l-56 70q148 160 365 160z" glyph-name="afii10095" horiz-adv-x="1062" unicode="э"/><glyph d="M950 1014q215 0 345 -148.5t130 -369.5q0 -223 -130 -372t-345 -149q-205 0 -334 139.5t-139 350.5h-205v-465h-106v989h106v-430h207q20 199 148 327t323 128zM950 72q168 0 265.5 123.5t97.5 300.5q0 174 -97.5 298t-265.5 124q-166 0 -263 -124t-97 -298 q0 -176 97 -300t263 -124z" glyph-name="afii10096" horiz-adv-x="1536" unicode="ю"/><glyph d="M135 0l277 406q-121 8 -195 86.5t-74 203.5q0 127 81 210t220 83h492v-989h-109v403h-301l-264 -403h-127zM827 498v397h-374q-94 0 -146.5 -54.5t-52.5 -144.5t51 -144t148 -54h374z" glyph-name="afii10097" horiz-adv-x="1099" unicode="я"/><glyph d="M375 1163q-31 0 -53.5 22.5t-22.5 55.5q0 31 22.5 53.5t53.5 22.5t53.5 -22.5t22.5 -53.5q0 -33 -22.5 -55.5t-53.5 -22.5zM792.5 1163q-30.5 0 -53 22.5t-22.5 55.5q0 31 22.5 53.5t53 22.5t54 -22.5t23.5 -53.5q0 -33 -23.5 -55.5t-54 -22.5zM109 496q0 217 136 367.5 t341 150.5q217 0 342 -150.5t125 -374.5v-28h-828q8 -168 112.5 -280.5t274.5 -112.5q197 0 324 137l55 -70q-154 -160 -387 -160q-217 0 -356 146t-139 375zM584 922q-162 0 -257.5 -116t-101.5 -261h719q-2 143 -95 260t-265 117z" glyph-name="afii10071" horiz-adv-x="1161" unicode="ё"/><glyph d="M567 -385l21 92q43 -14 84 -14q164 0 164 180v797q0 135 -61.5 191.5t-178.5 56.5q-92 0 -182 -49.5t-140 -120.5v-748h-106v1102h-148v78h148v186h106v-186h332v-78h-332v-262q59 70 157.5 122t199.5 52q311 0 311 -322v-819q0 -135 -68.5 -204.5t-193.5 -69.5 q-60 0 -113 16z" glyph-name="afii10099" horiz-adv-x="1107" unicode="ђ"/><glyph d="M530 1139h-100l315 295h138zM815 895h-543v-895h-106v989h649v-94z" glyph-name="afii10100" horiz-adv-x="870" unicode="ѓ"/><glyph d="M612 68q197 0 324 137l55 -70q-154 -160 -387 -160q-217 0 -356 145.5t-139 375.5q0 223 139 370.5t356 147.5q219 0 367 -160l-56 -70q-127 137 -303 138q-174 0 -276.5 -114t-108.5 -259h588v-94h-588q6 -164 110.5 -275.5t274.5 -111.5z" glyph-name="afii10101" horiz-adv-x="1062" unicode="є"/><glyph d="M80 131l63 80q51 -63 135 -104t185 -41q123 0 193.5 54t70.5 142q0 37 -16.5 66.5t-39 48t-64.5 36t-71.5 27t-84.5 23.5q-70 16 -103 25.5t-89 33t-84 49t-50.5 69.5t-22.5 99q0 117 95.5 196t257.5 79q223 0 354 -146l-59 -75q-96 131 -295 131q-113 0 -180.5 -50.5 t-67.5 -128.5q0 -33 16.5 -59.5t36 -41.5t61 -31.5t67.5 -23.5t83 -22q70 -18 104.5 -28.5t93 -35t87 -53t52 -75.5t23.5 -109q0 -127 -96 -209t-274 -82q-240 0 -381 156z" glyph-name="afii10102" horiz-adv-x="940" unicode="ѕ"/><glyph d="M219 1153q-33 0 -57.5 24.5t-24.5 57.5t24.5 57.5t57.5 24.5q35 0 58.5 -23.5t23.5 -58.5t-23.5 -58.5t-58.5 -23.5zM166 0v989h106v-989h-106z" glyph-name="afii10103" horiz-adv-x="438" unicode="і"/><glyph d="M10.5 1163q-30.5 0 -53.5 22.5t-23 55.5q0 31 23 53.5t53.5 22.5t53 -22.5t22.5 -53.5q0 -33 -22.5 -55.5t-53 -22.5zM428 1163q-31 0 -53.5 22.5t-22.5 55.5q0 31 22.5 53.5t53.5 22.5t54.5 -22.5t23.5 -53.5q0 -33 -23.5 -55.5t-54.5 -22.5zM166 0v989h106v-989h-106z " glyph-name="afii10104" horiz-adv-x="438" unicode="ї"/><glyph d="M219 1153q-33 0 -57.5 24.5t-24.5 57.5t24.5 57.5t57.5 24.5q35 0 58.5 -23.5t23.5 -58.5t-23.5 -58.5t-58.5 -23.5zM272 989v-1116q0 -135 -68.5 -204.5t-193.5 -69.5q-59 0 -112 16l20 92q43 -14 84 -14q164 0 164 180v1116h106z" glyph-name="afii10105" horiz-adv-x="438" unicode="ј"/><glyph d="M1309 621q152 0 234.5 -91.5t82.5 -220.5q0 -125 -83 -217t-234 -92h-475v895h-428l-15 -135q-31 -315 -84 -492.5t-115.5 -235t-154.5 -57.5v103q57 0 99 50t84 208t71 428l22 225h627v-368h369zM1303 96q104 0 157 60.5t53 152.5q0 94 -52 156.5t-158 62.5l-363 -2 v-430h363z" glyph-name="afii10106" horiz-adv-x="1712" unicode="љ"/><glyph d="M166 0v989h106v-430h562v430h106v-389h379q147 0 227 -89t80 -212t-80 -211t-227 -88h-485v465h-562v-465h-106zM940 506v-410h371q100 0 151 57.5t51 145.5q0 90 -50 148.5t-152 58.5h-371z" glyph-name="afii10107" horiz-adv-x="1712" unicode="њ"/><glyph d="M631 1014q311 0 311 -318v-696h-106v674q0 135 -61.5 189.5t-178.5 54.5q-92 0 -182 -49.5t-140 -120.5v-748h-106v1102h-148v78h148v186h106v-186h332v-78h-332v-262q59 70 158 122t199 52z" glyph-name="afii10108" horiz-adv-x="1107" unicode="ћ"/><glyph d="M580 1139h-103l316 295h139zM852 0l-395 471l-185 -174v-297h-106v989h106v-565l584 565h141l-460 -446l458 -543h-143z" glyph-name="afii10109" horiz-adv-x="1034" unicode="ќ"/><glyph d="M493.5 1120q-198.5 0 -313.5 158l66 53q92 -127 248 -127q160 0 247 127l66 -53q-115 -158 -313.5 -158zM850 989h121l-512 -1206q-78 -184 -254 -184q-57 0 -105 14l19 98q37 -16 86 -16q100 0 149 121l78 176l-418 997h119l361 -864z" glyph-name="afii10110" horiz-adv-x="985" unicode="ў"/><glyph d="M926 989v-989h-332v-258h-94v258h-334v989h106v-893h547v893h107z" glyph-name="afii10193" horiz-adv-x="1091" unicode="џ"/><glyph d="M287 0h-117v1366h760v254h106v-360h-749v-1260z" glyph-name="afii10050" horiz-adv-x="1110" unicode="Ґ"/><glyph d="M272 0h-106v989h553v258h96v-352h-543v-895z" glyph-name="afii10098" horiz-adv-x="870" unicode="ґ"/><glyph d="M1036 1260h-749v-533h428v-96h-428v-631h-117v631h-147v96h147v639h866v-106z" glyph-name="uni0492" horiz-adv-x="1110" unicode="Ғ"/><glyph d="M815 895h-543v-350h293v-84h-293v-461h-106v461h-143v84h143v444h649v-94z" glyph-name="uni0493" horiz-adv-x="870" unicode="ғ"/><glyph d="M1057 109h112v-361h-106v252h-62l-563 643l-151 -166v-477h-117v1366h117v-748l659 748h150l-582 -651z" glyph-name="uni049A" horiz-adv-x="1214" unicode="Қ"/><glyph d="M918 96h106v-348h-94v252h-78l-395 471l-185 -174v-297h-106v989h106v-565l584 565h141l-460 -446z" glyph-name="uni049B" horiz-adv-x="1060" unicode="қ"/><glyph d="M1200 109h111v-361h-107v252h-67l-478 616l-475 -616h-147l551 700l-520 666h149l442 -580l445 580h147l-518 -664z" glyph-name="uni04B2" horiz-adv-x="1347" unicode="Ҳ"/><glyph d="M877 96h106v-348h-96v252h-68l-327 436l-330 -436h-127l391 508l-369 481h127l308 -407l305 407h127l-369 -481z" glyph-name="uni04B3" horiz-adv-x="1019" unicode="ҳ"/><glyph d="M782 1389q295 0 479.5 -201t184.5 -506t-184.5 -506t-479.5 -201q-297 0 -480 201t-183 506t183 506t480 201zM782 1282q-227 0 -371.5 -146.5t-162.5 -381.5h1071q-20 236 -166 382t-371 146zM782 82q233 0 381 158.5t158 406.5h-1077q10 -250 156 -407.5t382 -157.5z " glyph-name="uni04E8" horiz-adv-x="1564" unicode="Ө"/><glyph d="M584 1014q215 0 346 -148.5t131 -370t-131 -371t-346 -149.5q-213 0 -344 149.5t-131 371t131 370t344 148.5zM584 918q-154 0 -249 -108t-110 -265h719q-14 158 -109 265.5t-251 107.5zM583.5 72q157.5 0 253 112.5t107.5 276.5h-719q12 -164 106.5 -276.5t252 -112.5z " glyph-name="uni04E9" unicode="ө"/><glyph d="M545 1577q0 33 22.5 55.5t55.5 22.5q31 0 53 -22.5t22 -55.5t-22.5 -55.5t-52.5 -22.5q-33 0 -55.5 22.5t-22.5 55.5zM170 0v1366h561q172 0 274.5 -94t102.5 -254q0 -123 -70.5 -208t-169.5 -105q109 -16 188 -116t79 -220q0 -170 -104.5 -269.5t-287.5 -99.5h-573z M287 754h430q127 0 197.5 70.5t70.5 181.5q0 109 -70.5 181.5t-197.5 72.5h-430v-506zM287 106h438q135 0 211 73t76 198q0 113 -76 191.5t-211 78.5h-438v-541z" glyph-name="uni1E02" horiz-adv-x="1257" unicode="Ḃ"/><glyph d="M522 1577q0 33 22.5 55.5t55.5 22.5q31 0 53.5 -22.5t22.5 -55.5t-22.5 -55.5t-53.5 -22.5q-33 0 -55.5 22.5t-22.5 55.5zM166 0v1366h106v-537q131 184 344 185q199 0 321 -142.5t122 -378t-122 -377t-321 -141.5q-106 0 -197 51.5t-147 131.5v-158h-106zM272 248 q45 -74 135.5 -125t190.5 -51q162 0 254 118.5t92 303.5q0 186 -92 305t-254 119q-98 0 -189.5 -53.5t-136.5 -127.5v-489z" glyph-name="uni1E03" unicode="ḃ"/><glyph d="M639 1577q0 33 22.5 55.5t55.5 22.5q31 0 53.5 -22.5t22.5 -55.5t-22.5 -55.5t-53.5 -22.5q-33 0 -55.5 22.5t-22.5 55.5zM170 0v1366h436q309 0 499.5 -197.5t190.5 -486.5q0 -291 -189 -486.5t-501 -195.5h-436zM287 106h319q262 0 415 164t153 412t-152 413t-416 165 h-319v-1154z" glyph-name="uni1E0A" horiz-adv-x="1417" unicode="Ḋ"/><glyph d="M512 1577q0 33 22.5 55.5t55.5 22.5q31 0 53.5 -22.5t22.5 -55.5t-22.5 -55.5t-53.5 -22.5q-33 0 -55.5 22.5t-22.5 55.5zM895 0v158q-55 -80 -146.5 -131.5t-197.5 -51.5q-199 0 -320.5 141.5t-121.5 377.5q0 233 122.5 376.5t319.5 143.5q213 0 344 -185v537h109v-1366 h-109zM895 248v489q-45 76 -135 128.5t-191 52.5q-160 0 -253 -120t-93 -304.5t93.5 -303t252.5 -118.5q100 0 190.5 51t135.5 125z" glyph-name="uni1E0B" unicode="ḋ"/><glyph d="M537 1577q0 33 22.5 55.5t54.5 22.5q31 0 53.5 -22.5t22.5 -55.5t-22.5 -55.5t-53.5 -22.5q-33 0 -55 22.5t-22 55.5zM170 0v1366h866v-106h-749v-506h735v-107h-735v-647h-117z" glyph-name="uni1E1E" horiz-adv-x="1110" unicode="Ḟ"/><glyph d="M338 1577q0 33 22.5 55.5t55.5 22.5q31 0 53.5 -22.5t22.5 -55.5t-23 -55.5t-53 -22.5q-33 0 -55.5 22.5t-22.5 55.5zM201 0v895h-164v94h164v90q0 145 71.5 226t196.5 81q80 0 133 -30l-33 -84q-39 23 -90 22q-172 0 -172 -215v-90h201v-94h-201v-895h-106z" glyph-name="uni1E1F" horiz-adv-x="542" unicode="ḟ"/><glyph d="M645 1577q0 33 22.5 55.5t55.5 22.5q31 0 53.5 -22.5t22.5 -55.5t-22.5 -55.5t-53.5 -22.5q-33 0 -55.5 22.5t-22.5 55.5zM1153 0v649h-866v-649h-117v1366h117v-610h866v610h119v-1366h-119z" glyph-name="uni1E22" horiz-adv-x="1439" unicode="Ḣ"/><glyph d="M477 1577q0 33 22.5 55.5t55.5 22.5q31 0 53.5 -22.5t22.5 -55.5t-22.5 -55.5t-53.5 -22.5q-33 0 -55.5 22.5t-22.5 55.5zM834 0v674q0 135 -61.5 189.5t-178.5 54.5q-92 0 -182 -49.5t-140 -120.5v-748h-106v1366h106v-526q59 70 157.5 122t199.5 52q311 0 311 -318 v-696h-106z" glyph-name="uni1E23" horiz-adv-x="1105" unicode="ḣ"/><glyph d="M539 1577q0 33 22.5 55.5t54.5 22.5q31 0 53.5 -22.5t22.5 -55.5t-22.5 -55.5t-53.5 -22.5q-33 0 -55 22.5t-22 55.5zM170 0v1366h512q190 0 301 -115.5t111 -283.5t-112 -284t-300 -116h-395v-567h-117zM971 967q0 129 -83 211t-218 82h-383v-586h383q135 0 218 82 t83 211z" glyph-name="uni1E56" unicode="Ṗ"/><glyph d="M535 1235q0 33 22.5 55.5t54.5 22.5q31 0 53.5 -22.5t22.5 -55.5t-22.5 -55.5t-53.5 -22.5q-33 0 -55 22.5t-22 55.5zM272 -377h-106v1366h106v-155q55 80 146.5 130t197.5 50q199 0 321 -140.5t122 -377.5q0 -236 -122 -378.5t-321 -142.5q-213 0 -344 185v-537z M944 496q0 184 -92 303t-254 119q-100 0 -190.5 -51.5t-135.5 -125.5v-489q45 -74 136.5 -127t189.5 -53q162 0 254 119t92 305z" glyph-name="uni1E57" horiz-adv-x="1167" unicode="ṗ"/><glyph d="M508 1577q0 33 22.5 55.5t55.5 22.5q31 0 53.5 -22.5t22.5 -55.5t-23 -55.5t-53 -22.5q-33 0 -55.5 22.5t-22.5 55.5zM94 193l76 88q170 -199 426 -199q190 0 275 83t85 189q0 55 -22.5 100.5t-52 73t-87 53t-98.5 39t-114 31.5q-74 20 -110 31.5t-99.5 35t-96 48.5 t-69.5 61.5t-53.5 86t-16.5 110.5q0 164 129 264.5t320 100.5q293 0 463 -193l-78 -86q-143 172 -391 172q-137 0 -228.5 -70.5t-91.5 -181.5q0 -47 21.5 -85t49 -61.5t82 -46t93.5 -34.5t110 -31q88 -25 135.5 -40t121 -51t110.5 -74t66.5 -101.5t29.5 -143.5 q0 -156 -116.5 -271.5t-368.5 -115.5q-322 1 -500 218z" glyph-name="uni1E60" horiz-adv-x="1189" unicode="Ṡ"/><glyph d="M377 1235q0 33 22.5 55.5t55.5 22.5q31 0 53 -22.5t22 -55.5t-22.5 -55.5t-52.5 -22.5q-33 0 -55.5 22.5t-22.5 55.5zM80 131l63 80q51 -63 135 -104t185 -41q123 0 193.5 54t70.5 142q0 37 -16.5 66.5t-39 48t-64.5 36t-71.5 27t-84.5 23.5q-70 16 -103 25.5t-89 33 t-84 49t-50.5 69.5t-22.5 99q0 117 95.5 196t257.5 79q223 0 354 -146l-59 -75q-96 131 -295 131q-113 0 -180.5 -50.5t-67.5 -128.5q0 -33 16.5 -59.5t36 -41.5t61 -31.5t67.5 -23.5t83 -22q70 -18 104.5 -28.5t93 -35t87 -53t52 -75.5t23.5 -109q0 -127 -96 -209t-274 -82 q-240 0 -381 156z" glyph-name="uni1E61" horiz-adv-x="940" unicode="ṡ"/><glyph d="M502 1577q0 33 22.5 55.5t55.5 22.5q31 0 53 -22.5t22 -55.5t-22.5 -55.5t-52.5 -22.5q-33 0 -55.5 22.5t-22.5 55.5zM518 0v1260h-446v106h1011v-106h-446v-1260h-119z" glyph-name="uni1E6A" horiz-adv-x="1155" unicode="Ṫ"/><glyph d="M164 1577q0 33 22.5 55.5t55.5 22.5q31 0 53 -22.5t22 -55.5t-22.5 -55.5t-52.5 -22.5q-33 0 -55.5 22.5t-22.5 55.5zM381 -25q-195 0 -195 215v705h-163v94h163v271h109v-271h201v-94h-201v-688q0 -135 102 -135q68 0 111 47l41 -82q-66 -62 -168 -62z" glyph-name="uni1E6B" horiz-adv-x="563" unicode="ṫ"/><glyph d="M844 1481l-352 295h126l316 -295h-90zM1217 0l-328 1174l-328 -1174h-131l-391 1366h131l330 -1202l336 1202h106l334 -1202l330 1202h131l-389 -1366h-131z" glyph-name="Wgrave" horiz-adv-x="1775" unicode="Ẁ"/><glyph d="M692 1139l-352 295h127l315 -295h-90zM1014 0l-277 846l-278 -846h-103l-321 989h115l262 -839l278 839h92l279 -839l262 839h115l-322 -989h-102z" glyph-name="wgrave" horiz-adv-x="1472" unicode="ẁ"/><glyph d="M930 1481h-90l315 295h127zM1217 0l-328 1174l-328 -1174h-131l-391 1366h131l330 -1202l336 1202h106l334 -1202l330 1202h131l-389 -1366h-131z" glyph-name="Wacute" horiz-adv-x="1775" unicode="Ẃ"/><glyph d="M778 1139h-90l316 295h126zM1014 0l-277 846l-278 -846h-103l-321 989h115l262 -839l278 839h92l279 -839l262 839h115l-322 -989h-102z" glyph-name="wacute" horiz-adv-x="1472" unicode="ẃ"/><glyph d="M678 1505q-31 0 -53.5 22.5t-22.5 55.5q0 31 22.5 53.5t53.5 22.5t53.5 -22.5t22.5 -53.5q0 -33 -22.5 -55.5t-53.5 -22.5zM1095.5 1505q-30.5 0 -53 22.5t-22.5 55.5q0 31 22.5 53.5t53 22.5t54.5 -22.5t24 -53.5q0 -33 -24 -55.5t-54.5 -22.5zM1217 0l-328 1174 l-328 -1174h-131l-391 1366h131l330 -1202l336 1202h106l334 -1202l330 1202h131l-389 -1366h-131z" glyph-name="Wdieresis" horiz-adv-x="1775" unicode="Ẅ"/><glyph d="M526.5 1163q-30.5 0 -53 22.5t-22.5 55.5q0 31 22.5 53.5t53 22.5t53 -22.5t22.5 -53.5q0 -33 -22.5 -55.5t-53 -22.5zM944 1163q-31 0 -53.5 22.5t-22.5 55.5q0 31 22.5 53.5t53.5 22.5t54.5 -22.5t23.5 -53.5q0 -33 -23.5 -55.5t-54.5 -22.5zM1014 0l-277 846 l-278 -846h-103l-321 989h115l262 -839l278 839h92l279 -839l262 839h115l-322 -989h-102z" glyph-name="wdieresis" horiz-adv-x="1472" unicode="ẅ"/><glyph d="M772 793q236 -10 368 -110.5t132 -301.5q0 -180 -125 -293t-320 -113q-229 0 -385 156l74 84q129 -133 311 -133q145 0 233.5 82t88.5 217q0 311 -469 311h-53v105l358 393q-109 92 -283 92q-199 0 -306 -117.5t-107 -326.5v-838h-119v840q0 256 137 402.5t395 146.5 q299 0 437 -193z" glyph-name="uni1E9E" horiz-adv-x="1347" unicode="ẞ"/><glyph d="M1163 0l-137 336h-727l-137 -336h-131l559 1366h145l559 -1366h-131zM662 1251l-326 -809h653zM586 -280.5q0 32.5 22.5 55t55.5 22.5q31 0 53 -22.5t22 -55t-22.5 -55t-52.5 -22.5q-33 0 -55.5 22.5t-22.5 55z" glyph-name="uni1EA0" horiz-adv-x="1325" unicode="Ạ"/><glyph d="M795 0v117q-129 -141 -336 -142q-137 0 -241.5 89.5t-104.5 240.5q0 154 103 241t243 87q209 0 336 -141v200q0 106 -76 167t-191 61q-182 0 -309 -146l-59 74q154 166 381 166q160 0 260 -80t100 -238v-696h-106zM795 195v217q-106 137 -299 137q-121 0 -196 -69.5 t-75 -176t75 -175.5t196 -69q195 1 299 136zM463 -280.5q0 32.5 23.5 55t56.5 22.5q31 0 53 -22.5t22 -55t-22.5 -55t-52.5 -22.5q-33 0 -56.5 22.5t-23.5 55z" glyph-name="uni1EA1" horiz-adv-x="1067" unicode="ạ"/><glyph d="M467 1667q18 61 65.5 101t118.5 40q78 0 129 -45t51 -135q0 -70 -53 -145h-88q66 68 66 145q0 53 -28 82t-77 29q-84 0 -114 -94zM1163 0l-137 336h-727l-137 -336h-131l559 1366h145l559 -1366h-131zM662 1251l-326 -809h653z" glyph-name="uni1EA2" horiz-adv-x="1325" unicode="Ả"/><glyph d="M346 1325q18 61 65.5 101t118.5 40q78 0 129.5 -45t51.5 -135q0 -70 -54 -145h-88q66 68 66 145q0 53 -27.5 82t-77.5 29q-84 0 -114 -94zM795 0v117q-129 -141 -336 -142q-137 0 -241.5 89.5t-104.5 240.5q0 154 103 241t243 87q209 0 336 -141v200q0 106 -76 167 t-191 61q-182 0 -309 -146l-59 74q154 166 381 166q160 0 260 -80t100 -238v-696h-106zM795 195v217q-106 137 -299 137q-121 0 -196 -69.5t-75 -176t75 -175.5t196 -69q195 1 299 136z" glyph-name="uni1EA3" horiz-adv-x="1067" unicode="ả"/><glyph d="M944 1597h-90l315 222h127zM840 1444l-176 174l-175 -174h-79l198 221h111l203 -221h-82zM1163 0l-137 336h-727l-137 -336h-131l559 1366h145l559 -1366h-131zM662 1251l-326 -809h653z" glyph-name="uni1EA4" horiz-adv-x="1325" unicode="Ấ"/><glyph d="M823 1343h-90l316 295h127zM719 1139l-176 231l-174 -231h-80l198 295h111l203 -295h-82zM795 0v117q-129 -141 -336 -142q-137 0 -241.5 89.5t-104.5 240.5q0 154 103 241t243 87q209 0 336 -141v200q0 106 -76 167t-191 61q-182 0 -309 -146l-59 74q154 166 381 166 q160 0 260 -80t100 -238v-696h-106zM795 195v217q-106 137 -299 137q-121 0 -196 -69.5t-75 -176t75 -175.5t196 -69q195 1 299 136z" glyph-name="uni1EA5" horiz-adv-x="1067" unicode="ấ"/><glyph d="M387 1597l-352 222h127l315 -222h-90zM840 1444l-176 174l-175 -174h-79l198 221h111l203 -221h-82zM1163 0l-137 336h-727l-137 -336h-131l559 1366h145l559 -1366h-131zM662 1251l-326 -809h653z" glyph-name="uni1EA6" horiz-adv-x="1325" unicode="Ầ"/><glyph d="M266 1343l-352 295h127l315 -295h-90zM719 1139l-176 231l-174 -231h-80l198 295h111l203 -295h-82zM795 0v117q-129 -141 -336 -142q-137 0 -241.5 89.5t-104.5 240.5q0 154 103 241t243 87q209 0 336 -141v200q0 106 -76 167t-191 61q-182 0 -309 -146l-59 74 q154 166 381 166q160 0 260 -80t100 -238v-696h-106zM795 195v217q-106 137 -299 137q-121 0 -196 -69.5t-75 -176t75 -175.5t196 -69q195 1 299 136z" glyph-name="uni1EA7" horiz-adv-x="1067" unicode="ầ"/><glyph d="M631 1735q18 45 65 75.5t119 30.5q76 0 128 -33.5t52 -101.5q0 -51 -53 -109h-88q66 51 66 109q0 82 -105 82q-84 0 -115 -70zM840 1444l-176 174l-175 -174h-79l198 221h111l203 -221h-82zM1163 0l-137 336h-727l-137 -336h-131l559 1366h145l559 -1366h-131zM662 1251 l-326 -809h653z" glyph-name="uni1EA8" horiz-adv-x="1325" unicode="Ẩ"/><glyph d="M510 1528q18 61 65.5 101t118.5 40q78 0 129 -45t51 -135q0 -70 -53 -146h-88q66 68 66 146q0 53 -28 81.5t-77 28.5q-84 0 -114 -94zM719 1139l-176 231l-174 -231h-80l198 295h111l203 -295h-82zM795 0v117q-129 -141 -336 -142q-137 0 -241.5 89.5t-104.5 240.5 q0 154 103 241t243 87q209 0 336 -141v200q0 106 -76 167t-191 61q-182 0 -309 -146l-59 74q154 166 381 166q160 0 260 -80t100 -238v-696h-106zM795 195v217q-106 137 -299 137q-121 0 -196 -69.5t-75 -176t75 -175.5t196 -69q195 1 299 136z" glyph-name="uni1EA9" horiz-adv-x="1067" unicode="ẩ"/><glyph d="M633 1778q-51 68 -103 67q-49 0 -79.5 -36.5t-30.5 -110.5h-72q0 90 50.5 147.5t140.5 57.5q39 0 69.5 -15.5t46 -30t37.5 -42.5q20 -25 29.5 -35.5t30 -21.5t43.5 -11q109 0 108 147h74q0 -90 -49 -147t-140 -57q-41 0 -72.5 15t-44.5 28.5t-38 44.5zM840 1444l-176 174 l-175 -174h-79l198 221h111l203 -221h-82zM1163 0l-137 336h-727l-137 -336h-131l559 1366h145l559 -1366h-131zM662 1251l-326 -809h653z" glyph-name="uni1EAA" horiz-adv-x="1325" unicode="Ẫ"/><glyph d="M514 1585q-51 92 -102 92q-49 0 -80 -49t-31 -149h-72q0 119 50.5 196.5t140.5 77.5q39 0 69.5 -20.5t45 -40t38.5 -58.5q20 -33 29.5 -46t30 -28.5t43.5 -15.5q49 0 78.5 49t29.5 148h74q0 -121 -49 -198t-139 -77q-41 0 -73 20.5t-45 39t-38 59.5zM719 1139l-176 231 l-174 -231h-80l198 295h111l203 -295h-82zM795 0v117q-129 -141 -336 -142q-137 0 -241.5 89.5t-104.5 240.5q0 154 103 241t243 87q209 0 336 -141v200q0 106 -76 167t-191 61q-182 0 -309 -146l-59 74q154 166 381 166q160 0 260 -80t100 -238v-696h-106zM795 195v217 q-106 137 -299 137q-121 0 -196 -69.5t-75 -176t75 -175.5t196 -69q195 1 299 136z" glyph-name="uni1EAB" horiz-adv-x="1067" unicode="ẫ"/><glyph d="M840 1481l-176 231l-175 -231h-79l198 295h111l203 -295h-82zM1163 0l-137 336h-727l-137 -336h-131l559 1366h145l559 -1366h-131zM662 1251l-326 -809h653zM586 -280.5q0 32.5 22.5 55t55.5 22.5q31 0 53 -22.5t22 -55t-22.5 -55t-52.5 -22.5q-33 0 -55.5 22.5 t-22.5 55z" glyph-name="uni1EAC" horiz-adv-x="1325" unicode="Ậ"/><glyph d="M719 1139l-176 231l-174 -231h-80l198 295h111l203 -295h-82zM795 0v117q-129 -141 -336 -142q-137 0 -241.5 89.5t-104.5 240.5q0 154 103 241t243 87q209 0 336 -141v200q0 106 -76 167t-191 61q-182 0 -309 -146l-59 74q154 166 381 166q160 0 260 -80t100 -238v-696 h-106zM795 195v217q-106 137 -299 137q-121 0 -196 -69.5t-75 -176t75 -175.5t196 -69q195 1 299 136zM463 -280.5q0 32.5 23.5 55t56.5 22.5q31 0 53 -22.5t22 -55t-22.5 -55t-52.5 -22.5q-33 0 -56.5 22.5t-23.5 55z" glyph-name="uni1EAD" horiz-adv-x="1067" unicode="ậ"/><glyph d="M705 1653h-91l316 221h127zM661.5 1452q-225.5 0 -360.5 166l59 49q111 -143 302 -143q188 0 301 143l57 -49q-133 -166 -358.5 -166zM1163 0l-137 336h-727l-137 -336h-131l559 1366h145l559 -1366h-131zM662 1251l-326 -809h653z" glyph-name="uni1EAE" horiz-adv-x="1325" unicode="Ắ"/><glyph d="M584 1366h-90l315 295h127zM543 1120q-223 0 -361 180l60 52q111 -154 301 -154q188 0 301 154l57 -52q-133 -180 -358 -180zM795 0v117q-129 -141 -336 -142q-137 0 -241.5 89.5t-104.5 240.5q0 154 103 241t243 87q209 0 336 -141v200q0 106 -76 167t-191 61 q-182 0 -309 -146l-59 74q154 166 381 166q160 0 260 -80t100 -238v-696h-106zM795 195v217q-106 137 -299 137q-121 0 -196 -69.5t-75 -176t75 -175.5t196 -69q195 1 299 136z" glyph-name="uni1EAF" horiz-adv-x="1067" unicode="ắ"/><glyph d="M616 1653l-352 221h127l316 -221h-91zM661.5 1452q-225.5 0 -360.5 166l59 49q111 -143 302 -143q188 0 301 143l57 -49q-133 -166 -358.5 -166zM1163 0l-137 336h-727l-137 -336h-131l559 1366h145l559 -1366h-131zM662 1251l-326 -809h653z" glyph-name="uni1EB0" horiz-adv-x="1325" unicode="Ằ"/><glyph d="M498 1366l-353 295h127l316 -295h-90zM543 1120q-223 0 -361 180l60 52q111 -154 301 -154q188 0 301 154l57 -52q-133 -180 -358 -180zM795 0v117q-129 -141 -336 -142q-137 0 -241.5 89.5t-104.5 240.5q0 154 103 241t243 87q209 0 336 -141v200q0 106 -76 167t-191 61 q-182 0 -309 -146l-59 74q154 166 381 166q160 0 260 -80t100 -238v-696h-106zM795 195v217q-106 137 -299 137q-121 0 -196 -69.5t-75 -176t75 -175.5t196 -69q195 1 299 136z" glyph-name="uni1EB1" horiz-adv-x="1067" unicode="ằ"/><glyph d="M467 1792q18 45 65.5 75.5t118.5 30.5q76 0 128 -33.5t52 -101.5q0 -51 -53 -108h-88q66 51 66 108q0 82 -105 82q-84 0 -114 -69zM661.5 1452q-225.5 0 -360.5 166l59 49q111 -143 302 -143q188 0 301 143l57 -49q-133 -166 -358.5 -166zM1163 0l-137 336h-727 l-137 -336h-131l559 1366h145l559 -1366h-131zM662 1251l-326 -809h653z" glyph-name="uni1EB2" horiz-adv-x="1325" unicode="Ẳ"/><glyph d="M346 1552q18 61 65.5 101.5t118.5 40.5q78 0 129.5 -45t51.5 -136q0 -70 -54 -145h-88q66 68 66 145q0 53 -27.5 82t-77.5 29q-84 0 -114 -94zM543 1120q-223 0 -361 180l60 52q111 -154 301 -154q188 0 301 154l57 -52q-133 -180 -358 -180zM795 0v117 q-129 -141 -336 -142q-137 0 -241.5 89.5t-104.5 240.5q0 154 103 241t243 87q209 0 336 -141v200q0 106 -76 167t-191 61q-182 0 -309 -146l-59 74q154 166 381 166q160 0 260 -80t100 -238v-696h-106zM795 195v217q-106 137 -299 137q-121 0 -196 -69.5t-75 -176 t75 -175.5t196 -69q195 1 299 136z" glyph-name="uni1EB3" horiz-adv-x="1067" unicode="ẳ"/><glyph d="M633 1700q-51 68 -103 67q-49 0 -79.5 -36.5t-30.5 -110.5h-72q0 90 50.5 147.5t140.5 57.5q39 0 69.5 -15.5t46 -30t37.5 -42.5q20 -25 29.5 -35t30 -21.5t43.5 -11.5q109 0 108 148h74q0 -90 -49 -147.5t-140 -57.5q-41 0 -72.5 15t-44.5 28.5t-38 44.5zM662 1430 q-221 0 -361 135l59 39q113 -117 301.5 -117t301.5 117l57 -39q-135 -135 -358 -135zM1163 0l-137 336h-727l-137 -336h-131l559 1366h145l559 -1366h-131zM662 1251l-326 -809h653z" glyph-name="uni1EB4" horiz-adv-x="1325" unicode="Ẵ"/><glyph d="M514 1481q-51 92 -102 92q-49 0 -80 -49t-31 -150h-72q0 119 50.5 197t140.5 78q39 0 69.5 -20.5t45 -40t38.5 -58.5q20 -33 29.5 -46.5t30 -28.5t43.5 -15q49 0 78.5 49t29.5 147h74q0 -121 -49 -197.5t-139 -76.5q-41 0 -73 20.5t-45 39t-38 59.5zM543 1120 q-223 0 -361 180l60 52q111 -154 301 -154q188 0 301 154l57 -52q-133 -180 -358 -180zM795 0v117q-129 -141 -336 -142q-137 0 -241.5 89.5t-104.5 240.5q0 154 103 241t243 87q209 0 336 -141v200q0 106 -76 167t-191 61q-182 0 -309 -146l-59 74q154 166 381 166 q160 0 260 -80t100 -238v-696h-106zM795 195v217q-106 137 -299 137q-121 0 -196 -69.5t-75 -176t75 -175.5t196 -69q195 1 299 136z" glyph-name="uni1EB5" horiz-adv-x="1067" unicode="ẵ"/><glyph d="M662 1462q-223 0 -361 180l59 52q111 -154 302 -154q188 0 301 154l57 -52q-133 -180 -358 -180zM1163 0l-137 336h-727l-137 -336h-131l559 1366h145l559 -1366h-131zM662 1251l-326 -809h653zM586 -280.5q0 32.5 22.5 55t55.5 22.5q31 0 53 -22.5t22 -55t-22.5 -55 t-52.5 -22.5q-33 0 -55.5 22.5t-22.5 55z" glyph-name="uni1EB6" horiz-adv-x="1325" unicode="Ặ"/><glyph d="M543 1120q-223 0 -361 180l60 52q111 -154 301 -154q188 0 301 154l57 -52q-133 -180 -358 -180zM795 0v117q-129 -141 -336 -142q-137 0 -241.5 89.5t-104.5 240.5q0 154 103 241t243 87q209 0 336 -141v200q0 106 -76 167t-191 61q-182 0 -309 -146l-59 74 q154 166 381 166q160 0 260 -80t100 -238v-696h-106zM795 195v217q-106 137 -299 137q-121 0 -196 -69.5t-75 -176t75 -175.5t196 -69q195 1 299 136zM463 -280.5q0 32.5 23.5 55t56.5 22.5q31 0 53 -22.5t22 -55t-22.5 -55t-52.5 -22.5q-33 0 -56.5 22.5t-23.5 55z" glyph-name="uni1EB7" horiz-adv-x="1067" unicode="ặ"/><glyph d="M170 0v1366h866v-106h-749v-506h735v-107h-735v-541h749v-106h-866zM537 -280.5q0 32.5 22.5 55t54.5 22.5q31 0 53.5 -22.5t22.5 -55t-22.5 -55t-53.5 -22.5q-33 0 -55 22.5t-22 55z" glyph-name="uni1EB8" horiz-adv-x="1155" unicode="Ẹ"/><glyph d="M109 496q0 217 136 367.5t341 150.5q217 0 342 -150.5t125 -374.5v-28h-828q8 -168 112.5 -280.5t274.5 -112.5q197 0 324 137l55 -70q-154 -160 -387 -160q-217 0 -356 146t-139 375zM584 922q-162 0 -257.5 -116t-101.5 -261h719q-2 143 -95 260t-265 117zM508 -280.5 q0 32.5 22.5 55t55.5 22.5q31 0 53.5 -22.5t22.5 -55t-23 -55t-53 -22.5q-33 0 -55.5 22.5t-22.5 55z" glyph-name="uni1EB9" horiz-adv-x="1161" unicode="ẹ"/><glyph d="M418 1667q18 61 65 101t119 40q78 0 129 -45t51 -135q0 -70 -53 -145h-88q66 68 66 145q0 53 -28 82t-77 29q-84 0 -115 -94zM170 0v1366h866v-106h-749v-506h735v-107h-735v-541h749v-106h-866z" glyph-name="uni1EBA" horiz-adv-x="1155" unicode="Ẻ"/><glyph d="M389 1325q18 61 65.5 101t118.5 40q78 0 129.5 -45t51.5 -135q0 -70 -54 -145h-88q66 68 66 145q0 53 -27.5 82t-77.5 29q-84 0 -114 -94zM109 496q0 217 136 367.5t341 150.5q217 0 342 -150.5t125 -374.5v-28h-828q8 -168 112.5 -280.5t274.5 -112.5q197 0 324 137 l55 -70q-154 -160 -387 -160q-217 0 -356 146t-139 375zM584 922q-162 0 -257.5 -116t-101.5 -261h719q-2 143 -95 260t-265 117z" glyph-name="uni1EBB" horiz-adv-x="1161" unicode="ẻ"/><glyph d="M584 1595q-51 92 -103 93q-49 0 -79.5 -49.5t-30.5 -149.5h-72q0 119 50 196.5t140 77.5q39 0 70 -20.5t45 -40t39 -57.5q20 -33 29.5 -46.5t30 -29t42.5 -15.5q49 0 79 49.5t30 147.5h74q0 -121 -49.5 -197.5t-139.5 -76.5q-41 0 -72.5 20.5t-44.5 38.5t-38 59zM170 0 v1366h866v-106h-749v-506h735v-107h-735v-541h749v-106h-866z" glyph-name="uni1EBC" horiz-adv-x="1155" unicode="Ẽ"/><glyph d="M555 1253q-51 92 -102 93q-49 0 -80 -49.5t-31 -149.5h-72q0 119 50.5 196.5t140.5 77.5q39 0 69.5 -20.5t45 -40t38.5 -57.5q20 -33 29.5 -46.5t30 -29t43.5 -15.5q49 0 78.5 49.5t29.5 147.5h74q0 -121 -49 -197.5t-139 -76.5q-41 0 -73 20.5t-45 38.5t-38 59zM109 496 q0 217 136 367.5t341 150.5q217 0 342 -150.5t125 -374.5v-28h-828q8 -168 112.5 -280.5t274.5 -112.5q197 0 324 137l55 -70q-154 -160 -387 -160q-217 0 -356 146t-139 375zM584 922q-162 0 -257.5 -116t-101.5 -261h719q-2 143 -95 260t-265 117z" glyph-name="uni1EBD" horiz-adv-x="1161" unicode="ẽ"/><glyph d="M893 1597h-90l315 222h127zM791 1444l-177 174l-174 -174h-80l199 221h111l202 -221h-81zM170 0v1366h866v-106h-749v-506h735v-107h-735v-541h749v-106h-866z" glyph-name="uni1EBE" horiz-adv-x="1155" unicode="Ế"/><glyph d="M864 1343h-90l316 295h127zM762 1139l-176 231l-174 -231h-80l198 295h111l203 -295h-82zM109 496q0 217 136 367.5t341 150.5q217 0 342 -150.5t125 -374.5v-28h-828q8 -168 112.5 -280.5t274.5 -112.5q197 0 324 137l55 -70q-154 -160 -387 -160q-217 0 -356 146 t-139 375zM584 922q-162 0 -257.5 -116t-101.5 -261h719q-2 143 -95 260t-265 117z" glyph-name="uni1EBF" horiz-adv-x="1161" unicode="ế"/><glyph d="M338 1597l-352 222h127l315 -222h-90zM791 1444l-177 174l-174 -174h-80l199 221h111l202 -221h-81zM170 0v1366h866v-106h-749v-506h735v-107h-735v-541h749v-106h-866z" glyph-name="uni1EC0" horiz-adv-x="1155" unicode="Ề"/><glyph d="M309 1343l-352 295h127l315 -295h-90zM762 1139l-176 231l-174 -231h-80l198 295h111l203 -295h-82zM109 496q0 217 136 367.5t341 150.5q217 0 342 -150.5t125 -374.5v-28h-828q8 -168 112.5 -280.5t274.5 -112.5q197 0 324 137l55 -70q-154 -160 -387 -160 q-217 0 -356 146t-139 375zM584 922q-162 0 -257.5 -116t-101.5 -261h719q-2 143 -95 260t-265 117z" glyph-name="uni1EC1" horiz-adv-x="1161" unicode="ề"/><glyph d="M582 1735q18 45 65 75.5t119 30.5q76 0 128 -33.5t52 -101.5q0 -51 -53 -109h-88q66 51 65 109q0 82 -104 82q-84 0 -115 -70zM791 1444l-177 174l-174 -174h-80l199 221h111l202 -221h-81zM170 0v1366h866v-106h-749v-506h735v-107h-735v-541h749v-106h-866z" glyph-name="uni1EC2" horiz-adv-x="1155" unicode="Ể"/><glyph d="M553 1528q18 61 65.5 101t118.5 40q78 0 129.5 -45t51.5 -135q0 -70 -54 -146h-88q66 68 66 146q0 53 -28 81.5t-77 28.5q-84 0 -114 -94zM762 1139l-176 231l-174 -231h-80l198 295h111l203 -295h-82zM109 496q0 217 136 367.5t341 150.5q217 0 342 -150.5t125 -374.5 v-28h-828q8 -168 112.5 -280.5t274.5 -112.5q197 0 324 137l55 -70q-154 -160 -387 -160q-217 0 -356 146t-139 375zM584 922q-162 0 -257.5 -116t-101.5 -261h719q-2 143 -95 260t-265 117z" glyph-name="uni1EC3" horiz-adv-x="1161" unicode="ể"/><glyph d="M584 1778q-51 68 -103 67q-49 0 -79.5 -36.5t-30.5 -110.5h-72q0 90 50 147.5t140 57.5q39 0 70 -15.5t46.5 -30t37.5 -42.5q20 -25 29.5 -35.5t30 -21.5t42.5 -11q109 0 109 147h74q0 -90 -50.5 -148t-138.5 -58q-41 0 -72.5 16t-44.5 29.5t-38 44.5zM791 1444l-177 174 l-174 -174h-80l199 221h111l202 -221h-81zM170 0v1366h866v-106h-749v-506h735v-107h-735v-541h749v-106h-866z" glyph-name="uni1EC4" horiz-adv-x="1155" unicode="Ễ"/><glyph d="M555 1585q-51 92 -102 92q-49 0 -80 -49t-31 -149h-72q0 119 50.5 196.5t140.5 77.5q39 0 69.5 -20.5t45 -40t38.5 -58.5q20 -33 29.5 -46t30 -28.5t43.5 -15.5q49 0 78.5 49t29.5 148h74q0 -121 -49 -198t-139 -77q-41 0 -73 20.5t-45 39t-38 59.5zM762 1139l-176 231 l-174 -231h-80l198 295h111l203 -295h-82zM109 496q0 217 136 367.5t341 150.5q217 0 342 -150.5t125 -374.5v-28h-828q8 -168 112.5 -280.5t274.5 -112.5q197 0 324 137l55 -70q-154 -160 -387 -160q-217 0 -356 146t-139 375zM584 922q-162 0 -257.5 -116t-101.5 -261h719 q-2 143 -95 260t-265 117z" glyph-name="uni1EC5" horiz-adv-x="1161" unicode="ễ"/><glyph d="M791 1481l-177 231l-174 -231h-80l199 295h111l202 -295h-81zM170 0v1366h866v-106h-749v-506h735v-107h-735v-541h749v-106h-866zM537 -280.5q0 32.5 22.5 55t54.5 22.5q31 0 53.5 -22.5t22.5 -55t-22.5 -55t-53.5 -22.5q-33 0 -55 22.5t-22 55z" glyph-name="uni1EC6" horiz-adv-x="1155" unicode="Ệ"/><glyph d="M762 1139l-176 231l-174 -231h-80l198 295h111l203 -295h-82zM109 496q0 217 136 367.5t341 150.5q217 0 342 -150.5t125 -374.5v-28h-828q8 -168 112.5 -280.5t274.5 -112.5q197 0 324 137l55 -70q-154 -160 -387 -160q-217 0 -356 146t-139 375zM584 922 q-162 0 -257.5 -116t-101.5 -261h719q-2 143 -95 260t-265 117zM508 -280.5q0 32.5 22.5 55t55.5 22.5q31 0 53.5 -22.5t22.5 -55t-23 -55t-53 -22.5q-33 0 -55.5 22.5t-22.5 55z" glyph-name="uni1EC7" horiz-adv-x="1161" unicode="ệ"/><glyph d="M33 1667q18 61 65 101t119 40q78 0 129 -45t51 -135q0 -70 -53 -145h-88q66 68 66 145q0 53 -28 82t-77 29q-84 0 -115 -94zM170 0v1366h117v-1366h-117z" glyph-name="uni1EC8" horiz-adv-x="456" unicode="Ỉ"/><glyph d="M23 1325q18 61 65 101t119 40q78 0 129 -45t51 -135q0 -70 -53 -145h-88q66 68 65 145q0 53 -27.5 82t-76.5 29q-84 0 -115 -94zM166 0v989h106v-989h-106z" glyph-name="uni1EC9" horiz-adv-x="438" unicode="ỉ"/><glyph d="M170 0v1366h117v-1366h-117zM152 -280.5q0 32.5 22.5 55t54.5 22.5q31 0 53.5 -22.5t22.5 -55t-22.5 -55t-53.5 -22.5q-33 0 -55 22.5t-22 55z" glyph-name="uni1ECA" horiz-adv-x="456" unicode="Ị"/><glyph d="M219 1153q-33 0 -57.5 24.5t-24.5 57.5t24.5 57.5t57.5 24.5q35 0 58.5 -23.5t23.5 -58.5t-23.5 -58.5t-58.5 -23.5zM166 0v989h106v-989h-106zM141 -280.5q0 32.5 22.5 55t55.5 22.5q31 0 53.5 -22.5t22.5 -55t-22.5 -55t-53.5 -22.5q-33 0 -55.5 22.5t-22.5 55z" glyph-name="uni1ECB" horiz-adv-x="438" unicode="ị"/><glyph d="M119 682q0 305 183 506t480 201q295 0 479.5 -201t184.5 -506t-184.5 -506t-479.5 -201q-297 0 -480 201t-183 506zM1323 682q0 264 -148.5 432t-392.5 168q-246 0 -393 -168t-147 -432q0 -262 147.5 -431t392.5 -169q242 0 391.5 169t149.5 431zM705 -280.5 q0 32.5 22.5 55t54.5 22.5q31 0 53.5 -22.5t22.5 -55t-22.5 -55t-53.5 -22.5q-33 0 -55 22.5t-22 55z" glyph-name="uni1ECC" horiz-adv-x="1564" unicode="Ọ"/><glyph d="M584 -25q-213 0 -344 149.5t-131 371t131 370t344 148.5q215 0 346 -148.5t131 -370t-131 -371t-346 -149.5zM584 72q168 0 265 123.5t97 300.5q0 174 -97 298t-265 124q-166 0 -263.5 -124t-97.5 -298t97.5 -299t263.5 -125zM508 -280.5q0 32.5 22.5 55t55.5 22.5 q31 0 53.5 -22.5t22.5 -55t-23 -55t-53 -22.5q-33 0 -55.5 22.5t-22.5 55z" glyph-name="uni1ECD" unicode="ọ"/><glyph d="M586 1667q18 61 65 101t119 40q78 0 129 -45t51 -135q0 -70 -53 -145h-88q66 68 65 145q0 53 -27.5 82t-76.5 29q-84 0 -115 -94zM119 682q0 305 183 506t480 201q295 0 479.5 -201t184.5 -506t-184.5 -506t-479.5 -201q-297 0 -480 201t-183 506zM1323 682 q0 264 -148.5 432t-392.5 168q-246 0 -393 -168t-147 -432q0 -262 147.5 -431t392.5 -169q242 0 391.5 169t149.5 431z" glyph-name="uni1ECE" horiz-adv-x="1564" unicode="Ỏ"/><glyph d="M389 1325q18 61 65.5 101t118.5 40q78 0 129.5 -45t51.5 -135q0 -70 -54 -145h-88q66 68 66 145q0 53 -27.5 82t-77.5 29q-84 0 -114 -94zM584 -25q-213 0 -344 149.5t-131 371t131 370t344 148.5q215 0 346 -148.5t131 -370t-131 -371t-346 -149.5zM584 72 q168 0 265 123.5t97 300.5q0 174 -97 298t-265 124q-166 0 -263.5 -124t-97.5 -298t97.5 -299t263.5 -125z" glyph-name="uni1ECF" unicode="ỏ"/><glyph d="M1063 1597h-90l315 222h127zM958 1444l-176 174l-174 -174h-80l199 221h111l202 -221h-82zM119 682q0 305 183 506t480 201q295 0 479.5 -201t184.5 -506t-184.5 -506t-479.5 -201q-297 0 -480 201t-183 506zM1323 682q0 264 -148.5 432t-392.5 168q-246 0 -393 -168 t-147 -432q0 -262 147.5 -431t392.5 -169q242 0 391.5 169t149.5 431z" glyph-name="uni1ED0" horiz-adv-x="1564" unicode="Ố"/><glyph d="M866 1343h-90l316 295h127zM762 1139l-176 231l-174 -231h-80l198 295h111l203 -295h-82zM584 -25q-213 0 -344 149.5t-131 371t131 370t344 148.5q215 0 346 -148.5t131 -370t-131 -371t-346 -149.5zM584 72q168 0 265 123.5t97 300.5q0 174 -97 298t-265 124 q-166 0 -263.5 -124t-97.5 -298t97.5 -299t263.5 -125z" glyph-name="uni1ED1" unicode="ố"/><glyph d="M508 1597l-352 222h127l315 -222h-90zM958 1444l-176 174l-174 -174h-80l199 221h111l202 -221h-82zM119 682q0 305 183 506t480 201q295 0 479.5 -201t184.5 -506t-184.5 -506t-479.5 -201q-297 0 -480 201t-183 506zM1323 682q0 264 -148.5 432t-392.5 168 q-246 0 -393 -168t-147 -432q0 -262 147.5 -431t392.5 -169q242 0 391.5 169t149.5 431z" glyph-name="uni1ED2" horiz-adv-x="1564" unicode="Ồ"/><glyph d="M309 1343l-352 295h127l315 -295h-90zM762 1139l-176 231l-174 -231h-80l198 295h111l203 -295h-82zM584 -25q-213 0 -344 149.5t-131 371t131 370t344 148.5q215 0 346 -148.5t131 -370t-131 -371t-346 -149.5zM584 72q168 0 265 123.5t97 300.5q0 174 -97 298t-265 124 q-166 0 -263.5 -124t-97.5 -298t97.5 -299t263.5 -125z" glyph-name="uni1ED3" unicode="ồ"/><glyph d="M750 1735q18 45 65 75.5t119 30.5q76 0 128 -33.5t52 -101.5q0 -51 -53 -109h-88q66 51 65 109q0 82 -104 82q-84 0 -115 -70zM958 1444l-176 174l-174 -174h-80l199 221h111l202 -221h-82zM119 682q0 305 183 506t480 201q295 0 479.5 -201t184.5 -506t-184.5 -506 t-479.5 -201q-297 0 -480 201t-183 506zM1323 682q0 264 -148.5 432t-392.5 168q-246 0 -393 -168t-147 -432q0 -262 147.5 -431t392.5 -169q242 0 391.5 169t149.5 431z" glyph-name="uni1ED4" horiz-adv-x="1564" unicode="Ổ"/><glyph d="M553 1528q18 61 65.5 101t118.5 40q78 0 129.5 -45t51.5 -135q0 -70 -54 -146h-88q66 68 66 146q0 53 -28 81.5t-77 28.5q-84 0 -114 -94zM762 1139l-176 231l-174 -231h-80l198 295h111l203 -295h-82zM584 -25q-213 0 -344 149.5t-131 371t131 370t344 148.5 q215 0 346 -148.5t131 -370t-131 -371t-346 -149.5zM584 72q168 0 265 123.5t97 300.5q0 174 -97 298t-265 124q-166 0 -263.5 -124t-97.5 -298t97.5 -299t263.5 -125z" glyph-name="uni1ED5" unicode="ổ"/><glyph d="M754 1778q-51 68 -103 67q-49 0 -79.5 -36.5t-30.5 -110.5h-72q0 90 50 147.5t140 57.5q39 0 70 -15.5t46.5 -30t37.5 -42.5q20 -25 29.5 -35.5t30 -21.5t42.5 -11q109 0 109 147h74q0 -90 -49.5 -147t-139.5 -57q-41 0 -72.5 15t-44.5 28.5t-38 44.5zM958 1444l-176 174 l-174 -174h-80l199 221h111l202 -221h-82zM119 682q0 305 183 506t480 201q295 0 479.5 -201t184.5 -506t-184.5 -506t-479.5 -201q-297 0 -480 201t-183 506zM1323 682q0 264 -148.5 432t-392.5 168q-246 0 -393 -168t-147 -432q0 -262 147.5 -431t392.5 -169 q242 0 391.5 169t149.5 431z" glyph-name="uni1ED6" horiz-adv-x="1564" unicode="Ỗ"/><glyph d="M555 1585q-51 92 -102 92q-49 0 -80 -49t-31 -149h-72q0 119 50.5 196.5t140.5 77.5q39 0 69.5 -20.5t45 -40t38.5 -58.5q20 -33 29.5 -46t30 -28.5t43.5 -15.5q49 0 78.5 49t29.5 148h74q0 -121 -49 -198t-139 -77q-41 0 -73 20.5t-45 39t-38 59.5zM762 1139l-176 231 l-174 -231h-80l198 295h111l203 -295h-82zM584 -25q-213 0 -344 149.5t-131 371t131 370t344 148.5q215 0 346 -148.5t131 -370t-131 -371t-346 -149.5zM584 72q168 0 265 123.5t97 300.5q0 174 -97 298t-265 124q-166 0 -263.5 -124t-97.5 -298t97.5 -299t263.5 -125z" glyph-name="uni1ED7" unicode="ỗ"/><glyph d="M958 1481l-176 231l-174 -231h-80l199 295h111l202 -295h-82zM119 682q0 305 183 506t480 201q295 0 479.5 -201t184.5 -506t-184.5 -506t-479.5 -201q-297 0 -480 201t-183 506zM1323 682q0 264 -148.5 432t-392.5 168q-246 0 -393 -168t-147 -432q0 -262 147.5 -431 t392.5 -169q242 0 391.5 169t149.5 431zM705 -280.5q0 32.5 22.5 55t54.5 22.5q31 0 53.5 -22.5t22.5 -55t-22.5 -55t-53.5 -22.5q-33 0 -55 22.5t-22 55z" glyph-name="uni1ED8" horiz-adv-x="1564" unicode="Ộ"/><glyph d="M762 1139l-176 231l-174 -231h-80l198 295h111l203 -295h-82zM584 -25q-213 0 -344 149.5t-131 371t131 370t344 148.5q215 0 346 -148.5t131 -370t-131 -371t-346 -149.5zM584 72q168 0 265 123.5t97 300.5q0 174 -97 298t-265 124q-166 0 -263.5 -124t-97.5 -298 t97.5 -299t263.5 -125zM508 -280.5q0 32.5 22.5 55t55.5 22.5q31 0 53.5 -22.5t22.5 -55t-23 -55t-53 -22.5q-33 0 -55.5 22.5t-22.5 55z" glyph-name="uni1ED9" unicode="ộ"/><glyph d="M1176 1776l-353 -295h-90l316 295h127zM1454 1360q0 -74 -37 -142.5t-92 -109.5q121 -184 121 -426q0 -305 -184.5 -506t-479.5 -201q-297 0 -480 201t-183 506t183 506t480 201q313 0 502 -228q90 78 94 166l-20 -2q-31 0 -51.5 21.5t-20.5 54.5q0 31 21.5 53.5 t54.5 22.5q39 0 65.5 -31t26.5 -86zM782 82q242 0 391.5 169t149.5 431q0 264 -148.5 432t-392.5 168q-246 0 -393 -168t-147 -432q0 -262 147 -431t393 -169z" glyph-name="uni1EDA" horiz-adv-x="1564" unicode="Ớ"/><glyph d="M979 1434l-352 -295h-90l315 295h127zM946 846q115 -143 115 -350q0 -221 -131 -371t-346 -150q-213 0 -344 149.5t-131 371t131 370t344 148.5q186 0 315 -119q80 78 84 158l-20 -2q-31 0 -51.5 21.5t-20.5 53.5q0 31 21.5 53.5t54.5 22.5q39 0 65.5 -30.5t26.5 -86.5 q0 -139 -113 -239zM584 72q168 0 265 123.5t97 300.5q0 174 -97 298t-265 124q-166 0 -263.5 -124t-97.5 -298t97.5 -299t263.5 -125z" glyph-name="uni1EDB" unicode="ớ"/><glyph d="M827 1481h-90l-352 295h127zM1454 1360q0 -74 -37 -142.5t-92 -109.5q121 -184 121 -426q0 -305 -184.5 -506t-479.5 -201q-297 0 -480 201t-183 506t183 506t480 201q313 0 502 -228q90 78 94 166l-20 -2q-31 0 -51.5 21.5t-20.5 54.5q0 31 21.5 53.5t54.5 22.5 q39 0 65.5 -31t26.5 -86zM782 82q242 0 391.5 169t149.5 431q0 264 -148.5 432t-392.5 168q-246 0 -393 -168t-147 -432q0 -262 147 -431t393 -169z" glyph-name="uni1EDC" horiz-adv-x="1564" unicode="Ờ"/><glyph d="M629 1139h-90l-353 295h127zM946 846q115 -143 115 -350q0 -221 -131 -371t-346 -150q-213 0 -344 149.5t-131 371t131 370t344 148.5q186 0 315 -119q80 78 84 158l-20 -2q-31 0 -51.5 21.5t-20.5 53.5q0 31 21.5 53.5t54.5 22.5q39 0 65.5 -30.5t26.5 -86.5 q0 -139 -113 -239zM584 72q168 0 265 123.5t97 300.5q0 174 -97 298t-265 124q-166 0 -263.5 -124t-97.5 -298t97.5 -299t263.5 -125z" glyph-name="uni1EDD" unicode="ờ"/><glyph d="M770 1739q-84 0 -115 -94l-69 22q18 61 65 101t119 40q78 0 129 -45t51 -135q0 -70 -53 -145h-88q66 68 65 145q0 53 -27.5 82t-76.5 29zM1454 1360q0 -74 -37 -142.5t-92 -109.5q121 -184 121 -426q0 -305 -184.5 -506t-479.5 -201q-297 0 -480 201t-183 506t183 506 t480 201q313 0 502 -228q90 78 94 166l-20 -2q-31 0 -51.5 21.5t-20.5 54.5q0 31 21.5 53.5t54.5 22.5q39 0 65.5 -31t26.5 -86zM782 82q242 0 391.5 169t149.5 431q0 264 -148.5 432t-392.5 168q-246 0 -393 -168t-147 -432q0 -262 147 -431t393 -169z" glyph-name="uni1EDE" horiz-adv-x="1564" unicode="Ở"/><glyph d="M573 1397q-84 0 -114 -94l-70 22q18 61 65.5 101t118.5 40q78 0 129.5 -45t51.5 -135q0 -70 -54 -145h-88q66 68 66 145q0 53 -28 82t-77 29zM946 846q115 -143 115 -350q0 -221 -131 -371t-346 -150q-213 0 -344 149.5t-131 371t131 370t344 148.5q186 0 315 -119 q80 78 84 158l-20 -2q-31 0 -51.5 21.5t-20.5 53.5q0 31 21.5 53.5t54.5 22.5q39 0 65.5 -30.5t26.5 -86.5q0 -139 -113 -239zM584 72q168 0 265 123.5t97 300.5q0 174 -97 298t-265 124q-166 0 -263.5 -124t-97.5 -298t97.5 -299t263.5 -125z" glyph-name="uni1EDF" unicode="ở"/><glyph d="M651 1688q-49 0 -79.5 -49.5t-30.5 -149.5h-72q0 119 50 196.5t140 77.5q39 0 70 -20.5t45 -40t39 -57.5q20 -33 29.5 -46.5t30 -29t42.5 -15.5q49 0 79 49.5t30 147.5h74q0 -121 -49.5 -197.5t-139.5 -76.5q-41 0 -72.5 20.5t-45 38.5t-37.5 59q-52 93 -103 93z M1454 1360q0 -74 -37 -142.5t-92 -109.5q121 -184 121 -426q0 -305 -184.5 -506t-479.5 -201q-297 0 -480 201t-183 506t183 506t480 201q313 0 502 -228q90 78 94 166l-20 -2q-31 0 -51.5 21.5t-20.5 54.5q0 31 21.5 53.5t54.5 22.5q39 0 65.5 -31t26.5 -86zM782 82 q242 0 391.5 169t149.5 431q0 264 -148.5 432t-392.5 168q-246 0 -393 -168t-147 -432q0 -262 147 -431t393 -169z" glyph-name="uni1EE0" horiz-adv-x="1564" unicode="Ỡ"/><glyph d="M453 1346q-49 0 -80 -49.5t-31 -149.5h-72q0 119 50.5 196.5t140.5 77.5q39 0 69.5 -20.5t45 -40t38.5 -57.5q20 -33 29.5 -46.5t30 -29t43.5 -15.5q49 0 78.5 49.5t29.5 147.5h74q0 -121 -49 -197.5t-139 -76.5q-41 0 -73 20.5t-45 38.5t-38 59q-51 93 -102 93zM946 846 q115 -143 115 -350q0 -221 -131 -371t-346 -150q-213 0 -344 149.5t-131 371t131 370t344 148.5q186 0 315 -119q80 78 84 158l-20 -2q-31 0 -51.5 21.5t-20.5 53.5q0 31 21.5 53.5t54.5 22.5q39 0 65.5 -30.5t26.5 -86.5q0 -139 -113 -239zM584 72q168 0 265 123.5 t97 300.5q0 174 -97 298t-265 124q-166 0 -263.5 -124t-97.5 -298t97.5 -299t263.5 -125z" glyph-name="uni1EE1" unicode="ỡ"/><glyph d="M1454 1360q0 -74 -37 -142.5t-92 -109.5q121 -184 121 -426q0 -305 -184.5 -506t-479.5 -201q-297 0 -480 201t-183 506t183 506t480 201q313 0 502 -228q90 78 94 166l-20 -2q-31 0 -51.5 21.5t-20.5 54.5q0 31 21.5 53.5t54.5 22.5q39 0 65.5 -31t26.5 -86zM782 82 q242 0 391.5 169t149.5 431q0 264 -148.5 432t-392.5 168q-246 0 -393 -168t-147 -432q0 -262 147 -431t393 -169zM782 -203q31 0 53.5 -22.5t22.5 -55t-22.5 -55t-53.5 -22.5q-33 0 -55 22.5t-22 55t22 55t55 22.5z" glyph-name="uni1EE2" horiz-adv-x="1564" unicode="Ợ"/><glyph d="M946 846q115 -143 115 -350q0 -221 -131 -371t-346 -150q-213 0 -344 149.5t-131 371t131 370t344 148.5q186 0 315 -119q80 78 84 158l-20 -2q-31 0 -51.5 21.5t-20.5 53.5q0 31 21.5 53.5t54.5 22.5q39 0 65.5 -30.5t26.5 -86.5q0 -139 -113 -239zM584 72 q168 0 265 123.5t97 300.5q0 174 -97 298t-265 124q-166 0 -263.5 -124t-97.5 -298t97.5 -299t263.5 -125zM586 -203q31 0 53.5 -22.5t22.5 -55t-23 -55t-53 -22.5q-33 0 -55.5 22.5t-22.5 55t22.5 55t55.5 22.5z" glyph-name="uni1EE3" unicode="ợ"/><glyph d="M170 524v842h119v-840q0 -209 107.5 -326.5t305.5 -117.5q201 0 307.5 116.5t106.5 327.5v840h119v-842q0 -258 -136 -403.5t-397 -145.5q-258 0 -395 146.5t-137 402.5zM627 -280.5q0 32.5 22.5 55t55.5 22.5q31 0 53 -22.5t22 -55t-22.5 -55t-52.5 -22.5 q-33 0 -55.5 22.5t-22.5 55z" glyph-name="uni1EE4" horiz-adv-x="1404" unicode="Ụ"/><glyph d="M834 0v145q-68 -74 -162 -122t-195 -48q-156 0 -233.5 77t-77.5 241v696h106v-672q0 -137 61.5 -191t178.5 -54q92 0 181 47t141 117v753h106v-989h-106zM475 -280.5q0 32.5 22.5 55t55.5 22.5q31 0 53.5 -22.5t22.5 -55t-22.5 -55t-53.5 -22.5q-33 0 -55.5 22.5 t-22.5 55z" glyph-name="uni1EE5" horiz-adv-x="1105" unicode="ụ"/><glyph d="M508 1667q18 61 65.5 101t118.5 40q78 0 129 -45t51 -135q0 -70 -53 -145h-88q66 68 66 145q0 53 -28 82t-77 29q-84 0 -114 -94zM170 524v842h119v-840q0 -209 107.5 -326.5t305.5 -117.5q201 0 307.5 116.5t106.5 327.5v840h119v-842q0 -258 -136 -403.5t-397 -145.5 q-258 0 -395 146.5t-137 402.5z" glyph-name="uni1EE6" horiz-adv-x="1404" unicode="Ủ"/><glyph d="M356 1325q18 61 65.5 101t119.5 40q78 0 129 -45t51 -135q0 -70 -53 -145h-88q66 68 65 145q0 53 -27.5 82t-76.5 29q-84 0 -115 -94zM834 0v145q-68 -74 -162 -122t-195 -48q-156 0 -233.5 77t-77.5 241v696h106v-672q0 -137 61.5 -191t178.5 -54q92 0 181 47t141 117 v753h106v-989h-106z" glyph-name="uni1EE7" horiz-adv-x="1105" unicode="ủ"/><glyph d="M1098 1776l-353 -295h-90l316 295h127zM1477 1493q0 -100 -67 -186t-175 -127v-656q0 -258 -136 -403.5t-397 -145.5q-258 0 -395 146.5t-137 402.5v842h119v-840q0 -209 107.5 -326.5t305.5 -117.5q201 0 307.5 116.5t106.5 327.5v840h119v-117q70 31 117 91.5t49 121.5 q0 -4 -19 -4q-33 0 -53 22.5t-20 55.5q0 31 21.5 53.5t53.5 22.5q39 0 66 -32t27 -87z" glyph-name="uni1EE8" horiz-adv-x="1404" unicode="Ứ"/><glyph d="M946 1434l-352 -295h-90l315 295h127zM1141 1092q0 -92 -54.5 -171t-146.5 -126v-795h-106v145q-68 -74 -162 -122t-195 -48q-156 0 -233.5 77t-77.5 241v696h106v-672q0 -137 61.5 -191t178.5 -54q92 0 181 47t141 117v753h106v-121q121 80 125 191q-12 -2 -18 -2 q-33 0 -53.5 21.5t-20.5 54.5q0 31 22.5 53t55.5 22q39 0 64.5 -30.5t25.5 -85.5z" glyph-name="uni1EE9" horiz-adv-x="1105" unicode="ứ"/><glyph d="M748 1481h-91l-352 295h127zM1477 1493q0 -100 -67 -186t-175 -127v-656q0 -258 -136 -403.5t-397 -145.5q-258 0 -395 146.5t-137 402.5v842h119v-840q0 -209 107.5 -326.5t305.5 -117.5q201 0 307.5 116.5t106.5 327.5v840h119v-117q70 31 117 91.5t49 121.5 q0 -4 -19 -4q-33 0 -53 22.5t-20 55.5q0 31 21.5 53.5t53.5 22.5q39 0 66 -32t27 -87z" glyph-name="uni1EEA" horiz-adv-x="1404" unicode="Ừ"/><glyph d="M598 1139h-90l-352 295h127zM1141 1092q0 -92 -54.5 -171t-146.5 -126v-795h-106v145q-68 -74 -162 -122t-195 -48q-156 0 -233.5 77t-77.5 241v696h106v-672q0 -137 61.5 -191t178.5 -54q92 0 181 47t141 117v753h106v-121q121 80 125 191q-12 -2 -18 -2 q-33 0 -53.5 21.5t-20.5 54.5q0 31 22.5 53t55.5 22q39 0 64.5 -30.5t25.5 -85.5z" glyph-name="uni1EEB" horiz-adv-x="1105" unicode="ừ"/><glyph d="M692 1739q-84 0 -114 -94l-70 22q18 61 65.5 101t118.5 40q78 0 129 -45t51 -135q0 -70 -53 -145h-88q66 68 66 145q0 53 -28 82t-77 29zM1477 1493q0 -100 -67 -186t-175 -127v-656q0 -258 -136 -403.5t-397 -145.5q-258 0 -395 146.5t-137 402.5v842h119v-840 q0 -209 107.5 -326.5t305.5 -117.5q201 0 307.5 116.5t106.5 327.5v840h119v-117q70 31 117 91.5t49 121.5q0 -4 -19 -4q-33 0 -53 22.5t-20 55.5q0 31 21.5 53.5t53.5 22.5q39 0 66 -32t27 -87z" glyph-name="uni1EEC" horiz-adv-x="1404" unicode="Ử"/><glyph d="M541 1397q-84 0 -115 -94l-70 22q18 61 65.5 101t119.5 40q78 0 129 -45t51 -135q0 -70 -53 -145h-88q66 68 65 145q0 53 -27.5 82t-76.5 29zM1141 1092q0 -92 -54.5 -171t-146.5 -126v-795h-106v145q-68 -74 -162 -122t-195 -48q-156 0 -233.5 77t-77.5 241v696h106 v-672q0 -137 61.5 -191t178.5 -54q92 0 181 47t141 117v753h106v-121q121 80 125 191q-12 -2 -18 -2q-33 0 -53.5 21.5t-20.5 54.5q0 31 22.5 53t55.5 22q39 0 64.5 -30.5t25.5 -85.5z" glyph-name="uni1EED" horiz-adv-x="1105" unicode="ử"/><glyph d="M571 1688q-49 0 -79.5 -49.5t-30.5 -149.5h-72q0 119 50 196.5t141 77.5q39 0 69.5 -20.5t45 -40t38.5 -57.5q20 -33 29.5 -46.5t30 -29t43.5 -15.5q49 0 78.5 49.5t29.5 147.5h74q0 -121 -49 -197.5t-140 -76.5q-41 0 -72.5 20.5t-45 38.5t-37.5 59q-52 93 -103 93z M1477 1493q0 -100 -67 -186t-175 -127v-656q0 -258 -136 -403.5t-397 -145.5q-258 0 -395 146.5t-137 402.5v842h119v-840q0 -209 107.5 -326.5t305.5 -117.5q201 0 307.5 116.5t106.5 327.5v840h119v-117q70 31 117 91.5t49 121.5q0 -4 -19 -4q-33 0 -53 22.5t-20 55.5 q0 31 21.5 53.5t53.5 22.5q39 0 66 -32t27 -87z" glyph-name="uni1EEE" horiz-adv-x="1404" unicode="Ữ"/><glyph d="M422 1346q-49 0 -80 -49.5t-31 -149.5h-71q0 119 50 196.5t140 77.5q39 0 69.5 -20.5t45 -40t39.5 -57.5q20 -33 29.5 -46.5t30 -29t42.5 -15.5q49 0 79 49.5t30 147.5h73q0 -121 -49 -197.5t-139 -76.5q-41 0 -73 20.5t-45 38.5t-38 59q-51 93 -102 93zM1141 1092 q0 -92 -54.5 -171t-146.5 -126v-795h-106v145q-68 -74 -162 -122t-195 -48q-156 0 -233.5 77t-77.5 241v696h106v-672q0 -137 61.5 -191t178.5 -54q92 0 181 47t141 117v753h106v-121q121 80 125 191q-12 -2 -18 -2q-33 0 -53.5 21.5t-20.5 54.5q0 31 22.5 53t55.5 22 q39 0 64.5 -30.5t25.5 -85.5z" glyph-name="uni1EEF" horiz-adv-x="1105" unicode="ữ"/><glyph d="M1477 1493q0 -100 -67 -186t-175 -127v-656q0 -258 -136 -403.5t-397 -145.5q-258 0 -395 146.5t-137 402.5v842h119v-840q0 -209 107.5 -326.5t305.5 -117.5q201 0 307.5 116.5t106.5 327.5v840h119v-117q70 31 117 91.5t49 121.5q0 -4 -19 -4q-33 0 -53 22.5t-20 55.5 q0 31 21.5 53.5t53.5 22.5q39 0 66 -32t27 -87zM705 -203q31 0 53 -22.5t22 -55t-22.5 -55t-52.5 -22.5q-33 0 -55.5 22.5t-22.5 55t22.5 55t55.5 22.5z" glyph-name="uni1EF0" horiz-adv-x="1404" unicode="Ự"/><glyph d="M1141 1092q0 -92 -54.5 -171t-146.5 -126v-795h-106v145q-68 -74 -162 -122t-195 -48q-156 0 -233.5 77t-77.5 241v696h106v-672q0 -137 61.5 -191t178.5 -54q92 0 181 47t141 117v753h106v-121q121 80 125 191q-12 -2 -18 -2q-33 0 -53.5 21.5t-20.5 54.5q0 31 22.5 53 t55.5 22q39 0 64.5 -30.5t25.5 -85.5zM553 -203q31 0 53.5 -22.5t22.5 -55t-22.5 -55t-53.5 -22.5q-33 0 -55.5 22.5t-22.5 55t22.5 55t55.5 22.5z" glyph-name="uni1EF1" horiz-adv-x="1105" unicode="ự"/><glyph d="M588 1481l-352 295h126l316 -295h-90zM573 0v584l-542 782h141l461 -672l461 672h141l-543 -782v-584h-119z" glyph-name="Ygrave" horiz-adv-x="1265" unicode="Ỳ"/><glyph d="M539 1139h-90l-353 295h127zM850 989h121l-512 -1206q-78 -184 -254 -184q-57 0 -105 14l19 98q37 -16 86 -16q100 0 149 121l78 176l-418 997h119l361 -864z" glyph-name="ygrave" horiz-adv-x="985" unicode="ỳ"/><glyph d="M573 0v584l-542 782h141l461 -672l461 672h141l-543 -782v-584h-119zM557 -280.5q0 32.5 22.5 55t55.5 22.5q31 0 53.5 -22.5t22.5 -55t-22.5 -55t-53.5 -22.5q-33 0 -55.5 22.5t-22.5 55z" glyph-name="uni1EF4" horiz-adv-x="1265" unicode="Ỵ"/><glyph d="M971 989l-512 -1206q-78 -184 -254 -184q-57 0 -105 14l19 98q37 -16 86 -16q100 0 149 121l78 176l-418 997h119l361 -864l356 864h121zM494 -432q31 0 53 -22.5t22 -55.5t-22.5 -55.5t-52.5 -22.5q-33 0 -55.5 22.5t-22.5 55.5t22.5 55.5t55.5 22.5z" glyph-name="uni1EF5" horiz-adv-x="985" unicode="ỵ"/><glyph d="M438 1667q18 61 65.5 101t119.5 40q78 0 129 -45t51 -135q0 -70 -53 -145h-88q66 68 65 145q0 53 -27.5 82t-76.5 29q-84 0 -115 -94zM573 0v584l-542 782h141l461 -672l461 672h141l-543 -782v-584h-119z" glyph-name="uni1EF6" horiz-adv-x="1265" unicode="Ỷ"/><glyph d="M481 1397q-84 0 -114 -94l-70 22q18 61 65.5 101t118.5 40q78 0 129.5 -45t51.5 -135q0 -70 -54 -145h-88q66 68 66 145q0 53 -28 82t-77 29zM850 989h121l-512 -1206q-78 -184 -254 -184q-57 0 -105 14l19 98q37 -16 86 -16q100 0 149 121l78 176l-418 997h119l361 -864 z" glyph-name="uni1EF7" horiz-adv-x="985" unicode="ỷ"/><glyph d="M604 1595q-51 92 -102 93q-49 0 -80 -49.5t-31 -149.5h-72q0 119 50.5 196.5t140.5 77.5q39 0 69.5 -20.5t45 -40t39.5 -57.5q20 -33 29 -46.5t29.5 -29t43.5 -15.5q49 0 78.5 49.5t29.5 147.5h74q0 -121 -49 -197.5t-139 -76.5q-41 0 -73 20.5t-45 38.5t-38 59zM573 0 v584l-542 782h141l461 -672l461 672h141l-543 -782v-584h-119z" glyph-name="uni1EF8" horiz-adv-x="1265" unicode="Ỹ"/><glyph d="M362 1346q-49 0 -79.5 -49.5t-30.5 -149.5h-72q0 119 50.5 196.5t140.5 77.5q39 0 69.5 -20.5t45 -40t38.5 -57.5q20 -33 29.5 -46.5t30 -29t43.5 -15.5q49 0 78.5 49.5t29.5 147.5h74q0 -121 -49 -197.5t-139 -76.5q-41 0 -73 20.5t-45.5 38.5t-37.5 59q-52 93 -103 93z M850 989h121l-512 -1206q-78 -184 -254 -184q-57 0 -105 14l19 98q37 -16 86 -16q100 0 149 121l78 176l-418 997h119l361 -864z" glyph-name="uni1EF9" horiz-adv-x="985" unicode="ỹ"/><glyph glyph-name="uni2000" horiz-adv-x="1024" unicode=" "/><glyph glyph-name="uni2001" horiz-adv-x="2048" unicode=" "/><glyph glyph-name="uni2002" horiz-adv-x="1024" unicode=" "/><glyph glyph-name="uni2003" horiz-adv-x="2048" unicode=" "/><glyph glyph-name="uni2004" horiz-adv-x="681" unicode=" "/><glyph glyph-name="uni2005" horiz-adv-x="512" unicode=" "/><glyph glyph-name="uni2006" horiz-adv-x="342" unicode=" "/><glyph glyph-name="uni2007" horiz-adv-x="1204" unicode=" "/><glyph glyph-name="uni2008" horiz-adv-x="448" unicode=" "/><glyph glyph-name="uni2009" horiz-adv-x="256" unicode=" "/><glyph glyph-name="uni200A" horiz-adv-x="114" unicode=" "/><glyph d="M61 446v99h1092v-99h-1092z" glyph-name="endash" horiz-adv-x="1214" unicode="–"/><glyph d="M61 446v99h1584v-99h-1584z" glyph-name="emdash" horiz-adv-x="1705" unicode="—"/><glyph d="M61 446v99h1092v-99h-1092z" glyph-name="afii00208" horiz-adv-x="1214" unicode="―"/><glyph d="M252 1386l59 -49q-49 -33 -81.5 -87t-36.5 -103q0 4 20 4q37 0 60.5 -24.5t23.5 -61.5q0 -35 -25.5 -61.5t-62.5 -26.5q-43 0 -74 35t-31 96q0 82 42.5 157.5t105.5 120.5z" glyph-name="quoteleft" horiz-adv-x="448" unicode="‘"/><glyph d="M178 977l-59 49q49 33 81.5 87t37.5 104q0 -4 -21 -5q-37 0 -60.5 25t-23.5 61q0 35 25.5 61.5t62.5 26.5q43 0 74 -34.5t31 -96.5q0 -82 -42.5 -158.5t-105.5 -119.5z" glyph-name="quoteright" horiz-adv-x="448" unicode="’"/><glyph d="M178 -252l-59 51q49 33 81.5 87.5t37.5 101.5l-21 -2q-37 0 -60.5 24.5t-23.5 61.5q0 35 25.5 61.5t62.5 26.5q43 0 74 -35t31 -96q0 -82 -42.5 -159t-105.5 -122z" glyph-name="quotesinglbase" horiz-adv-x="448" unicode="‚"/><glyph d="M227 1386q37 0 62.5 -26.5t25.5 -61.5q0 -37 -23.5 -61.5t-60.5 -24.5q-18 0 -22 5q4 -49 38 -103.5t83 -87.5l-60 -49q-63 43 -105 120t-42 158q0 61 30.5 96t73.5 35z" glyph-name="quotereversed" horiz-adv-x="448" unicode="‛"/><glyph d="M268 1386l62 -49q-49 -35 -84 -88t-37 -102q4 4 22 4q35 0 58.5 -25.5t23.5 -60.5q0 -37 -25.5 -62.5t-62.5 -25.5q-43 0 -72.5 35t-29.5 96q0 82 41 157.5t104 120.5zM559 1386l62 -49q-49 -35 -84 -88t-37 -102q4 4 22 4q35 0 58.5 -25.5t23.5 -60.5q0 -37 -25.5 -62.5 t-62.5 -25.5q-43 0 -72.5 35t-29.5 96q0 82 41 157.5t104 120.5z" glyph-name="quotedblleft" horiz-adv-x="737" unicode="“"/><glyph d="M178 977l-59 49q49 33 81.5 87t37.5 104q0 -4 -21 -5q-37 0 -60.5 25t-23.5 61q0 35 25.5 61.5t62.5 26.5q43 0 74 -34.5t31 -96.5q0 -82 -42.5 -158.5t-105.5 -119.5zM469 977l-61 49q49 35 83.5 88t36.5 103q-4 -4 -22 -5q-35 0 -58.5 25t-23.5 61.5t25.5 62t62.5 25.5 q43 0 72.5 -34.5t29.5 -96.5q0 -84 -41 -159.5t-104 -118.5z" glyph-name="quotedblright" horiz-adv-x="737" unicode="”"/><glyph d="M178 -252l-59 51q49 33 81.5 87.5t37.5 101.5l-21 -2q-37 0 -60.5 24.5t-23.5 61.5q0 35 25.5 61.5t62.5 26.5q43 0 74 -35t31 -96q0 -82 -42.5 -159t-105.5 -122zM469 -252l-61 51q49 33 82.5 87.5t37.5 101.5h-8q-10 -2 -14 -2q-35 0 -58.5 24.5t-23.5 61.5t25.5 62.5 t62.5 25.5q43 0 72.5 -35t29.5 -96q0 -82 -41 -159t-104 -122z" glyph-name="quotedblbase" horiz-adv-x="739" unicode="„"/><glyph d="M295 1104l8 -434h-80l8 434l-182 -8v71l182 -6l-8 225h80l-8 -225l182 6v-71z" glyph-name="dagger" horiz-adv-x="526" unicode="†"/><glyph d="M477 1096l-182 8v-453l182 8v-71l-182 6l8 -225h-80l8 225l-182 -6v71l182 -8v453l-182 -8v71l182 -6l-8 225h80l-8 -225l182 6v-71z" glyph-name="daggerdbl" horiz-adv-x="526" unicode="‡"/><glyph d="M369 287q-88 0 -149.5 61.5t-61.5 147.5q0 88 61.5 149.5t149.5 61.5t149.5 -61.5t61.5 -149.5q0 -86 -61.5 -147.5t-149.5 -61.5z" glyph-name="bullet" horiz-adv-x="733" unicode="•"/><glyph d="M223 -18q-37 0 -63.5 26.5t-26.5 63.5q0 35 26.5 61.5t63.5 26.5t63.5 -27t26.5 -61q0 -37 -26.5 -63.5t-63.5 -26.5zM672 -18q-37 0 -63.5 26.5t-26.5 63.5q0 35 26.5 61.5t63.5 26.5t63.5 -27t26.5 -61q0 -37 -26.5 -63.5t-63.5 -26.5zM1120 -18q-37 0 -62.5 26.5 t-25.5 63.5q0 35 25.5 61.5t62.5 26.5t63.5 -27t26.5 -61q0 -37 -26.5 -63.5t-63.5 -26.5z" glyph-name="ellipsis" horiz-adv-x="1345" unicode="…"/><glyph d="M389 717q-141 0 -230 94t-89 238q0 145 90 241t229 96q141 0 231.5 -96t90.5 -241q0 -143 -90.5 -237.5t-231.5 -94.5zM354 0h-92l873 1366h94zM389 1311q-98 0 -161.5 -76t-63.5 -186q0 -109 63.5 -183.5t161.5 -74.5q100 0 163.5 74.5t63.5 183.5q0 111 -63.5 186.5 t-163.5 75.5zM1085.5 -25q-141.5 0 -231.5 95.5t-90 238.5q0 145 90 241.5t231.5 96.5t231.5 -96t90 -242q0 -143 -90 -238.5t-231.5 -95.5zM1796 -25q-141 0 -231 95.5t-90 238.5q0 145 90 241.5t231 96.5t231.5 -96t90.5 -242q0 -143 -90.5 -238.5t-231.5 -95.5z M1085.5 569q-100.5 0 -164 -74.5t-63.5 -185.5q0 -109 63.5 -183.5t164 -74.5t163 75t62.5 183q0 111 -62.5 185.5t-163 74.5zM1796 569q-100 0 -163.5 -74.5t-63.5 -185.5q0 -109 63.5 -183.5t163.5 -74.5t162.5 75t62.5 183q0 111 -62.5 185.5t-162.5 74.5z" glyph-name="perthousand" horiz-adv-x="2185" unicode="‰"/><glyph d="M66 887q127 428 137 454q16 45 67 45q33 0 53.5 -21.5t20.5 -51.5q0 -14 -6 -27l-217 -422z" glyph-name="minute" horiz-adv-x="376" unicode="′"/><glyph d="M66 887q127 428 137 454q16 45 67 45q33 0 53.5 -21.5t20.5 -51.5q0 -14 -6 -27l-217 -422zM352 887q127 428 137 454q18 45 68 45q33 0 53.5 -21.5t20.5 -51.5q0 -10 -4 -27l-217 -422z" glyph-name="second" horiz-adv-x="663" unicode="″"/><glyph d="M389 129l-328 369l328 362h117l-328 -362l328 -369h-117z" glyph-name="guilsinglleft" horiz-adv-x="567" unicode="‹"/></font>
</defs>
</svg>
