<?xml version="1.0" standalone="no"?>
<!DOCTYPE svg PUBLIC "-//W3C//DTD SVG 1.1//EN" "http://www.w3.org/Graphics/SVG/1.1/DTD/svg11.dtd">
<svg xmlns="http://www.w3.org/2000/svg"><metadata>This SVG WebFont was generated by YouWorkForThem.
Copyright (c) Mark Simonson, 2005. All rights reserved.</metadata><defs><font horiz-adv-x="1185" id="ywftsvg"><font-face ascent="1618" bbox="-788 -754 2449 2210" cap-height="1366" descent="-430" font-family="" font-stretch="normal" font-weight="700" panose-1="2 0 5 6 3 0 0 2 0 4" underline-position="0" underline-thickness="0" unicode-range="U+000D-FB04" units-per-em="2048" x-height="989"/><missing-glyph d="M135 -184v1724h719v-1724h-719zM788 1479h-589v-1602h589v1602z" horiz-adv-x="989"/><glyph d="M1597 1116q-63 0 -109 46t-46 109.5t46 109.5t109 46q66 0 111 -46t45 -109.5t-45 -109.5t-111 -46zM186 0v762h-163v227h163v53q0 158 93.5 251t240.5 93q111 0 189 -40l-54 -185q-33 20 -84 21q-57 0 -89.5 -37t-32.5 -107v-49h200v-227h-200v-762h-263zM856 0v762 h-164v227h164v53q0 158 92 251t242 93q111 0 188 -40l-53 -189q-35 25 -84 25q-57 0 -90 -37t-33 -103v-53h201v-227h-201v-762h-262zM1729 989v-1016q0 -174 -89.5 -274t-263.5 -100q-61 0 -112 10l16 213q27 -6 57 -6q59 0 95 39t36 118v1016h261z" glyph-name="uniE004" horiz-adv-x="1857" unicode="ffj"/><glyph d="M927.5 1116q-63.5 0 -109.5 46t-46 109.5t46 109.5t109.5 46t109.5 -46t46 -109.5t-46 -109.5t-109.5 -46zM186 0v762h-163v227h163v53q0 158 93.5 251t240.5 93q111 0 189 -40l-54 -189q-35 25 -84 25q-57 0 -89.5 -37t-32.5 -103v-53h200v-227h-200v-762h-263z M1059 989v-1016q0 -174 -89 -274t-263 -100q-61 0 -113 10l16 213q29 -6 58 -6q59 0 95 39t36 118v1016h260z" glyph-name="uniE005" horiz-adv-x="1187" unicode="fj"/><glyph d="M186 0v762h-163v227h163v53q0 158 93.5 251t240.5 93q111 0 189 -40l-54 -185q-33 20 -84 21q-57 0 -89.5 -37t-32.5 -107v-49h200v-227h-200v-762h-263zM856 0v762h-164v227h164v53q0 158 92 251t242 93q111 0 188 -40l-53 -185q-33 20 -84 21q-57 0 -90 -37t-33 -107 v-49h201v-227h-201v-762h-262z" glyph-name="uniFB00" horiz-adv-x="1339" unicode="ff"/><glyph d="M927.5 1116q-63.5 0 -109.5 46t-46 109.5t46 109.5t109.5 46t109.5 -46t46 -109.5t-46 -109.5t-109.5 -46zM186 0v762h-163v227h163v53q0 158 93.5 251t240.5 93q111 0 189 -40l-54 -189q-35 25 -84 25q-57 0 -89.5 -37t-32.5 -103v-53h200v-227h-200v-762h-263zM799 0 v989h260v-989h-260z" glyph-name="uniFB01" horiz-adv-x="1187" unicode="fi"/><glyph d="M186 0v762h-163v227h163v53q0 158 93.5 251t240.5 93q111 0 189 -40l-54 -189q-35 25 -84 25q-57 0 -89.5 -37t-32.5 -103v-53h200v-227h-200v-762h-263zM799 0v1366h260v-1366h-260z" glyph-name="uniFB02" horiz-adv-x="1187" unicode="fl"/><glyph d="M1597 1116q-63 0 -109 46t-46 109.5t46 109.5t109 46q66 0 111 -46t45 -109.5t-45 -109.5t-111 -46zM186 0v762h-163v227h163v53q0 158 93.5 251t240.5 93q111 0 189 -40l-54 -185q-33 20 -84 21q-57 0 -89.5 -37t-32.5 -107v-49h200v-227h-200v-762h-263zM856 0v762 h-164v227h164v53q0 158 92 251t242 93q111 0 188 -40l-53 -189q-35 25 -84 25q-57 0 -90 -37t-33 -103v-53h201v-227h-201v-762h-262zM1468 0v989h261v-989h-261z" glyph-name="uniFB03" horiz-adv-x="1857" unicode="ffi"/><glyph d="M186 0v762h-163v227h163v53q0 158 93.5 251t240.5 93q111 0 189 -40l-54 -185q-33 20 -84 21q-57 0 -89.5 -37t-32.5 -107v-49h200v-227h-200v-762h-263zM856 0v762h-164v227h164v53q0 158 92 251t242 93q111 0 188 -40l-53 -189q-35 25 -84 25q-57 0 -90 -37t-33 -103 v-53h201v-227h-201v-762h-262zM1468 0v1366h261v-1366h-261z" glyph-name="uniFB04" horiz-adv-x="1857" unicode="ffl"/><glyph d="M186 0v762h-163v227h163v53q0 158 93.5 251t240.5 93q111 0 189 -40l-54 -189q-35 25 -84 25q-57 0 -89.5 -37t-32.5 -103v-53h200v-227h-200v-762h-263zM799 0v1366h260v-504q117 152 305 152q193 0 315.5 -141.5t122.5 -378.5q0 -242 -123 -380.5t-315 -138.5 q-184 0 -305 150v-125h-260zM1059 317q33 -47 96.5 -78.5t126.5 -31.5q113 0 182.5 79t69.5 208t-69.5 208.5t-182.5 79.5q-63 0 -126.5 -32.5t-96.5 -81.5v-351z" glyph-name="f_b.liga" horiz-adv-x="1867" unicode="fb"/><glyph d="M186 0v762h-163v227h163v53q0 158 93.5 251t240.5 93q111 0 189 -40l-54 -189q-35 25 -84 25q-57 0 -89.5 -37t-32.5 -103v-53h200v-227h-200v-762h-263zM1468 0v602q0 98 -47 139t-137 41q-137 0 -225 -116v-666h-260v1366h260v-506q53 63 144 108.5t204 45.5 q160 0 241 -82t81 -230v-702h-261z" glyph-name="f_h.liga" horiz-adv-x="1857" unicode="fh"/><glyph d="M186 0v762h-163v227h163v53q0 158 93.5 251t240.5 93q111 0 189 -40l-54 -189q-35 25 -84 25q-57 0 -89.5 -37t-32.5 -103v-53h200v-227h-200v-762h-263zM1440 0l-262 381l-119 -127v-254h-260v1366h260v-817l375 440h319l-391 -448l403 -541h-325z" glyph-name="f_k.liga" horiz-adv-x="1765" unicode="fk"/><glyph d="M135 -184v1724h719v-1724h-719zM788 1479h-589v-1602h589v1602z" glyph-name=".notdef" horiz-adv-x="989"/><glyph glyph-name="glyph1" horiz-adv-x="0"/><glyph glyph-name="glyph2" horiz-adv-x="681"/><glyph glyph-name="glyph3" horiz-adv-x="0"/><glyph glyph-name="glyph3" horiz-adv-x="0"/><glyph glyph-name="space" horiz-adv-x="524" unicode=" "/><glyph d="M147 444l-43 922h314l-41 -922h-230zM98 143q0 68 48.5 117t116 49t116.5 -49t49 -117q0 -66 -49 -114.5t-116.5 -48.5t-116 48.5t-48.5 114.5z" glyph-name="exclam" horiz-adv-x="524" unicode="!"/><glyph d="M174 768q-84 438 -84 477q0 57 41 99t100 42q57 0 99.5 -41.5t42.5 -99.5l-84 -477h-115zM545 768q-84 438 -84 477q0 57 42 99t99 42t98 -40.5t41 -100.5l-84 -477h-112z" glyph-name="quotedbl" horiz-adv-x="831" unicode="&quot;"/><glyph d="M500 0l118 346h-194l-117 -346h-192l116 346h-196l53 166h201l110 340h-200l51 164h207l114 350h193l-115 -350h193l114 350h195l-119 -350h199l-49 -164h-205l-113 -340h207l-51 -166h-211l-115 -346h-194zM784 852h-192l-111 -340h191z" glyph-name="numbersign" horiz-adv-x="1265" unicode="#"/><glyph d="M1188 414q0 -176 -115 -293t-334 -139v-187h-194v185q-293 23 -484 213l158 221q137 -139 326 -174v321q-94 23 -161 48.5t-136.5 70.5t-106.5 118.5t-37 172.5q0 160 120 275.5t321 135.5v191h194v-195q242 -25 416 -182l-162 -213q-102 96 -254 133v-287 q76 -20 130.5 -37.5t119 -52t104.5 -75.5t67.5 -105.5t27.5 -144.5zM403 995q0 -82 160 -123v261q-78 -8 -119 -44.5t-41 -93.5zM721 233q84 12 127 53.5t43 94.5t-43 84t-127 55v-287z" glyph-name="dollar" horiz-adv-x="1257" unicode="$"/><glyph d="M53 1042q0 147 96.5 245.5t249.5 98.5q156 0 252.5 -98t96.5 -246q0 -145 -96.5 -240t-252.5 -95q-154 0 -250 95t-96 240zM266 0l873 1366h155l-874 -1366h-154zM561 1042q0 84 -45 133.5t-116.5 49.5t-116.5 -49.5t-45 -133.5q0 -78 46 -127t115 -49q72 0 117 48 t45 128zM805 313q0 147 96 245.5t250 98.5t251 -98t97 -246q0 -145 -97 -241.5t-251 -96.5t-250 96.5t-96 241.5zM1315 313q0 84 -46 133.5t-118 49.5t-117 -49.5t-45 -133.5q0 -82 45 -130t117 -48t118 48t46 130z" glyph-name="percent" horiz-adv-x="1550" unicode="%"/><glyph d="M1042 276q123 -135 265 -276h-332l-103 102q-168 -127 -372 -127q-197 0 -324 102.5t-127 293.5q0 143 78 234t217 161q-92 168 -92 293q0 139 110.5 233t280.5 94q152 0 255 -78.5t103 -209.5q0 -74 -26.5 -133.5t-79.5 -104.5t-101.5 -72.5t-125.5 -64.5 q41 -59 116 -148q61 -78 115 -139q86 129 125 264l209 -96q-91 -199 -191 -328zM512 1053q0 -74 59 -183q100 45 152.5 94.5t52.5 118.5q0 53 -34.5 84t-86.5 31q-61 0 -102 -42t-41 -103zM537 180q98 0 196 72q-117 127 -151 172q-72 88 -138 180q-119 -84 -118 -209 q0 -96 61.5 -155.5t149.5 -59.5z" glyph-name="ampersand" horiz-adv-x="1323" unicode="&amp;"/><glyph d="M174 768q-84 438 -84 477q0 57 41 99t100 42q57 0 99.5 -41.5t42.5 -99.5l-84 -477h-115z" glyph-name="quotesingle" horiz-adv-x="460" unicode="'"/><glyph d="M408 -408q-150 168 -237 413t-87 492.5t87 492.5t237 413l163 -123q-106 -195 -156 -377t-50 -405.5t50 -405.5t156 -373z" glyph-name="parenleft" horiz-adv-x="608" unicode="("/><glyph d="M244 497.5q0 225.5 -50.5 407.5t-158.5 375l164 123q152 -170 239.5 -414t87.5 -491.5t-89 -492.5t-238 -413l-164 127q109 188 159 370.5t50 408z" glyph-name="parenright" horiz-adv-x="608" unicode=")"/><glyph d="M295 750l10 225l-190 -121l-64 111l199 102l-199 102l64 113l190 -121l-10 225h129l-10 -225l188 121l66 -113l-199 -102l199 -102l-66 -111l-188 121l10 -225h-129z" glyph-name="asterisk" horiz-adv-x="718" unicode="*"/><glyph d="M606 610v-415h-178v415h-369v162h369v399h178v-399h367v-162h-367z" glyph-name="plus" horiz-adv-x="1032" unicode="+"/><glyph d="M229 -281l-112 93q51 27 98 83t59 107q-18 -6 -38 -6q-59 0 -99.5 42t-40.5 107q0 68 47 116t113 48q76 0 130 -56t54 -153q0 -113 -57.5 -212t-153.5 -169z" glyph-name="comma" horiz-adv-x="524" unicode=","/><glyph d="M61 385v221h492v-221h-492z" glyph-name="hyphen" horiz-adv-x="614" unicode="-"/><glyph d="M96 143.5q0 67.5 49.5 116.5t117 49t116.5 -49t49 -116.5t-49 -117t-116.5 -49.5t-117 49.5t-49.5 117z" glyph-name="period" horiz-adv-x="524" unicode="."/><glyph d="M0 -41l485 1448h189l-486 -1448h-188z" glyph-name="slash" horiz-adv-x="673" unicode="/"/><glyph d="M70 682q0 184 57 340t189.5 260t318.5 104t317 -104t189.5 -260t58.5 -340t-58.5 -340t-189.5 -261.5t-317 -105.5t-318.5 105.5t-189.5 261.5t-57 340zM903 682q0 203 -64.5 324.5t-203.5 121.5t-204.5 -121.5t-65.5 -324.5t65.5 -326t204.5 -123t203.5 123t64.5 326z " glyph-name="zero" horiz-adv-x="1269" unicode="0"/><glyph d="M416 0v991l-228 -231l-165 174l430 432h254v-1366h-291z" glyph-name="one" horiz-adv-x="841" unicode="1"/><glyph d="M96 0v229q438 324 580.5 462t142.5 259q0 84 -65.5 131t-157.5 47q-213 0 -365 -157l-165 192q96 111 236 167t290 56q225 0 373.5 -118.5t148.5 -317.5q0 -168 -135 -329.5t-424 -364.5h569v-256h-1028z" glyph-name="two" horiz-adv-x="1228" unicode="2"/><glyph d="M41 195l152 190q70 -72 172 -114t204 -42q123 0 190.5 48.5t67.5 128.5q0 84 -66.5 122.5t-207.5 38.5q-150 0 -170 -2v254q25 -2 170 -2q117 0 184.5 38t67.5 114q0 78 -70.5 121t-183.5 43q-199 0 -348 -144l-144 180q193 217 523 217q240 0 378 -100t138 -270 q0 -123 -88 -206t-211 -105q121 -12 220 -99.5t99 -228.5q0 -178 -147.5 -290t-390.5 -112q-180 0 -319.5 61t-219.5 159z" glyph-name="three" horiz-adv-x="1202" unicode="3"/><glyph d="M705 0v283h-654v229l543 854h401v-827h176v-256h-176v-283h-290zM705 1108l-369 -569h369v569z" glyph-name="four" horiz-adv-x="1222" unicode="4"/><glyph d="M100 180l160 197q143 -147 365 -148q117 0 185.5 58.5t68.5 146.5q0 94 -65.5 151.5t-180.5 57.5q-168 0 -287 -113l-203 56v780h938v-250h-653v-342q129 115 307 115q182 0 310.5 -121t128.5 -322q0 -215 -150 -343t-397 -128q-339 0 -527 205z" glyph-name="five" horiz-adv-x="1245" unicode="5"/><glyph d="M70 680q0 317 170 511.5t467 194.5q238 0 403 -141l-131 -219q-115 109 -272 109q-152 0 -247 -115t-95 -281q0 -20 2 -28q51 74 147 124t203 50q197 0 331 -116t134 -325q0 -203 -145.5 -336t-377.5 -133q-295 0 -442 197t-147 508zM887 432q0 104 -73 157.5t-181 53.5 q-158 0 -266 -131q10 -115 78.5 -199t199.5 -84q111 0 176.5 61.5t65.5 141.5z" glyph-name="six" horiz-adv-x="1245" unicode="6"/><glyph d="M248 0l489 1110h-688v256h1026v-203l-508 -1163h-319z" glyph-name="seven" horiz-adv-x="1116" unicode="7"/><glyph d="M72 354q0 119 82 212t211 139q-270 94 -271 321q0 178 157 269t370 91q135 0 249.5 -34.5t195.5 -119.5t81 -206q0 -225 -273 -321q129 -45 212 -138.5t83 -212.5q0 -180 -159.5 -279.5t-388.5 -99.5q-231 0 -390 98.5t-159 280.5zM850 981q0 72 -63.5 114t-166 42 t-167 -42t-64.5 -114t74 -113t158 -53q84 12 156.5 53t72.5 113zM874 389q0 55 -48 98t-102 62.5t-103 25.5q-86 -10 -170 -58t-84 -128q0 -74 71.5 -119t182.5 -45q106 0 179.5 45t73.5 119z" glyph-name="eight" horiz-adv-x="1241" unicode="8"/><glyph d="M137 119l129 217q115 -104 272.5 -104.5t250 114.5t92.5 279v28q-53 -74 -149.5 -125t-203.5 -51q-197 0 -332 117t-135 326q0 203 146.5 336t378.5 133q199 0 335 -98.5t194.5 -253t58.5 -355.5q0 -315 -169 -510t-466 -195q-244 1 -402 142zM879 850q-10 117 -79 202 t-202 85q-111 0 -175.5 -62.5t-64.5 -142.5q0 -102 73 -155.5t179 -53.5q165 0 269 127z" glyph-name="nine" horiz-adv-x="1245" unicode="9"/><glyph d="M96 837.5q0 67.5 49.5 117t117 49.5t116.5 -49.5t49 -117t-49 -116.5t-116.5 -49t-117 49t-49.5 116.5zM96 143.5q0 67.5 49.5 116.5t117 49t116.5 -49t49 -116.5t-49 -117t-116.5 -49.5t-117 49.5t-49.5 117z" glyph-name="colon" horiz-adv-x="514" unicode=":"/><glyph d="M262.5 672q-67.5 0 -117 50t-49.5 116q0 68 49.5 117t117 49t116.5 -49.5t49 -116.5q0 -66 -49 -116t-116.5 -50zM229 -281l-112 93q51 29 98 85t59 109q-12 -8 -38 -8q-59 0 -99.5 42t-40.5 105q0 68 47 116t113 48q76 0 130 -56t54 -153q0 -113 -57.5 -212t-153.5 -169 z" glyph-name="semicolon" horiz-adv-x="524" unicode=";"/><glyph d="M59 592v186l914 410v-193l-727 -311l727 -307v-193z" glyph-name="less" horiz-adv-x="1032" unicode="&lt;"/><glyph d="M59 795v163h914v-163h-914zM59 412v159h914v-159h-914z" glyph-name="equal" horiz-adv-x="1032" unicode="="/><glyph d="M59 184v193l727 307l-727 311v193l914 -410v-186z" glyph-name="greater" horiz-adv-x="1032" unicode=">"/><glyph d="M297 598q0 66 32.5 122t60.5 79.5t87 66.5q41 29 60.5 45.5t39 44t19.5 56.5q0 51 -40 83.5t-120 32.5q-145 0 -252 -127l-166 187q170 199 449 198q197 0 311.5 -89t114.5 -234q0 -80 -35 -145.5t-71.5 -98.5t-100.5 -76q-49 -37 -69.5 -54t-43 -51t-22.5 -69 q0 -53 37 -86l-223 -65q-68 74 -68 180zM297 143.5q0 67.5 49 116.5t116.5 49t117 -49t49.5 -116.5t-49.5 -117t-117 -49.5t-116.5 49.5t-49 117z" glyph-name="question" horiz-adv-x="933" unicode="?"/><glyph d="M72 500q0 213 113.5 400t302 297t397.5 110q287 0 466 -182.5t179 -444.5q0 -238 -127 -372t-279 -134q-86 0 -137 44t-61 108l-2 12q-53 -76 -133 -120t-162 -44q-145 0 -231.5 96.5t-86.5 247.5q0 203 141.5 352.5t321.5 149.5q88 0 154.5 -38t101.5 -99l23 108h231 l-104 -499q-6 -37 -6 -50q0 -92 75 -92q72 0 132.5 85t60.5 245q0 244 -154.5 395.5t-410.5 151.5q-291 0 -508 -218t-217 -505q0 -242 164.5 -406t412.5 -164q197 0 375 113l43 -61q-201 -129 -426 -129q-279 0 -464 185.5t-185 457.5zM946 492l51 239q-51 104 -166 105 q-119 0 -200.5 -90.5t-81.5 -206.5q0 -80 46 -130.5t124 -50.5q129 1 227 134z" glyph-name="at" horiz-adv-x="1603" unicode="@"/><glyph d="M1092 0l-86 236h-611l-86 -236h-319l528 1366h365l526 -1366h-317zM700 1114l-227 -627h453z" glyph-name="A" horiz-adv-x="1400" unicode="A"/><glyph d="M135 0v1366h719q186 0 289.5 -101.5t103.5 -246.5q0 -125 -67.5 -209t-167.5 -104q111 -16 186.5 -112.5t75.5 -223.5q0 -160 -104.5 -264.5t-292.5 -104.5h-742zM426 817h365q74 0 116.5 42t42.5 110q0 63 -44 106t-115 43h-365v-301zM426 248h375q82 0 129 44t47 118 q0 68 -47 113.5t-129 45.5h-375v-321z" glyph-name="B" horiz-adv-x="1357" unicode="B"/><glyph d="M786 -25q-305 0 -510.5 198t-205.5 509t205.5 509t510.5 198q393 0 582 -334l-250 -123q-45 86 -134 142t-198 56q-178 0 -297.5 -128t-119.5 -320.5t119.5 -320.5t297.5 -128q111 0 199 55.5t133 143.5l250 -121q-195 -336 -582 -336z" glyph-name="C" horiz-adv-x="1406" unicode="C"/><glyph d="M135 0v1366h539q322 0 523.5 -188.5t201.5 -495.5t-201 -494.5t-524 -187.5h-539zM426 256h248q197 0 312.5 123t115.5 303q0 188 -112.5 308t-315.5 120h-248v-854z" glyph-name="D" horiz-adv-x="1470" unicode="D"/><glyph d="M135 0v1366h967v-250h-676v-297h661v-250h-661v-317h676v-252h-967z" glyph-name="E" horiz-adv-x="1193" unicode="E"/><glyph d="M135 0v1366h967v-250h-676v-297h661v-250h-661v-569h-291z" glyph-name="F" horiz-adv-x="1169" unicode="F"/><glyph d="M70 682q0 317 209.5 512t517.5 195q373 0 565 -299l-242 -132q-51 76 -136 124t-187 48q-186 0 -307 -126.5t-121 -321.5t120.5 -322t307.5 -127q178 0 295 105v166h-365v250h651v-523q-231 -258 -581 -258q-307 0 -517 197t-210 512z" glyph-name="G" horiz-adv-x="1474" unicode="G"/><glyph d="M1071 0v573h-645v-573h-291v1366h291v-537h645v537h293v-1366h-293z" glyph-name="H" horiz-adv-x="1497" unicode="H"/><glyph d="M135 0v1366h291v-1366h-291z" glyph-name="I" horiz-adv-x="561" unicode="I"/><glyph d="M12 109l127 223q102 -98 217 -99q96 0 154.5 59.5t58.5 160.5v913h291v-917q0 -233 -131 -353.5t-350 -120.5q-232 1 -367 134z" glyph-name="J" horiz-adv-x="995" unicode="J"/><glyph d="M946 0l-414 547l-106 -127v-420h-291v1366h291v-610l483 610h359l-543 -641l580 -725h-359z" glyph-name="K" horiz-adv-x="1302" unicode="K"/><glyph d="M135 0v1366h291v-1110h578v-256h-869z" glyph-name="L" horiz-adv-x="1071" unicode="L"/><glyph d="M1323 0v983l-385 -983h-127l-385 983v-983h-291v1366h408l331 -852l332 852h410v-1366h-293z" glyph-name="M" horiz-adv-x="1751" unicode="M"/><glyph d="M1077 0l-651 918v-918h-291v1366h299l633 -885v885h291v-1366h-281z" glyph-name="N" horiz-adv-x="1492" unicode="N"/><glyph d="M70 682q0 307 201.5 507t510.5 200q311 0 513 -199t202 -508t-201.5 -508t-513.5 -199q-309 0 -510.5 200t-201.5 507zM1198 682q0 195 -114.5 321.5t-301 126.5t-300 -126.5t-113.5 -321.5t113.5 -322t300 -127t301 127t114.5 322z" glyph-name="O" horiz-adv-x="1566" unicode="O"/><glyph d="M135 0v1366h639q215 0 337 -126t122 -314q0 -186 -123 -311.5t-336 -125.5h-348v-489h-291zM936 928q0 84 -57.5 136t-143.5 52h-309v-377h309q88 0 144.5 52.5t56.5 136.5z" glyph-name="P" horiz-adv-x="1277" unicode="P"/><glyph d="M1497 682q0 -283 -178 -483l100 -117l-202 -166l-109 129q-150 -70 -326 -70q-309 0 -510.5 200t-201.5 507t201.5 507t510.5 200q311 0 513 -199t202 -508zM782 233q78 0 144 25l-156 182l203 164l155 -182q70 111 70 260q0 195 -114.5 321.5t-301 126.5t-300 -126.5 t-113.5 -321.5t113.5 -322t299.5 -127z" glyph-name="Q" horiz-adv-x="1566" unicode="Q"/><glyph d="M907 0l-268 489h-213v-489h-291v1366h639q211 0 335 -123t124 -317q0 -168 -87 -272.5t-212 -133.5l307 -520h-334zM936 928q0 84 -58.5 136t-146.5 52h-305v-377h305q88 0 146.5 52.5t58.5 136.5z" glyph-name="R" horiz-adv-x="1316" unicode="R"/><glyph d="M43 193l158 221q176 -184 434 -185q113 0 175 45t62 109q0 70 -67.5 105.5t-208.5 68.5q-70 16 -100.5 23.5t-96 28t-99.5 39t-82 51t-71.5 69.5t-42 90t-18.5 117q0 176 141.5 293.5t376.5 117.5q326 0 533 -190l-162 -213q-162 150 -391 150q-96 0 -148.5 -38 t-52.5 -101.5t63.5 -93.5t208.5 -64q63 -14 100.5 -23.5t98.5 -30t98 -40t83 -52.5t72 -69.5t43 -90t17 -116.5q0 -197 -140 -318t-406 -121q-365 1 -578 218z" glyph-name="S" horiz-adv-x="1228" unicode="S"/><glyph d="M451 0v1110h-400v256h1090v-256h-398v-1110h-292z" glyph-name="T" horiz-adv-x="1191" unicode="T"/><glyph d="M135 545v821h295v-811q0 -147 81 -234.5t237 -87.5q152 0 232.5 87.5t80.5 234.5v811h295v-819q0 -264 -153.5 -418t-454.5 -154q-303 0 -458 154t-155 416z" glyph-name="U" horiz-adv-x="1490" unicode="U"/><glyph d="M518 0l-528 1366h332l378 -1051l377 1051h332l-526 -1366h-365z" glyph-name="V" horiz-adv-x="1400" unicode="V"/><glyph d="M1180 0l-240 938l-238 -938h-309l-391 1366h326l239 -987l260 987h228l258 -987l237 987h328l-389 -1366h-309z" glyph-name="W" horiz-adv-x="1880" unicode="W"/><glyph d="M1026 0l-342 500l-344 -500h-346l495 700l-464 666h346l313 -467l309 467h350l-464 -664l495 -702h-348z" glyph-name="X" horiz-adv-x="1368" unicode="X"/><glyph d="M516 0v559l-526 807h332l340 -549l335 549h332l-522 -807v-559h-291z" glyph-name="Y" horiz-adv-x="1320" unicode="Y"/><glyph d="M86 0v236l645 874h-645v256h1026v-233l-645 -877h659v-256h-1040z" glyph-name="Z" horiz-adv-x="1212" unicode="Z"/><glyph d="M96 -389v1778h443v-175h-256v-1429h256v-174h-443z" glyph-name="bracketleft" horiz-adv-x="573" unicode="["/><glyph d="M0 1407h188l486 -1448h-189z" glyph-name="backslash" horiz-adv-x="673" unicode="\"/><glyph d="M35 -389v174h256v1429h-256v175h442v-1778h-442z" glyph-name="bracketright" horiz-adv-x="573" unicode="]"/><glyph d="M672 682l-221 506l-220 -506h-192l319 684h191l315 -684h-192z" glyph-name="asciicircum" horiz-adv-x="903" unicode="^"/><glyph d="M-6 -256v174h1167v-174h-1167z" glyph-name="underscore" horiz-adv-x="1155" unicode="_"/><glyph d="M332 1139l-332 295h240l274 -295h-182z" glyph-name="grave" horiz-adv-x="514" unicode="`"/><glyph d="M723 0v102q-106 -127 -313 -127q-133 0 -238.5 87.5t-105.5 240.5q0 160 103 237.5t241 77.5q215 0 313 -120v137q0 76 -59.5 121t-157.5 45q-164 0 -289 -117l-98 174q176 156 432 156q190 0 311 -88t121 -287v-639h-260zM723 238v122q-63 86 -209 86q-80 0 -133 -39.5 t-53 -109.5q0 -68 53 -106.5t133 -38.5q146 0 209 86z" glyph-name="a" horiz-adv-x="1112" unicode="a"/><glyph d="M129 0v1366h260v-504q117 152 305 152q193 0 316 -141.5t123 -378.5q0 -242 -123 -380.5t-316 -138.5q-184 0 -305 152v-127h-260zM389 317q33 -47 96.5 -78.5t126.5 -31.5q113 0 182.5 79t69.5 208t-69.5 208.5t-182.5 79.5q-63 0 -126.5 -32.5t-96.5 -81.5v-351z" glyph-name="b" horiz-adv-x="1200" unicode="b"/><glyph d="M66 496q0 227 147 372.5t377 145.5q262 0 391 -178l-170 -160q-72 106 -209 106q-119 0 -193.5 -78.5t-74.5 -207.5t74.5 -209t193.5 -80q133 0 209 106l170 -157q-129 -180 -391 -181q-229 0 -376.5 146t-147.5 375z" glyph-name="c" horiz-adv-x="1021" unicode="c"/><glyph d="M809 0v127q-121 -152 -305 -152q-193 0 -315.5 138.5t-122.5 380.5q0 238 122.5 379t315.5 141q188 0 305 -152v504h262v-1366h-262zM809 319v351q-33 49 -96.5 80.5t-128.5 31.5q-111 0 -180.5 -79.5t-69.5 -208.5q0 -127 69.5 -207t180.5 -80q66 0 129 31.5t96 80.5z " glyph-name="d" horiz-adv-x="1200" unicode="d"/><glyph d="M66 496q0 219 144 368.5t368 149.5q221 0 358 -150.5t137 -394.5v-57h-735q12 -98 88 -164t197 -66q162 0 264 99l114 -168q-150 -137 -407 -138q-229 0 -378.5 144t-149.5 377zM578 807q-111 0 -172.5 -66.5t-71.5 -152.5h487q-6 84 -66 151.5t-177 67.5z" glyph-name="e" horiz-adv-x="1132" unicode="e"/><glyph d="M186 0v762h-163v227h163v53q0 158 93.5 251t240.5 93q111 0 189 -40l-54 -185q-33 20 -84 21q-57 0 -89.5 -37t-32.5 -107v-49h200v-227h-200v-762h-263z" glyph-name="f" horiz-adv-x="669" unicode="f"/><glyph d="M109 -254l116 188q111 -123 310 -122q111 0 191.5 58t80.5 191v101q-123 -156 -305 -156q-193 0 -314.5 132t-121.5 372q0 238 121.5 371t314.5 133q184 0 305 -152v127h262v-921q0 -135 -48 -231.5t-130 -145.5t-169 -70.5t-187 -21.5q-256 0 -426 147zM807 350v320 q-33 49 -95.5 80.5t-127.5 31.5q-113 0 -181.5 -73.5t-68.5 -198.5t68.5 -198.5t181.5 -73.5q63 0 126.5 32.5t96.5 79.5z" glyph-name="g" horiz-adv-x="1198" unicode="g"/><glyph d="M799 0v602q0 98 -47 139t-138 41q-137 0 -225 -116v-666h-260v1366h260v-506q53 63 144.5 108.5t203.5 45.5q160 0 241 -82t81 -230v-702h-260z" glyph-name="h" horiz-adv-x="1187" unicode="h"/><glyph d="M258 1116q-63 0 -109.5 46t-46.5 109.5t46.5 109.5t109.5 46q66 0 111 -46t45 -109.5t-45 -109.5t-111 -46zM129 0v989h260v-989h-260z" glyph-name="i" horiz-adv-x="518" unicode="i"/><glyph d="M258 1116q-63 0 -109.5 46t-46.5 109.5t46.5 109.5t109.5 46q66 0 111 -46t45 -109.5t-45 -109.5t-111 -46zM389 989v-1016q0 -174 -89 -274t-263 -100q-61 0 -113 10l17 213q25 -6 57 -6q59 0 95 39t36 118v1016h260z" glyph-name="j" horiz-adv-x="518" unicode="j"/><glyph d="M770 0l-262 381l-119 -127v-254h-260v1366h260v-817l375 440h319l-391 -448l404 -541h-326z" glyph-name="k" horiz-adv-x="1095" unicode="k"/><glyph d="M129 0v1366h260v-1366h-260z" glyph-name="l" horiz-adv-x="518" unicode="l"/><glyph d="M1356 0v625q0 158 -148 157q-63 0 -117.5 -34.5t-86.5 -79.5v-668h-263v625q0 158 -147 157q-61 0 -116.5 -34.5t-88.5 -81.5v-666h-260v989h260v-129q37 53 129 103.5t195 50.5q215 0 274 -180q47 74 140.5 127t199.5 53q139 0 215 -75t76 -224v-715h-262z" glyph-name="m" horiz-adv-x="1744" unicode="m"/><glyph d="M797 0v598q0 184 -183 184q-141 0 -225 -116v-666h-260v989h260v-129q129 154 346 154q160 0 241 -84t81 -232v-698h-260z" glyph-name="n" unicode="n"/><glyph d="M587.5 -25q-237.5 0 -379.5 150.5t-142 370t142 369t379.5 149.5t381 -149.5t143.5 -369t-143.5 -370t-381 -150.5zM588 207q117 0 185.5 83t68.5 206q0 121 -68.5 203.5t-185.5 82.5t-184.5 -83t-67.5 -203q0 -123 67.5 -206t184.5 -83z" glyph-name="o" horiz-adv-x="1175" unicode="o"/><glyph d="M389 -377h-260v1366h260v-125q117 150 305 150q195 0 317 -138.5t122 -380t-122 -381t-317 -139.5q-186 0 -305 152v-504zM862 496q0 127 -68.5 206.5t-181.5 79.5q-63 0 -126.5 -32.5t-96.5 -79.5v-351q33 -47 97.5 -79.5t125.5 -32.5q113 0 181.5 80t68.5 209z" glyph-name="p" horiz-adv-x="1198" unicode="p"/><glyph d="M1069 -377h-262v504q-119 -152 -305 -152q-193 0 -314.5 139.5t-121.5 381t120.5 380t315.5 138.5q190 0 305 -150v125h262v-1366zM807 319v351q-33 47 -96.5 79.5t-126.5 32.5q-111 0 -180.5 -79.5t-69.5 -206.5q0 -129 69.5 -209t180.5 -80q63 0 127.5 32.5t95.5 79.5z " glyph-name="q" horiz-adv-x="1198" unicode="q"/><glyph d="M129 0v989h260v-135q53 68 139 113t177 45v-254q-37 8 -72 8q-66 0 -139.5 -33t-104.5 -80v-653h-260z" glyph-name="r" horiz-adv-x="737" unicode="r"/><glyph d="M43 129l113 182q57 -53 155.5 -94t186.5 -41q166 0 166 100q0 47 -49.5 72t-149.5 45q-72 14 -109 22.5t-99 33t-95 53t-59.5 81t-26.5 119.5q0 131 108.5 221.5t296.5 90.5q229 0 400 -135l-105 -179q-47 49 -126 82t-167 33q-72 0 -113.5 -24.5t-41.5 -67.5t46 -64.5 t142 -42.5q70 -14 109 -23t102.5 -33.5t97 -55.5t61 -86.5t27.5 -124.5q0 -139 -113.5 -228.5t-314.5 -89.5q-129 0 -246.5 41t-195.5 113z" glyph-name="s" horiz-adv-x="976" unicode="s"/><glyph d="M461 -25q-137 0 -209 70t-72 201v516h-164v227h164v271h262v-271h201v-227h-201v-447q0 -47 25 -77.5t65 -30.5q61 0 91 29l55 -197q-72 -64 -217 -64z" glyph-name="t" horiz-adv-x="692" unicode="t"/><glyph d="M797 0v125q-133 -150 -348 -150q-160 0 -240 82t-80 230v702h260v-600q0 -182 182 -182q137 0 226 112v670h260v-989h-260z" glyph-name="u" unicode="u"/><glyph d="M385 0l-397 989h278l258 -688l258 688h281l-397 -989h-281z" glyph-name="v" horiz-adv-x="1050" unicode="v"/><glyph d="M997 0l-209 674l-208 -674h-279l-301 989h270l185 -665l217 665h231l217 -665l185 665h270l-301 -989h-277z" glyph-name="w" horiz-adv-x="1574" unicode="w"/><glyph d="M741 0l-225 334l-227 -334h-289l350 508l-330 481h291l205 -305l203 305h291l-332 -481l354 -508h-291z" glyph-name="x" horiz-adv-x="1032" unicode="x"/><glyph d="M133 -154q37 -16 82 -16q104 0 137 72l37 84l-401 1003h278l258 -688l258 688h281l-465 -1151q-51 -131 -143.5 -183t-231.5 -56q-72 0 -129 14z" glyph-name="y" horiz-adv-x="1050" unicode="y"/><glyph d="M86 0v195l446 567h-446v227h799v-188l-453 -574h461v-227h-807z" glyph-name="z" horiz-adv-x="980" unicode="z"/><glyph d="M430 -389q-129 0 -223 90t-94 236v352q0 59 -28 98t-79 39v147q51 0 79 39t28 99v350q0 145 94 236.5t223 91.5h125v-175h-125q-53 0 -90 -42t-37 -109v-379q0 -143 -94 -184q94 -41 94 -185v-376q0 -68 37 -111t90 -43h125v-174h-125z" glyph-name="braceleft" horiz-adv-x="589" unicode="{"/><glyph d="M135 -41v1448h174v-1448h-174z" glyph-name="bar" horiz-adv-x="442" unicode="|"/><glyph d="M35 -215h125q53 0 91 43t38 111v376q0 143 94 185q-94 41 -94 184v379q0 68 -38 109.5t-91 41.5h-125v175h125q129 0 223 -91.5t94 -236.5v-350q0 -59 27.5 -98.5t79.5 -39.5v-147q-51 0 -79 -39t-28 -98v-352q0 -145 -94 -235.5t-223 -90.5h-125v174z" glyph-name="braceright" horiz-adv-x="589" unicode="}"/><glyph d="M991 1346q-8 -106 -24.5 -184.5t-48 -156t-91 -119.5t-141.5 -42q-55 0 -97 19.5t-67.5 60.5t-39 70.5t-29.5 80.5q-16 47 -24.5 67.5t-27 41t-43.5 20.5q-98 0 -127 -360l-178 20q8 104 24.5 183t49.5 156t91 119t140 42q57 0 98.5 -19.5t68 -60.5t40 -71.5t29.5 -82.5 q16 -49 24.5 -67.5t27 -40t40.5 -21.5q100 0 129 365z" glyph-name="asciitilde" horiz-adv-x="1044" unicode="~"/><glyph glyph-name="uni00A0" horiz-adv-x="524" unicode=" "/><glyph d="M260.5 1012q67.5 0 116.5 -49.5t49 -114.5q0 -68 -49 -118t-116.5 -50t-116 50t-48.5 118q0 66 48.5 115t116 49zM145 543h232l43 -920h-316z" glyph-name="exclamdown" horiz-adv-x="524" unicode="¡"/><glyph d="M682 223q76 20 129 90l170 -157q-102 -145 -299 -174v-187h-188v189q-193 29 -310.5 169t-117.5 343q0 201 117.5 341t310.5 169v151h188v-149q195 -29 299 -172l-170 -160q-53 72 -129 92v-545zM334 496q0 -94 43 -165t117 -100v527q-74 -29 -117 -97.5t-43 -164.5z" glyph-name="cent" horiz-adv-x="1021" unicode="¢"/><glyph d="M987 307l115 -231q-98 -102 -301 -103q-92 0 -221 54q-98 37 -150 36q-96 0 -237 -77l-99 198q223 109 223 256q0 51 -24 111h-246v166h139q-94 137 -94 246q0 186 151.5 304.5t346.5 118.5q346 0 475 -247l-231 -135q-27 66 -83.5 105.5t-125.5 39.5q-92 0 -153.5 -53.5 t-61.5 -139.5q0 -88 79 -206q2 -2 9.5 -13.5t11.5 -19.5h295v-166h-232q2 -12 2 -39q0 -70 -36.5 -131.5t-96.5 -95.5q43 14 103 14q61 0 143 -35q70 -31 123 -31q123 0 176 74z" glyph-name="sterling" horiz-adv-x="1126" unicode="£"/><glyph d="M1161 682q0 -158 -84 -287l150 -147l-156 -152l-153 150q-127 -70 -281 -70q-160 0 -283 72l-149 -152l-156 152l150 149q-82 121 -82 285q0 160 82 287l-150 151l154 152l155 -156q121 70 279 70q160 0 281 -70l153 156l156 -154l-150 -149q84 -129 84 -287zM637 410 q123 0 192.5 77.5t69.5 194.5q0 115 -69.5 192.5t-192.5 77.5q-121 0 -190.5 -77.5t-69.5 -192.5t69.5 -193.5t190.5 -78.5z" glyph-name="currency" horiz-adv-x="1275" unicode="¤"/><glyph d="M1329 1366l-420 -645h367v-162h-469v-164h469v-159h-469v-236h-291v236h-467v159h467v164h-467v162h363l-422 645h332l340 -549l335 549h332z" glyph-name="yen" horiz-adv-x="1320" unicode="¥"/><glyph d="M135 760v647h174v-647h-174zM135 -41v647h174v-647h-174z" glyph-name="brokenbar" horiz-adv-x="442" unicode="¦"/><glyph d="M743 406q170 -74 170 -252q0 -150 -118.5 -235t-309.5 -85q-260 0 -438 162l109 164q59 -59 147 -102.5t182 -43.5q82 0 130.5 31t48.5 88q0 37 -35 64.5t-71 39t-114 29.5q-68 16 -103.5 26.5t-95 35t-90 54.5t-55 80t-24.5 113q0 96 59.5 162t140.5 94 q-201 76 -200 259q0 127 113.5 211.5t291.5 84.5q254 0 398 -139l-103 -153q-111 111 -284 110q-76 0 -120 -29.5t-44 -80.5q0 -27 13 -44.5t50 -31.5t60.5 -20.5t83.5 -18.5q68 -14 106.5 -24.5t98 -34t92 -54t57 -82t24.5 -116.5q0 -176 -170 -262zM487 766 q-88 -20 -123.5 -57t-35.5 -95q0 -66 55 -95.5t156 -51.5q119 51 118 151q0 109 -170 148z" glyph-name="section" horiz-adv-x="991" unicode="§"/><glyph d="M217 1135q-59 0 -99 39.5t-40 99.5q0 57 41 97t98 40t97 -40t40 -97q0 -59 -40 -99t-97 -40zM649.5 1135q-57.5 0 -98.5 39.5t-41 99.5q0 57 41 97t98.5 40t98 -40t40.5 -97q0 -59 -40.5 -99t-98 -40z" glyph-name="dieresis" horiz-adv-x="866" unicode="¨"/><glyph d="M797 -25q-293 0 -500 207t-207 500t207 500t500 207t499.5 -207t206.5 -500t-206.5 -500t-499.5 -207zM797 1315q-260 0 -446.5 -186.5t-186.5 -446.5t186.5 -446.5t446.5 -186.5t446.5 186.5t186.5 446.5t-186.5 446.5t-446.5 186.5zM1112 389q-119 -139 -305 -139 q-178 0 -302 124t-124 310q0 184 124 307t302 123q188 0 303 -135l-63 -64q-86 117 -240 117q-137 0 -234.5 -98t-97.5 -250q0 -150 97.5 -251t234.5 -101q154 0 242 119z" glyph-name="copyright" horiz-adv-x="1593" unicode="©"/><glyph d="M498 668v65q-74 -82 -209 -82q-90 0 -158 56.5t-68 156.5q0 98 68 152.5t158 54.5q139 0 209 -78v82q0 51 -39 81t-103 30q-109 0 -188 -84l-72 123q121 102 293 102q129 0 213 -59.5t84 -196.5v-403h-188zM498 827v74q-43 55 -131 55q-49 0 -83 -24.5t-34 -67.5 q0 -45 33.5 -70.5t83.5 -25.5q88 0 131 59z" glyph-name="ordfeminine" horiz-adv-x="788" unicode="ª"/><glyph d="M389 129l-328 369l328 362h240l-328 -362l328 -369h-240zM778 129l-327 369l327 362h240l-328 -362l328 -369h-240z" glyph-name="guillemotleft" horiz-adv-x="1079" unicode="«"/><glyph d="M973 412h-166v383h-748v163h914v-546z" glyph-name="logicalnot" horiz-adv-x="1054" unicode="¬"/><glyph d="M61 385v221h492v-221h-492z" glyph-name="uni00AD" horiz-adv-x="614" unicode="­"/><glyph d="M506 518q-180 0 -307 127t-127 307.5t127 307t307 126.5q182 0 308 -125.5t126 -308.5q0 -180 -127 -307t-307 -127zM506 1321q-154 0 -261.5 -107.5t-107.5 -261.5q0 -152 107.5 -260t261.5 -108q152 0 260 108.5t108 259.5q0 154 -108 261.5t-260 107.5zM625 702 l-129 197h-86v-197h-70v498h203q68 0 115 -42t47 -109q0 -72 -46.5 -110t-80.5 -38l133 -199h-86zM543 1139h-133v-176h133q37 0 63.5 24.5t26.5 61.5q0 41 -26.5 65.5t-63.5 24.5z" glyph-name="registered" horiz-adv-x="1011" unicode="®"/><glyph d="M29 1151v147h686v-147h-686z" glyph-name="macron" horiz-adv-x="743" unicode="¯"/><glyph d="M317.5 834q-114.5 0 -195.5 79.5t-81 194.5t81 196.5t195.5 81.5t195.5 -81.5t81 -196.5t-81 -194.5t-195.5 -79.5zM317 1245q-57 0 -95 -40t-38 -97q0 -55 38 -94t95 -39q55 0 95.5 39t40.5 94q0 57 -40.5 97t-95.5 40z" glyph-name="degree" horiz-adv-x="636" unicode="°"/><glyph d="M606 668v-418h-178v418h-369v159h369v404h178v-404h367v-159h-367zM59 0v160h914v-160h-914z" glyph-name="plusminus" horiz-adv-x="1032" unicode="±"/><glyph d="M94 862v144q268 188 355.5 269t87.5 148q0 55 -39 84t-101 29q-68 0 -129 -30.5t-94 -71.5l-102 125q121 135 329 135q145 0 237.5 -67.5t92.5 -188.5q0 -96 -83 -191.5t-269 -226.5h358v-158h-643z" glyph-name="uni00B2" horiz-adv-x="813" unicode="²"/><glyph d="M403 848q-227 0 -337 129l96 129q94 -100 233 -100q72 0 112 26.5t40 69.5q0 100 -180 100q-80 0 -93 -2v156q18 -2 91 -2q168 0 167 92q0 90 -149 90q-125 0 -215 -90l-92 117q121 131 327 131q154 0 240 -60.5t86 -163.5q0 -72 -53 -123t-129 -63q72 -6 134 -58 t62 -136q0 -109 -93 -175.5t-247 -66.5z" glyph-name="uni00B3" horiz-adv-x="813" unicode="³"/><glyph d="M182 1139h-182l274 295h240z" glyph-name="acute" horiz-adv-x="514" unicode="´"/><glyph d="M389 -377h-260v1366h260v-600q0 -184 184 -184q133 0 224 114v670h260v-692q0 -43 22.5 -66.5t59.5 -23.5q18 0 39 4l18 -221q-53 -14 -121 -15q-213 0 -266 177q-45 -78 -118 -127.5t-159 -49.5q-100 0 -143 58v-410z" glyph-name="uni00B5" horiz-adv-x="1214" unicode="µ"/><glyph d="M696 -205v1444h-159v-1444h-129v867q-145 0 -249 103t-104 248.5t103.5 249t249.5 103.5h417v-1571h-129z" glyph-name="paragraph" horiz-adv-x="919" unicode="¶"/><glyph d="M262.5 336q-67.5 0 -117 49t-49.5 115q0 68 49.5 117t117 49t116.5 -49.5t49 -116.5q0 -66 -49 -115t-116.5 -49z" glyph-name="periodcentered" horiz-adv-x="524" unicode="·"/><glyph d="M0 -336l51 105q78 -59 166 -60q45 0 76 18.5t31 51.5q0 51 -60 51q-37 0 -65 -29l-95 54l62 168h129l-53 -127q35 20 73 20q57 0 97.5 -40t40.5 -101q0 -80 -65.5 -128t-162.5 -48q-143 -1 -225 65z" glyph-name="cedilla" horiz-adv-x="452" unicode="¸"/><glyph d="M264 862v568l-139 -142l-111 119l279 274h170v-819h-199z" glyph-name="uni00B9" horiz-adv-x="585" unicode="¹"/><glyph d="M61 989q0 141 97.5 239.5t255.5 98.5q160 0 257 -98.5t97 -239.5t-97.5 -239.5t-256.5 -98.5q-158 0 -255.5 98.5t-97.5 239.5zM573 989q0 84 -42 133t-117 49q-74 0 -116 -48t-42 -134t42 -136t115.5 -50t116.5 50t43 136z" glyph-name="ordmasculine" horiz-adv-x="829" unicode="º"/><glyph d="M301 129h-240l328 369l-328 362h240l328 -362zM690 129h-239l327 369l-327 362h239l328 -362z" glyph-name="guillemotright" horiz-adv-x="1079" unicode="»"/><glyph d="M264 547v567l-139 -141l-111 119l279 274h170v-819h-199zM426 0h-156l873 1366h157zM1501 176v-176h-194v176h-402v133l324 510h272v-489h109v-154h-109zM1307 653l-207 -323h207v323z" glyph-name="onequarter" horiz-adv-x="1658" unicode="¼"/><glyph d="M264 547v567l-139 -141l-111 119l279 274h170v-819h-199zM426 0h-156l873 1366h157zM1042 0v143q268 188 355.5 269.5t87.5 148.5q0 55 -39 84t-100 29q-68 0 -129.5 -31t-94.5 -72l-102 125q121 135 330 135q145 0 237 -67.5t92 -188.5q0 -96 -83 -191t-269 -226h359 v-158h-644z" glyph-name="onehalf" horiz-adv-x="1761" unicode="½"/><glyph d="M403 532q-227 0 -337 130l96 129q94 -100 233 -101q72 0 112 26.5t40 69.5q0 100 -180 101q-80 0 -93 -2v155q18 -2 91 -2q168 0 167 92q0 90 -149 91q-125 0 -215 -91l-92 117q121 131 327 131q154 0 240 -60.5t86 -162.5q0 -72 -53 -123t-129 -63q72 -6 134 -58.5 t62 -136.5q0 -109 -93 -175.5t-247 -66.5zM616 0h-155l872 1366h158zM1692 176v-176h-195v176h-401v133l323 510h273v-489h108v-154h-108zM1497 653l-207 -323h207v323z" glyph-name="threequarters" horiz-adv-x="1849" unicode="¾"/><glyph d="M637 845.5q0 -67.5 -49 -116.5t-117 -49t-117 49t-49 116.5t49 117t117 49.5t117 -49.5t49 -117zM637 387q0 -66 -32 -120t-63.5 -80.5t-86.5 -65.5q-41 -29 -61.5 -46.5t-39 -45t-18.5 -56.5q0 -49 41 -81.5t121 -32.5q147 0 252 125l165 -187q-172 -197 -450 -196 q-195 0 -310.5 89t-115.5 234q0 80 36 145.5t70.5 96.5t100.5 78q47 35 70.5 54t45 52t21.5 68q0 53 -39 86l223 63q70 -69 70 -180z" glyph-name="questiondown" horiz-adv-x="815" unicode="¿"/><glyph d="M610 1481l-331 295h239l275 -295h-183zM1092 0l-86 236h-611l-86 -236h-319l528 1366h365l526 -1366h-317zM700 1114l-227 -627h453z" glyph-name="Agrave" horiz-adv-x="1400" unicode="À"/><glyph d="M784 1481h-182l275 295h239zM1092 0l-86 236h-611l-86 -236h-319l528 1366h365l526 -1366h-317zM700 1114l-227 -627h453z" glyph-name="Aacute" horiz-adv-x="1400" unicode="Á"/><glyph d="M850 1481l-150 182l-145 -182h-160l189 295h233l193 -295h-160zM1092 0l-86 236h-611l-86 -236h-319l528 1366h365l526 -1366h-317zM700 1114l-227 -627h453z" glyph-name="Acircumflex" horiz-adv-x="1400" unicode="Â"/><glyph d="M659 1561q-51 55 -81 55q-74 0 -74 -127h-137q0 131 57 202.5t164 71.5q78 0 153 -84q53 -53 84 -53q74 0 74 125h137q0 -131 -56 -202.5t-163 -71.5q-82 0 -158 84zM1092 0l-86 236h-611l-86 -236h-319l528 1366h365l526 -1366h-317zM700 1114l-227 -627h453z" glyph-name="Atilde" horiz-adv-x="1400" unicode="Ã"/><glyph d="M485 1477q-59 0 -99 39.5t-40 99.5q0 57 41 97t98.5 40t97.5 -40t40 -97q0 -59 -40.5 -99t-97.5 -40zM917.5 1477q-57.5 0 -98.5 39.5t-41 99.5q0 57 41 97t98.5 40t98.5 -40t41 -97q0 -59 -41 -99t-98.5 -40zM1092 0l-86 236h-611l-86 -236h-319l528 1366h365l526 -1366 h-317zM700 1114l-227 -627h453z" glyph-name="Adieresis" horiz-adv-x="1400" unicode="Ä"/><glyph d="M487 1644.5q0 88.5 63.5 153t152 64.5t150.5 -64.5t62 -152.5q0 -90 -62 -152.5t-150.5 -62.5t-152 63t-63.5 151.5zM797 1645q0 41 -28 68.5t-66.5 27.5t-67.5 -29t-29 -67.5t29 -67.5t67.5 -29t66.5 29t28 68zM1092 0l-86 236h-611l-86 -236h-319l528 1366h365 l526 -1366h-317zM700 1114l-227 -627h453z" glyph-name="Aring" horiz-adv-x="1400" unicode="Å"/><glyph d="M930 0v236h-492l-137 -236h-319l831 1366h1083v-250h-673v-297h659v-250h-659v-317h673v-252h-966zM930 1116l-357 -629h357v629z" glyph-name="AE" horiz-adv-x="1982" unicode="Æ"/><glyph d="M786 233q111 0 199 55.5t133 143.5l250 -121q-178 -313 -532 -334l-35 -81q29 20 73 20q57 0 97.5 -40t40.5 -101q0 -80 -65.5 -128t-162.5 -48q-143 0 -225 65l51 107q78 -61 166 -62q45 0 76 18.5t31 51.5q0 51 -60 51q-37 0 -65 -29l-94 54l45 125q-276 27 -457.5 220 t-181.5 482q0 311 205.5 509t510.5 198q393 0 582 -334l-250 -123q-45 86 -134 142t-198 56q-178 0 -297.5 -128t-119.5 -320.5t119.5 -320.5t297.5 -128z" glyph-name="Ccedilla" horiz-adv-x="1406" unicode="Ç"/><glyph d="M541 1481l-332 295h240l274 -295h-182zM135 0v1366h967v-250h-676v-297h661v-250h-661v-317h676v-252h-967z" glyph-name="Egrave" horiz-adv-x="1193" unicode="È"/><glyph d="M717 1481h-182l274 295h240zM135 0v1366h967v-250h-676v-297h661v-250h-661v-317h676v-252h-967z" glyph-name="Eacute" horiz-adv-x="1193" unicode="É"/><glyph d="M782 1481l-149 182l-146 -182h-159l188 295h234l192 -295h-160zM135 0v1366h967v-250h-676v-297h661v-250h-661v-317h676v-252h-967z" glyph-name="Ecircumflex" horiz-adv-x="1193" unicode="Ê"/><glyph d="M416 1477q-59 0 -99.5 39.5t-40.5 99.5q0 57 41 97t98.5 40t97.5 -40t40 -97q0 -59 -40 -99t-97 -40zM848 1477q-57 0 -98 39.5t-41 99.5q0 57 41 97t98 40t98 -40t41 -97q0 -59 -41 -99t-98 -40zM135 0v1366h967v-250h-676v-297h661v-250h-661v-317h676v-252h-967z" glyph-name="Edieresis" horiz-adv-x="1193" unicode="Ë"/><glyph d="M190 1481l-331 295h239l275 -295h-183zM135 0v1366h291v-1366h-291z" glyph-name="Igrave" horiz-adv-x="561" unicode="Ì"/><glyph d="M367 1481h-183l275 295h239zM135 0v1366h291v-1366h-291z" glyph-name="Iacute" horiz-adv-x="561" unicode="Í"/><glyph d="M432 1481l-149 182l-146 -182h-160l189 295h233l193 -295h-160zM135 0v1366h291v-1366h-291z" glyph-name="Icircumflex" horiz-adv-x="561" unicode="Î"/><glyph d="M66 1477q-59 0 -99.5 39.5t-40.5 99.5q0 57 41 97t98.5 40t97.5 -40t40 -97q0 -59 -40 -99t-97 -40zM497.5 1477q-57.5 0 -98.5 39.5t-41 99.5q0 57 41 97t98.5 40t98.5 -40t41 -97q0 -59 -41 -99t-98.5 -40zM135 0v1366h291v-1366h-291z" glyph-name="Idieresis" horiz-adv-x="561" unicode="Ï"/><glyph d="M723 1366q324 0 525.5 -188.5t201.5 -495.5t-201.5 -494.5t-523.5 -187.5h-541v565h-168v221h168v580h539zM723 256q197 0 312.5 123t115.5 303q0 188 -111.5 308t-314.5 120h-248v-324h305v-221h-305v-309h246z" glyph-name="Eth" horiz-adv-x="1519" unicode="Ð"/><glyph d="M707 1561q-51 55 -82 55q-74 0 -74 -127h-137q0 131 57 202.5t164 71.5q78 0 153 -84q53 -53 84 -53q74 0 74 125h137q0 -131 -56 -202.5t-163 -71.5q-81 0 -157 84zM1077 0l-651 918v-918h-291v1366h299l633 -885v885h291v-1366h-281z" glyph-name="Ntilde" horiz-adv-x="1492" unicode="Ñ"/><glyph d="M692 1481l-332 295h240l274 -295h-182zM70 682q0 307 201.5 507t510.5 200q311 0 513 -199t202 -508t-201.5 -508t-513.5 -199q-309 0 -510.5 200t-201.5 507zM1198 682q0 195 -114.5 321.5t-301 126.5t-300 -126.5t-113.5 -321.5t113.5 -322t300 -127t301 127t114.5 322 z" glyph-name="Ograve" horiz-adv-x="1566" unicode="Ò"/><glyph d="M866 1481h-182l274 295h240zM70 682q0 307 201.5 507t510.5 200q311 0 513 -199t202 -508t-201.5 -508t-513.5 -199q-309 0 -510.5 200t-201.5 507zM1198 682q0 195 -114.5 321.5t-301 126.5t-300 -126.5t-113.5 -321.5t113.5 -322t300 -127t301 127t114.5 322z" glyph-name="Oacute" horiz-adv-x="1566" unicode="Ó"/><glyph d="M932 1481l-150 182l-145 -182h-160l189 295h233l193 -295h-160zM70 682q0 307 201.5 507t510.5 200q311 0 513 -199t202 -508t-201.5 -508t-513.5 -199q-309 0 -510.5 200t-201.5 507zM1198 682q0 195 -114.5 321.5t-301 126.5t-300 -126.5t-113.5 -321.5t113.5 -322 t300 -127t301 127t114.5 322z" glyph-name="Ocircumflex" horiz-adv-x="1566" unicode="Ô"/><glyph d="M741 1561q-51 55 -82 55q-74 0 -73 -127h-137q0 131 57 202.5t164 71.5q78 0 153 -84q53 -53 84 -53q74 0 74 125h137q0 -131 -56 -202.5t-163 -71.5q-82 0 -158 84zM70 682q0 307 201.5 507t510.5 200q311 0 513 -199t202 -508t-201.5 -508t-513.5 -199 q-309 0 -510.5 200t-201.5 507zM1198 682q0 195 -114.5 321.5t-301 126.5t-300 -126.5t-113.5 -321.5t113.5 -322t300 -127t301 127t114.5 322z" glyph-name="Otilde" horiz-adv-x="1566" unicode="Õ"/><glyph d="M567 1477q-59 0 -99 39.5t-40 99.5q0 57 41 97t98.5 40t97.5 -40t40 -97q0 -59 -40.5 -99t-97.5 -40zM999.5 1477q-57.5 0 -98.5 39.5t-41 99.5q0 57 41 97t98.5 40t98.5 -40t41 -97q0 -59 -41 -99t-98.5 -40zM70 682q0 307 201.5 507t510.5 200q311 0 513 -199t202 -508 t-201.5 -508t-513.5 -199q-309 0 -510.5 200t-201.5 507zM1198 682q0 195 -114.5 321.5t-301 126.5t-300 -126.5t-113.5 -321.5t113.5 -322t300 -127t301 127t114.5 322z" glyph-name="Odieresis" horiz-adv-x="1566" unicode="Ö"/><glyph d="M516 569l-287 -288l-116 112l288 291l-288 289l116 114l287 -290l289 290l115 -114l-289 -289l289 -291l-115 -112z" glyph-name="multiply" horiz-adv-x="1032" unicode="×"/><glyph d="M1274 1210q223 -203 223 -528q0 -309 -201.5 -508t-513.5 -199q-207 0 -376 97l-56 -72h-209l131 172q-203 203 -202.5 510t202 507t510.5 200q193 0 355 -84l47 61h209zM369 682q0 -160 80 -279l522 684q-90 43 -189 43q-186 0 -299.5 -126.5t-113.5 -321.5zM782 233 q186 0 301 127t115 322q0 180 -98 301l-529 -694q94 -56 211 -56z" glyph-name="Oslash" horiz-adv-x="1566" unicode="Ø"/><glyph d="M657 1481l-331 295h239l275 -295h-183zM135 545v821h295v-811q0 -147 81 -234.5t237 -87.5q152 0 232.5 87.5t80.5 234.5v811h295v-819q0 -264 -153.5 -418t-454.5 -154q-303 0 -458 154t-155 416z" glyph-name="Ugrave" horiz-adv-x="1490" unicode="Ù"/><glyph d="M831 1481h-182l275 295h239zM135 545v821h295v-811q0 -147 81 -234.5t237 -87.5q152 0 232.5 87.5t80.5 234.5v811h295v-819q0 -264 -153.5 -418t-454.5 -154q-303 0 -458 154t-155 416z" glyph-name="Uacute" horiz-adv-x="1490" unicode="Ú"/><glyph d="M897 1481l-149 182l-146 -182h-160l189 295h233l193 -295h-160zM135 545v821h295v-811q0 -147 81 -234.5t237 -87.5q152 0 232.5 87.5t80.5 234.5v811h295v-819q0 -264 -153.5 -418t-454.5 -154q-303 0 -458 154t-155 416z" glyph-name="Ucircumflex" horiz-adv-x="1490" unicode="Û"/><glyph d="M530 1477q-59 0 -99 39.5t-40 99.5q0 57 41 97t98.5 40t97.5 -40t40 -97q0 -59 -40.5 -99t-97.5 -40zM962.5 1477q-57.5 0 -98.5 39.5t-41 99.5q0 57 41 97t98.5 40t98.5 -40t41 -97q0 -59 -41 -99t-98.5 -40zM135 545v821h295v-811q0 -147 81 -234.5t237 -87.5 q152 0 232.5 87.5t80.5 234.5v811h295v-819q0 -264 -153.5 -418t-454.5 -154q-303 0 -458 154t-155 416z" glyph-name="Udieresis" horiz-adv-x="1490" unicode="Ü"/><glyph d="M745 1481h-182l275 295h239zM516 0v559l-526 807h332l340 -549l335 549h332l-522 -807v-559h-291z" glyph-name="Yacute" horiz-adv-x="1320" unicode="Ý"/><glyph d="M135 0v1366h291v-221h348q215 0 337 -127t122 -316q0 -186 -123 -311t-336 -125h-348v-266h-291zM936 704.5q0 83.5 -57.5 137t-149.5 53.5h-303v-377h303q92 0 149.5 51.5t57.5 135z" glyph-name="Thorn" horiz-adv-x="1277" unicode="Þ"/><glyph d="M872 -25q-135 0 -227 40t-176 116l111 180q43 -55 123.5 -94t168.5 -39q78 0 120 31t42 76q0 31 -28.5 52t-60.5 31.5t-95 26.5q-61 14 -96 23.5t-90.5 34t-86 54.5t-54 81t-23.5 117q0 59 29.5 111t57 77t77.5 59q88 61 88 101q0 47 -47.5 74.5t-110.5 27.5 q-88 0 -146.5 -49t-58.5 -133v-973h-260v973q0 176 127 294.5t342 118.5q170 0 296 -81.5t126 -214.5q0 -61 -29.5 -114.5t-57.5 -77.5t-79 -60q-39 -27 -54.5 -39.5t-32.5 -36t-17 -47.5q0 -20 10 -34.5t40.5 -26t49 -16.5t68.5 -15q66 -14 100.5 -22.5t93.5 -34t90 -56.5 t56.5 -87t25.5 -128q0 -139 -113 -229.5t-299 -90.5z" glyph-name="germandbls" horiz-adv-x="1316" unicode="ß"/><glyph d="M465 1139l-332 295h240l274 -295h-182zM723 0v102q-106 -127 -313 -127q-133 0 -238.5 87.5t-105.5 240.5q0 160 103 237.5t241 77.5q215 0 313 -120v137q0 76 -59.5 121t-157.5 45q-164 0 -289 -117l-98 174q176 156 432 156q190 0 311 -88t121 -287v-639h-260zM723 238 v122q-63 86 -209 86q-80 0 -133 -39.5t-53 -109.5q0 -68 53 -106.5t133 -38.5q146 0 209 86z" glyph-name="agrave" horiz-adv-x="1112" unicode="à"/><glyph d="M639 1139h-182l274 295h240zM723 0v102q-106 -127 -313 -127q-133 0 -238.5 87.5t-105.5 240.5q0 160 103 237.5t241 77.5q215 0 313 -120v137q0 76 -59.5 121t-157.5 45q-164 0 -289 -117l-98 174q176 156 432 156q190 0 311 -88t121 -287v-639h-260zM723 238v122 q-63 86 -209 86q-80 0 -133 -39.5t-53 -109.5q0 -68 53 -106.5t133 -38.5q146 0 209 86z" glyph-name="aacute" horiz-adv-x="1112" unicode="á"/><glyph d="M705 1139l-150 182l-145 -182h-160l188 295h234l192 -295h-159zM723 0v102q-106 -127 -313 -127q-133 0 -238.5 87.5t-105.5 240.5q0 160 103 237.5t241 77.5q215 0 313 -120v137q0 76 -59.5 121t-157.5 45q-164 0 -289 -117l-98 174q176 156 432 156q190 0 311 -88 t121 -287v-639h-260zM723 238v122q-63 86 -209 86q-80 0 -133 -39.5t-53 -109.5q0 -68 53 -106.5t133 -38.5q146 0 209 86z" glyph-name="acircumflex" horiz-adv-x="1112" unicode="â"/><glyph d="M514 1219q-51 55 -82 55q-74 0 -74 -127h-137q0 131 57.5 202.5t163.5 71.5q78 0 154 -84q53 -53 84 -53q74 0 74 125h137q0 -131 -56.5 -202.5t-162.5 -71.5q-82 0 -158 84zM723 0v102q-106 -127 -313 -127q-133 0 -238.5 87.5t-105.5 240.5q0 160 103 237.5t241 77.5 q215 0 313 -120v137q0 76 -59.5 121t-157.5 45q-164 0 -289 -117l-98 174q176 156 432 156q190 0 311 -88t121 -287v-639h-260zM723 238v122q-63 86 -209 86q-80 0 -133 -39.5t-53 -109.5q0 -68 53 -106.5t133 -38.5q146 0 209 86z" glyph-name="atilde" horiz-adv-x="1112" unicode="ã"/><glyph d="M340 1135q-59 0 -99 39.5t-40 99.5q0 57 41 97t98 40t97 -40t40 -97q0 -59 -40 -99t-97 -40zM772 1135q-57 0 -98 39.5t-41 99.5q0 57 41 97t98 40t98 -40t41 -97q0 -59 -41 -99t-98 -40zM723 0v102q-106 -127 -313 -127q-133 0 -238.5 87.5t-105.5 240.5 q0 160 103 237.5t241 77.5q215 0 313 -120v137q0 76 -59.5 121t-157.5 45q-164 0 -289 -117l-98 174q176 156 432 156q190 0 311 -88t121 -287v-639h-260zM723 238v122q-63 86 -209 86q-80 0 -133 -39.5t-53 -109.5q0 -68 53 -106.5t133 -38.5q146 0 209 86z" glyph-name="adieresis" horiz-adv-x="1112" unicode="ä"/><glyph d="M342 1302.5q0 88.5 63.5 153t151.5 64.5t150.5 -64.5t62.5 -152.5q0 -90 -62.5 -153t-150.5 -63t-151.5 63.5t-63.5 152zM651 1303q0 41 -27.5 68.5t-66.5 27.5t-67.5 -29t-28.5 -67.5t28.5 -67.5t67.5 -29t66.5 29t27.5 68zM723 0v102q-106 -127 -313 -127 q-133 0 -238.5 87.5t-105.5 240.5q0 160 103 237.5t241 77.5q215 0 313 -120v137q0 76 -59.5 121t-157.5 45q-164 0 -289 -117l-98 174q176 156 432 156q190 0 311 -88t121 -287v-639h-260zM723 238v122q-63 86 -209 86q-80 0 -133 -39.5t-53 -109.5q0 -68 53 -106.5 t133 -38.5q146 0 209 86z" glyph-name="aring" horiz-adv-x="1112" unicode="å"/><glyph d="M1024 412q14 -96 84 -160t182 -64q152 0 244 97l117 -172q-72 -66 -176.5 -102t-202.5 -36q-256 0 -381 181q-63 -80 -173 -130.5t-239 -50.5q-176 0 -294.5 83t-118.5 241q0 156 102 240t256 84q223 0 338 -119v133q0 74 -64.5 119t-171.5 45q-170 0 -309 -117l-98 174 q176 156 438 156q260 0 346 -170q129 170 359 170q205 0 332.5 -150.5t127.5 -394.5v-57h-698zM1470 588q-4 84 -60 151.5t-165 67.5q-102 0 -159.5 -66.5t-65.5 -152.5h450zM762 358q-78 88 -232 88q-88 0 -145 -34.5t-57 -98t56 -98.5t140 -35q94 0 166 52.5t72 113.5v12z " glyph-name="ae" horiz-adv-x="1781" unicode="æ"/><glyph d="M602 207q133 0 209 106l170 -157q-115 -162 -340 -179l-35 -81q29 20 74 20q57 0 97 -40t40 -101q0 -80 -65.5 -128t-161.5 -48q-143 0 -225 65l51 107q78 -61 166 -62q45 0 75.5 18.5t30.5 51.5q0 51 -59 51q-37 0 -66 -29l-94 54l45 125q-199 25 -323.5 167t-124.5 349 q0 227 147 372.5t377 145.5q262 0 391 -178l-170 -160q-72 106 -209 106q-119 0 -193.5 -78.5t-74.5 -207.5t74.5 -209t193.5 -80z" glyph-name="ccedilla" horiz-adv-x="1021" unicode="ç"/><glyph d="M487 1139l-331 295h239l275 -295h-183zM66 496q0 219 144 368.5t368 149.5q221 0 358 -150.5t137 -394.5v-57h-735q12 -98 88 -164t197 -66q162 0 264 99l114 -168q-150 -137 -407 -138q-229 0 -378.5 144t-149.5 377zM578 807q-111 0 -172.5 -66.5t-71.5 -152.5h487 q-6 84 -66 151.5t-177 67.5z" glyph-name="egrave" horiz-adv-x="1132" unicode="è"/><glyph d="M662 1139h-183l275 295h239zM66 496q0 219 144 368.5t368 149.5q221 0 358 -150.5t137 -394.5v-57h-735q12 -98 88 -164t197 -66q162 0 264 99l114 -168q-150 -137 -407 -138q-229 0 -378.5 144t-149.5 377zM578 807q-111 0 -172.5 -66.5t-71.5 -152.5h487 q-6 84 -66 151.5t-177 67.5z" glyph-name="eacute" horiz-adv-x="1132" unicode="é"/><glyph d="M729 1139l-149 182l-146 -182h-160l189 295h233l193 -295h-160zM66 496q0 219 144 368.5t368 149.5q221 0 358 -150.5t137 -394.5v-57h-735q12 -98 88 -164t197 -66q162 0 264 99l114 -168q-150 -137 -407 -138q-229 0 -378.5 144t-149.5 377zM578 807 q-111 0 -172.5 -66.5t-71.5 -152.5h487q-6 84 -66 151.5t-177 67.5z" glyph-name="ecircumflex" horiz-adv-x="1132" unicode="ê"/><glyph d="M362 1135q-59 0 -99 39.5t-40 99.5q0 57 41 97t98.5 40t97.5 -40t40 -97q0 -59 -40.5 -99t-97.5 -40zM794.5 1135q-57.5 0 -98.5 39.5t-41 99.5q0 57 41 97t98.5 40t98.5 -40t41 -97q0 -59 -41 -99t-98.5 -40zM66 496q0 219 144 368.5t368 149.5q221 0 358 -150.5 t137 -394.5v-57h-735q12 -98 88 -164t197 -66q162 0 264 99l114 -168q-150 -137 -407 -138q-229 0 -378.5 144t-149.5 377zM578 807q-111 0 -172.5 -66.5t-71.5 -152.5h487q-6 84 -66 151.5t-177 67.5z" glyph-name="edieresis" horiz-adv-x="1132" unicode="ë"/><glyph d="M168 1139l-332 295h240l274 -295h-182zM129 0v989h260v-989h-260z" glyph-name="igrave" horiz-adv-x="518" unicode="ì"/><glyph d="M342 1139h-182l274 295h240zM129 0v989h260v-989h-260z" glyph-name="iacute" horiz-adv-x="518" unicode="í"/><glyph d="M408 1139l-150 182l-145 -182h-160l188 295h234l192 -295h-159zM129 0v989h260v-989h-260z" glyph-name="icircumflex" horiz-adv-x="518" unicode="î"/><glyph d="M43 1135q-59 0 -99 39.5t-40 99.5q0 57 41 97t98 40t97 -40t40 -97q0 -59 -40 -99t-97 -40zM475 1135q-57 0 -98 39.5t-41 99.5q0 57 41 97t98 40t98 -40t41 -97q0 -59 -41 -99t-98 -40zM129 0v989h260v-989h-260z" glyph-name="idieresis" horiz-adv-x="518" unicode="ï"/><glyph d="M760 1204q352 -313 352 -688q0 -244 -141.5 -392.5t-382.5 -148.5q-233 0 -377.5 135.5t-144.5 348.5q0 211 125.5 347t312.5 136q209 0 327 -190q-72 162 -321 340l-299 -131l-51 122l221 97q-68 41 -127 75l141 211q162 -98 252 -170l211 93l51 -119zM588 207 q117 0 185.5 72.5t68.5 179t-68.5 179.5t-185.5 73t-184.5 -73t-67.5 -179.5t67.5 -179t184.5 -72.5z" glyph-name="eth" horiz-adv-x="1175" unicode="ð"/><glyph d="M553 1219q-51 55 -82 55q-74 0 -74 -127h-137q0 131 57.5 202.5t163.5 71.5q78 0 154 -84q53 -53 84 -53q74 0 74 125h137q0 -131 -56.5 -202.5t-162.5 -71.5q-82 0 -158 84zM797 0v598q0 184 -183 184q-141 0 -225 -116v-666h-260v989h260v-129q129 154 346 154 q160 0 241 -84t81 -232v-698h-260z" glyph-name="ntilde" unicode="ñ"/><glyph d="M498 1139l-332 295h240l274 -295h-182zM587.5 -25q-237.5 0 -379.5 150.5t-142 370t142 369t379.5 149.5t381 -149.5t143.5 -369t-143.5 -370t-381 -150.5zM588 207q117 0 185.5 83t68.5 206q0 121 -68.5 203.5t-185.5 82.5t-184.5 -83t-67.5 -203q0 -123 67.5 -206 t184.5 -83z" glyph-name="ograve" horiz-adv-x="1175" unicode="ò"/><glyph d="M672 1139h-183l275 295h240zM587.5 -25q-237.5 0 -379.5 150.5t-142 370t142 369t379.5 149.5t381 -149.5t143.5 -369t-143.5 -370t-381 -150.5zM588 207q117 0 185.5 83t68.5 206q0 121 -68.5 203.5t-185.5 82.5t-184.5 -83t-67.5 -203q0 -123 67.5 -206t184.5 -83z" glyph-name="oacute" horiz-adv-x="1175" unicode="ó"/><glyph d="M737 1139l-149 182l-146 -182h-159l188 295h234l192 -295h-160zM587.5 -25q-237.5 0 -379.5 150.5t-142 370t142 369t379.5 149.5t381 -149.5t143.5 -369t-143.5 -370t-381 -150.5zM588 207q117 0 185.5 83t68.5 206q0 121 -68.5 203.5t-185.5 82.5t-184.5 -83 t-67.5 -203q0 -123 67.5 -206t184.5 -83z" glyph-name="ocircumflex" horiz-adv-x="1175" unicode="ô"/><glyph d="M547 1219q-51 55 -82 55q-74 0 -74 -127h-137q0 131 57.5 202.5t163.5 71.5q78 0 154 -84q53 -53 84 -53q74 0 73 125h138q0 -131 -56.5 -202.5t-162.5 -71.5q-82 0 -158 84zM587.5 -25q-237.5 0 -379.5 150.5t-142 370t142 369t379.5 149.5t381 -149.5t143.5 -369 t-143.5 -370t-381 -150.5zM588 207q117 0 185.5 83t68.5 206q0 121 -68.5 203.5t-185.5 82.5t-184.5 -83t-67.5 -203q0 -123 67.5 -206t184.5 -83z" glyph-name="otilde" horiz-adv-x="1175" unicode="õ"/><glyph d="M373 1135q-59 0 -99.5 39.5t-40.5 99.5q0 57 41 97t98.5 40t97.5 -40t40 -97q0 -59 -40 -99t-97 -40zM805 1135q-57 0 -98 39.5t-41 99.5q0 57 41 97t98 40t98 -40t41 -97q0 -59 -41 -99t-98 -40zM587.5 -25q-237.5 0 -379.5 150.5t-142 370t142 369t379.5 149.5 t381 -149.5t143.5 -369t-143.5 -370t-381 -150.5zM588 207q117 0 185.5 83t68.5 206q0 121 -68.5 203.5t-185.5 82.5t-184.5 -83t-67.5 -203q0 -123 67.5 -206t184.5 -83z" glyph-name="odieresis" horiz-adv-x="1175" unicode="ö"/><glyph d="M522 930q-51 0 -88 37t-37 90q0 51 37 87t88 36t88 -36t37 -87q0 -53 -37 -90t-88 -37zM59 610v162h928v-162h-928zM522 197q-51 0 -88 36.5t-37 88t37 88t88 36.5t88 -36.5t37 -88t-37 -88t-88 -36.5z" glyph-name="divide" horiz-adv-x="1046" unicode="÷"/><glyph d="M973 858q139 -145 139 -362q0 -219 -143.5 -370t-380.5 -151q-170 0 -297 82l-49 -57h-160l117 137q-133 145 -133 359q0 219 142 368.5t380 149.5q166 0 289 -78l45 53h163zM336 496q0 -92 35 -156l346 408q-53 35 -129 34q-117 0 -184.5 -82.5t-67.5 -203.5zM588 207 q117 0 185.5 83t68.5 206q0 88 -39 161l-352 -411q61 -39 137 -39z" glyph-name="oslash" horiz-adv-x="1175" unicode="ø"/><glyph d="M502 1139l-332 295h240l274 -295h-182zM797 0v125q-133 -150 -348 -150q-160 0 -240 82t-80 230v702h260v-600q0 -182 182 -182q137 0 226 112v670h260v-989h-260z" glyph-name="ugrave" unicode="ù"/><glyph d="M676 1139h-182l274 295h240zM797 0v125q-133 -150 -348 -150q-160 0 -240 82t-80 230v702h260v-600q0 -182 182 -182q137 0 226 112v670h260v-989h-260z" glyph-name="uacute" unicode="ú"/><glyph d="M743 1139l-149 182l-145 -182h-160l188 295h234l192 -295h-160zM797 0v125q-133 -150 -348 -150q-160 0 -240 82t-80 230v702h260v-600q0 -182 182 -182q137 0 226 112v670h260v-989h-260z" glyph-name="ucircumflex" unicode="û"/><glyph d="M377 1135q-59 0 -99 39.5t-40 99.5q0 57 40.5 97t98 40t97.5 -40t40 -97q0 -59 -40 -99t-97 -40zM809 1135q-57 0 -98 39.5t-41 99.5q0 57 41 97t98 40t98 -40t41 -97q0 -59 -41 -99t-98 -40zM797 0v125q-133 -150 -348 -150q-160 0 -240 82t-80 230v702h260v-600 q0 -182 182 -182q137 0 226 112v670h260v-989h-260z" glyph-name="udieresis" unicode="ü"/><glyph d="M608 1139h-182l274 295h240zM133 -154q37 -16 82 -16q104 0 137 72l37 84l-401 1003h278l258 -688l258 688h281l-465 -1151q-51 -131 -143.5 -183t-231.5 -56q-72 0 -129 14z" glyph-name="yacute" horiz-adv-x="1050" unicode="ý"/><glyph d="M389 127v-504h-260v1743h260v-502q117 150 305 150q195 0 317 -138.5t122 -380t-122 -381t-317 -139.5q-186 0 -305 152zM862 496q0 127 -68.5 206.5t-181.5 79.5q-63 0 -126.5 -32.5t-96.5 -79.5v-351q33 -47 97.5 -79.5t125.5 -32.5q113 0 181.5 80t68.5 209z" glyph-name="thorn" horiz-adv-x="1198" unicode="þ"/><glyph d="M309 1135q-59 0 -99 39.5t-40 99.5q0 57 41 97t98.5 40t97 -40t39.5 -97q0 -59 -40 -99t-97 -40zM741.5 1135q-57.5 0 -98.5 39.5t-41 99.5q0 57 41 97t98.5 40t98.5 -40t41 -97q0 -59 -41 -99t-98.5 -40zM133 -154q37 -16 82 -16q104 0 137 72l37 84l-401 1003h278 l258 -688l258 688h281l-465 -1151q-51 -131 -143.5 -183t-231.5 -56q-72 0 -129 14z" glyph-name="ydieresis" horiz-adv-x="1050" unicode="ÿ"/><glyph d="M356 1493v147h686v-147h-686zM1092 0l-86 236h-611l-86 -236h-319l528 1366h365l526 -1366h-317zM700 1114l-227 -627h453z" glyph-name="Amacron" horiz-adv-x="1400" unicode="Ā"/><glyph d="M211 1151v147h686v-147h-686zM723 0v102q-106 -127 -313 -127q-133 0 -238.5 87.5t-105.5 240.5q0 160 103 237.5t241 77.5q215 0 313 -120v137q0 76 -59.5 121t-157.5 45q-164 0 -289 -117l-98 174q176 156 432 156q190 0 311 -88t121 -287v-639h-260zM723 238v122 q-63 86 -209 86q-80 0 -133 -39.5t-53 -109.5q0 -68 53 -106.5t133 -38.5q146 0 209 86z" glyph-name="amacron" horiz-adv-x="1112" unicode="ā"/><glyph d="M700 1475q-223 0 -360 180l115 94q92 -127 245 -127q150 0 244 127l115 -94q-134 -180 -359 -180zM1092 0l-86 236h-611l-86 -236h-319l528 1366h365l526 -1366h-317zM700 1114l-227 -627h453z" glyph-name="Abreve" horiz-adv-x="1400" unicode="Ă"/><glyph d="M555 1133q-223 0 -360 180l114 94q92 -127 246 -127q150 0 244 127l114 -94q-133 -180 -358 -180zM723 0v102q-106 -127 -313 -127q-133 0 -238.5 87.5t-105.5 240.5q0 160 103 237.5t241 77.5q215 0 313 -120v137q0 76 -59.5 121t-157.5 45q-164 0 -289 -117l-98 174 q176 156 432 156q190 0 311 -88t121 -287v-639h-260zM723 238v122q-63 86 -209 86q-80 0 -133 -39.5t-53 -109.5q0 -68 53 -106.5t133 -38.5q146 0 209 86z" glyph-name="abreve" horiz-adv-x="1112" unicode="ă"/><glyph d="M1348 0q-180 -53 -181 -156q0 -29 20.5 -46t49.5 -17q31 0 59 14l50 -139q-66 -37 -181 -37q-94 0 -162.5 41t-68.5 123q0 131 221 217h-63l-86 236h-611l-86 -236h-319l528 1366h365l526 -1366h-61zM473 487h453l-226 627z" glyph-name="Aogonek" horiz-adv-x="1400" unicode="Ą"/><glyph d="M551 1014q190 0 311 -88t121 -287v-639q-180 -53 -180 -156q0 -29 20.5 -46t48.5 -17q31 0 60 14l49 -139q-66 -37 -180 -37q-94 0 -163 41t-69 123q0 131 222 217h-68v102q-106 -127 -313 -127q-133 0 -238.5 87.5t-105.5 240.5q0 160 103 237.5t241 77.5 q215 0 313 -120v137q0 76 -59.5 121t-157.5 45q-164 0 -289 -117l-98 174q176 156 432 156zM723 238v122q-63 86 -209 86q-80 0 -133 -39.5t-53 -109.5q0 -68 53 -106.5t133 -38.5q146 0 209 86z" glyph-name="aogonek" horiz-adv-x="1112" unicode="ą"/><glyph d="M870 1481h-182l275 295h239zM786 -25q-305 0 -510.5 198t-205.5 509t205.5 509t510.5 198q393 0 582 -334l-250 -123q-45 86 -134 142t-198 56q-178 0 -297.5 -128t-119.5 -320.5t119.5 -320.5t297.5 -128q111 0 199 55.5t133 143.5l250 -121q-195 -336 -582 -336z" glyph-name="Cacute" horiz-adv-x="1406" unicode="Ć"/><glyph d="M668 1139h-183l275 295h239zM66 496q0 227 147 372.5t377 145.5q262 0 391 -178l-170 -160q-72 106 -209 106q-119 0 -193.5 -78.5t-74.5 -207.5t74.5 -209t193.5 -80q133 0 209 106l170 -157q-129 -180 -391 -181q-229 0 -376.5 146t-147.5 375z" glyph-name="cacute" horiz-adv-x="1021" unicode="ć"/><glyph d="M938 1481l-150 182l-145 -182h-160l189 295h233l193 -295h-160zM786 -25q-305 0 -510.5 198t-205.5 509t205.5 509t510.5 198q393 0 582 -334l-250 -123q-45 86 -134 142t-198 56q-178 0 -297.5 -128t-119.5 -320.5t119.5 -320.5t297.5 -128q111 0 199 55.5t133 143.5 l250 -121q-195 -336 -582 -336z" glyph-name="Ccircumflex" horiz-adv-x="1406" unicode="Ĉ"/><glyph d="M735 1139l-149 182l-146 -182h-159l188 295h233l193 -295h-160zM66 496q0 227 147 372.5t377 145.5q262 0 391 -178l-170 -160q-72 106 -209 106q-119 0 -193.5 -78.5t-74.5 -207.5t74.5 -209t193.5 -80q133 0 209 106l170 -157q-129 -180 -391 -181q-229 0 -376.5 146 t-147.5 375z" glyph-name="ccircumflex" horiz-adv-x="1021" unicode="ĉ"/><glyph d="M647 1613.5q0 57.5 41 98.5t98.5 41t97.5 -41t40 -98.5t-40 -98t-97.5 -40.5t-98.5 40.5t-41 98zM786 -25q-305 0 -510.5 198t-205.5 509t205.5 509t510.5 198q393 0 582 -334l-250 -123q-45 86 -134 142t-198 56q-178 0 -297.5 -128t-119.5 -320.5t119.5 -320.5 t297.5 -128q111 0 199 55.5t133 143.5l250 -121q-195 -336 -582 -336z" glyph-name="Cdotaccent" horiz-adv-x="1406" unicode="Ċ"/><glyph d="M444 1271.5q0 57.5 41 98.5t98.5 41t97.5 -41t40 -98.5t-40 -98t-97.5 -40.5t-98.5 40.5t-41 98zM66 496q0 227 147 372.5t377 145.5q262 0 391 -178l-170 -160q-72 106 -209 106q-119 0 -193.5 -78.5t-74.5 -207.5t74.5 -209t193.5 -80q133 0 209 106l170 -157 q-129 -180 -391 -181q-229 0 -376.5 146t-147.5 375z" glyph-name="cdotaccent" horiz-adv-x="1021" unicode="ċ"/><glyph d="M672 1481l-195 295h160l151 -185l144 185h160l-187 -295h-233zM786 -25q-305 0 -510.5 198t-205.5 509t205.5 509t510.5 198q393 0 582 -334l-250 -123q-45 86 -134 142t-198 56q-178 0 -297.5 -128t-119.5 -320.5t119.5 -320.5t297.5 -128q111 0 199 55.5t133 143.5 l250 -121q-195 -336 -582 -336z" glyph-name="Ccaron" horiz-adv-x="1406" unicode="Č"/><glyph d="M469 1139l-195 295h160l152 -185l143 185h160l-187 -295h-233zM66 496q0 227 147 372.5t377 145.5q262 0 391 -178l-170 -160q-72 106 -209 106q-119 0 -193.5 -78.5t-74.5 -207.5t74.5 -209t193.5 -80q133 0 209 106l170 -157q-129 -180 -391 -181q-229 0 -376.5 146 t-147.5 375z" glyph-name="ccaron" horiz-adv-x="1021" unicode="č"/><glyph d="M621 1481l-195 295h160l151 -185l144 185h159l-186 -295h-233zM135 0v1366h539q322 0 523.5 -188.5t201.5 -495.5t-201 -494.5t-524 -187.5h-539zM426 256h248q197 0 312.5 123t115.5 303q0 188 -112.5 308t-315.5 120h-248v-854z" glyph-name="Dcaron" horiz-adv-x="1470" unicode="Ď"/><glyph d="M1253 918l-88 71q41 25 80 72t49 90q-12 -4 -32 -4q-47 0 -78 31.5t-31 83.5q0 53 37 91t90 38q59 0 101 -45.5t42 -122.5q0 -90 -46 -171t-124 -134zM809 0v127q-121 -152 -305 -152q-193 0 -315.5 138.5t-122.5 380.5q0 238 122.5 379t315.5 141q188 0 305 -152v504 h262v-1366h-262zM809 319v351q-33 49 -96.5 80.5t-128.5 31.5q-111 0 -180.5 -79.5t-69.5 -208.5q0 -127 69.5 -207t180.5 -80q66 0 129 31.5t96 80.5z" glyph-name="dcaron" horiz-adv-x="1413" unicode="ď"/><glyph d="M723 1366q324 0 525.5 -188.5t201.5 -495.5t-201.5 -494.5t-523.5 -187.5h-541v565h-168v221h168v580h539zM723 256q197 0 312.5 123t115.5 303q0 188 -111.5 308t-314.5 120h-248v-324h305v-221h-305v-309h246z" glyph-name="Dcroat" horiz-adv-x="1519" unicode="Đ"/><glyph d="M1192 1231v-150h-121v-1081h-262v127q-121 -152 -305 -152q-193 0 -315.5 138.5t-122.5 380.5q0 238 122.5 379t315.5 141q188 0 305 -152v219h-297v150h297v135h262v-135h121zM809 319v351q-33 49 -96.5 80.5t-128.5 31.5q-111 0 -180.5 -79.5t-69.5 -208.5 q0 -127 69.5 -207t180.5 -80q66 0 129 31.5t96 80.5z" glyph-name="dcroat" horiz-adv-x="1208" unicode="đ"/><glyph d="M287 1493v147h686v-147h-686zM135 0v1366h967v-250h-676v-297h661v-250h-661v-317h676v-252h-967z" glyph-name="Emacron" horiz-adv-x="1193" unicode="Ē"/><glyph d="M233 1151v147h687v-147h-687zM66 496q0 219 144 368.5t368 149.5q221 0 358 -150.5t137 -394.5v-57h-735q12 -98 88 -164t197 -66q162 0 264 99l114 -168q-150 -137 -407 -138q-229 0 -378.5 144t-149.5 377zM578 807q-111 0 -172.5 -66.5t-71.5 -152.5h487 q-6 84 -66 151.5t-177 67.5z" glyph-name="emacron" horiz-adv-x="1132" unicode="ē"/><glyph d="M631 1475q-223 0 -361 180l115 94q92 -127 246 -127q150 0 243 127l115 -94q-133 -180 -358 -180zM135 0v1366h967v-250h-676v-297h661v-250h-661v-317h676v-252h-967z" glyph-name="Ebreve" horiz-adv-x="1193" unicode="Ĕ"/><glyph d="M578 1133q-223 0 -361 180l115 94q92 -127 246 -127q150 0 243 127l115 -94q-133 -180 -358 -180zM66 496q0 219 144 368.5t368 149.5q221 0 358 -150.5t137 -394.5v-57h-735q12 -98 88 -164t197 -66q162 0 264 99l114 -168q-150 -137 -407 -138q-229 0 -378.5 144 t-149.5 377zM578 807q-111 0 -172.5 -66.5t-71.5 -152.5h487q-6 84 -66 151.5t-177 67.5z" glyph-name="ebreve" horiz-adv-x="1132" unicode="ĕ"/><glyph d="M492 1613.5q0 57.5 40.5 98.5t98 41t97.5 -41t40 -98.5t-40 -98t-97.5 -40.5t-98 40.5t-40.5 98zM135 0v1366h967v-250h-676v-297h661v-250h-661v-317h676v-252h-967z" glyph-name="Edotaccent" horiz-adv-x="1193" unicode="Ė"/><glyph d="M438 1271.5q0 57.5 41 98.5t98.5 41t97.5 -41t40 -98.5t-40 -98t-97.5 -40.5t-98.5 40.5t-41 98zM66 496q0 219 144 368.5t368 149.5q221 0 358 -150.5t137 -394.5v-57h-735q12 -98 88 -164t197 -66q162 0 264 99l114 -168q-150 -137 -407 -138q-229 0 -378.5 144 t-149.5 377zM578 807q-111 0 -172.5 -66.5t-71.5 -152.5h487q-6 84 -66 151.5t-177 67.5z" glyph-name="edotaccent" horiz-adv-x="1132" unicode="ė"/><glyph d="M1102 1116h-676v-297h661v-250h-661v-317h676v-252h-2q-180 -53 -180 -156q0 -29 20.5 -46t48.5 -17q31 0 60 14l49 -139q-66 -37 -180 -37q-94 0 -163 41t-69 123q0 131 221 217h-772v1366h967v-250z" glyph-name="Eogonek" horiz-adv-x="1193" unicode="Ę"/><glyph d="M594 -25q-229 0 -378.5 143.5t-149.5 377.5q0 219 144 368.5t368 149.5q221 0 358 -150.5t137 -394.5v-57h-735q12 -98 88 -164t197 -66q66 0 142.5 27t121.5 72l114 -168q-197 -147 -196 -256q0 -37 20.5 -56.5t51.5 -19.5q33 0 59 14l51 -139q-68 -37 -182 -37 q-94 0 -163 41t-69 123q0 117 160 207q-67 -15 -139 -15zM578 807q-111 0 -172.5 -66.5t-71.5 -152.5h487q-6 84 -66 151.5t-177 67.5z" glyph-name="eogonek" horiz-adv-x="1132" unicode="ę"/><glyph d="M516 1481l-194 295h159l152 -185l143 185h160l-186 -295h-234zM135 0v1366h967v-250h-676v-297h661v-250h-661v-317h676v-252h-967z" glyph-name="Ecaron" horiz-adv-x="1193" unicode="Ě"/><glyph d="M463 1139l-195 295h160l152 -185l143 185h160l-187 -295h-233zM66 496q0 219 144 368.5t368 149.5q221 0 358 -150.5t137 -394.5v-57h-735q12 -98 88 -164t197 -66q162 0 264 99l114 -168q-150 -137 -407 -138q-229 0 -378.5 144t-149.5 377zM578 807 q-111 0 -172.5 -66.5t-71.5 -152.5h487q-6 84 -66 151.5t-177 67.5z" glyph-name="ecaron" horiz-adv-x="1132" unicode="ě"/><glyph d="M948 1481l-149 182l-146 -182h-159l188 295h233l193 -295h-160zM70 682q0 317 209.5 512t517.5 195q373 0 565 -299l-242 -132q-51 76 -136 124t-187 48q-186 0 -307 -126.5t-121 -321.5t120.5 -322t307.5 -127q178 0 295 105v166h-365v250h651v-523q-231 -258 -581 -258 q-307 0 -517 197t-210 512z" glyph-name="Gcircumflex" horiz-adv-x="1474" unicode="Ĝ"/><glyph d="M756 1139l-150 182l-145 -182h-160l188 295h234l192 -295h-159zM109 -254l116 188q111 -123 310 -122q111 0 191.5 58t80.5 191v101q-123 -156 -305 -156q-193 0 -314.5 132t-121.5 372q0 238 121.5 371t314.5 133q184 0 305 -152v127h262v-921q0 -135 -48 -231.5 t-130 -145.5t-169 -70.5t-187 -21.5q-256 0 -426 147zM807 350v320q-33 49 -95.5 80.5t-127.5 31.5q-113 0 -181.5 -73.5t-68.5 -198.5t68.5 -198.5t181.5 -73.5q63 0 126.5 32.5t96.5 79.5z" glyph-name="gcircumflex" horiz-adv-x="1198" unicode="ĝ"/><glyph d="M797 1475q-223 0 -361 180l115 94q92 -127 246 -127q150 0 243 127l115 -94q-133 -180 -358 -180zM70 682q0 317 209.5 512t517.5 195q373 0 565 -299l-242 -132q-51 76 -136 124t-187 48q-186 0 -307 -126.5t-121 -321.5t120.5 -322t307.5 -127q178 0 295 105v166h-365 v250h651v-523q-231 -258 -581 -258q-307 0 -517 197t-210 512z" glyph-name="Gbreve" horiz-adv-x="1474" unicode="Ğ"/><glyph d="M604 1133q-223 0 -360 180l114 94q92 -127 246 -127q150 0 244 127l115 -94q-134 -180 -359 -180zM109 -254l116 188q111 -123 310 -122q111 0 191.5 58t80.5 191v101q-123 -156 -305 -156q-193 0 -314.5 132t-121.5 372q0 238 121.5 371t314.5 133q184 0 305 -152v127 h262v-921q0 -135 -48 -231.5t-130 -145.5t-169 -70.5t-187 -21.5q-256 0 -426 147zM807 350v320q-33 49 -95.5 80.5t-127.5 31.5q-113 0 -181.5 -73.5t-68.5 -198.5t68.5 -198.5t181.5 -73.5q63 0 126.5 32.5t96.5 79.5z" glyph-name="gbreve" horiz-adv-x="1198" unicode="ğ"/><glyph d="M657 1613.5q0 57.5 41 98.5t98.5 41t97.5 -41t40 -98.5t-40 -98t-97.5 -40.5t-98.5 40.5t-41 98zM70 682q0 317 209.5 512t517.5 195q373 0 565 -299l-242 -132q-51 76 -136 124t-187 48q-186 0 -307 -126.5t-121 -321.5t120.5 -322t307.5 -127q178 0 295 105v166h-365 v250h651v-523q-231 -258 -581 -258q-307 0 -517 197t-210 512z" glyph-name="Gdotaccent" horiz-adv-x="1474" unicode="Ġ"/><glyph d="M465 1271.5q0 57.5 41 98.5t98.5 41t97 -41t39.5 -98.5t-39.5 -98t-97 -40.5t-98.5 40.5t-41 98zM109 -254l116 188q111 -123 310 -122q111 0 191.5 58t80.5 191v101q-123 -156 -305 -156q-193 0 -314.5 132t-121.5 372q0 238 121.5 371t314.5 133q184 0 305 -152v127 h262v-921q0 -135 -48 -231.5t-130 -145.5t-169 -70.5t-187 -21.5q-256 0 -426 147zM807 350v320q-33 49 -95.5 80.5t-127.5 31.5q-113 0 -181.5 -73.5t-68.5 -198.5t68.5 -198.5t181.5 -73.5q63 0 126.5 32.5t96.5 79.5z" glyph-name="gdotaccent" horiz-adv-x="1198" unicode="ġ"/><glyph d="M70 682q0 317 209.5 512t517.5 195q373 0 565 -299l-242 -132q-51 76 -136 124t-187 48q-186 0 -307 -126.5t-121 -321.5t120.5 -322t307.5 -127q178 0 295 105v166h-365v250h651v-523q-231 -258 -581 -258q-307 0 -517 197t-210 512zM772 -590l-90 72q43 25 82 72t47 90 q-8 -4 -31 -4q-47 0 -77.5 31.5t-30.5 82.5q0 53 36.5 91t88.5 38q59 0 102 -45t43 -121q0 -186 -170 -307z" glyph-name="Gcommaaccent" horiz-adv-x="1474" unicode="Ģ"/><glyph d="M633 1591l88 -71q-41 -23 -81 -68t-46 -86q2 0 6 1t8 1q47 0 85 -35t38 -86q0 -53 -38 -91t-93 -38q-49 0 -90 38t-41 118q0 204 164 317zM109 -254l116 188q111 -123 310 -122q111 0 191.5 58t80.5 191v101q-123 -156 -305 -156q-193 0 -314.5 132t-121.5 372 q0 238 121.5 371t314.5 133q184 0 305 -152v127h262v-921q0 -135 -48 -231.5t-130 -145.5t-169 -70.5t-187 -21.5q-256 0 -426 147zM807 350v320q-33 49 -95.5 80.5t-127.5 31.5q-113 0 -181.5 -73.5t-68.5 -198.5t68.5 -198.5t181.5 -73.5q63 0 126.5 32.5t96.5 79.5z" glyph-name="gcommaaccent" horiz-adv-x="1198" unicode="ģ"/><glyph d="M901 1481l-149 182l-146 -182h-160l189 295h233l193 -295h-160zM1071 0v573h-645v-573h-291v1366h291v-537h645v537h293v-1366h-293z" glyph-name="Hcircumflex" horiz-adv-x="1497" unicode="Ĥ"/><glyph d="M745 1481l-149 182l-145 -182h-160l188 295h234l192 -295h-160zM799 0v602q0 98 -47 139t-138 41q-137 0 -225 -116v-666h-260v1366h260v-506q53 63 144.5 108.5t203.5 45.5q160 0 241 -82t81 -230v-702h-260z" glyph-name="hcircumflex" horiz-adv-x="1187" unicode="ĥ"/><glyph d="M1520 1167v-147h-140v-1020h-293v573h-643v-573h-292v1020h-136v147h136v199h292v-199h643v199h293v-199h140zM1087 829v191h-643v-191h643z" glyph-name="Hbar" horiz-adv-x="1531" unicode="Ħ"/><glyph d="M745 1014q160 0 241 -82t81 -230v-702h-260v602q0 180 -184 180q-137 0 -226 -116v-666h-262v1081h-119v150h119v135h262v-135h299v-150h-299v-221q53 63 144 108.5t204 45.5z" glyph-name="hbar" horiz-adv-x="1196" unicode="ħ"/><glyph d="M240 1561q-51 55 -82 55q-74 0 -74 -127h-137q0 131 57 202.5t164 71.5q78 0 154 -84q53 -53 84 -53q74 0 73 125h137q0 -131 -56 -202.5t-163 -71.5q-81 0 -157 84zM135 0v1366h291v-1366h-291z" glyph-name="Itilde" horiz-adv-x="561" unicode="Ĩ"/><glyph d="M217 1219q-51 55 -82 55q-74 0 -74 -127h-137q0 131 57.5 202.5t163.5 71.5q78 0 154 -84q53 -53 84 -53q74 0 74 125h137q0 -131 -56.5 -202.5t-162.5 -71.5q-82 0 -158 84zM129 0v989h260v-989h-260z" glyph-name="itilde" horiz-adv-x="518" unicode="ĩ"/><glyph d="M-63 1493v147h686v-147h-686zM135 0v1366h291v-1366h-291z" glyph-name="Imacron" horiz-adv-x="561" unicode="Ī"/><glyph d="M-86 1151v147h686v-147h-686zM129 0v989h260v-989h-260z" glyph-name="imacron" horiz-adv-x="518" unicode="ī"/><glyph d="M281 1475q-223 0 -361 180l115 94q92 -127 246 -127q150 0 243 127l115 -94q-133 -180 -358 -180zM135 0v1366h291v-1366h-291z" glyph-name="Ibreve" horiz-adv-x="561" unicode="Ĭ"/><glyph d="M258 1133q-223 0 -360 180l114 94q92 -127 246 -127q150 0 244 127l114 -94q-133 -180 -358 -180zM129 0v989h260v-989h-260z" glyph-name="ibreve" horiz-adv-x="518" unicode="ĭ"/><glyph d="M135 1366h291v-1366q-180 -53 -180 -156q0 -29 20.5 -46t48.5 -17q31 0 60 14l49 -139q-66 -37 -180 -37q-94 0 -163 41t-69 123q0 131 221 217h-98v1366z" glyph-name="Iogonek" horiz-adv-x="561" unicode="Į"/><glyph d="M258 1116q-63 0 -109.5 46t-46.5 109.5t46.5 109.5t109.5 46q66 0 111 -46t45 -109.5t-45 -109.5t-111 -46zM129 0v989h260v-989q-180 -53 -180 -156q0 -29 20.5 -46t49.5 -17q31 0 59 14l49 -139q-66 -37 -180 -37q-94 0 -164 41t-70 123q0 129 224 217h-68z" glyph-name="iogonek" horiz-adv-x="518" unicode="į"/><glyph d="M143 1613.5q0 57.5 41 98.5t98.5 41t97.5 -41t40 -98.5t-40 -98t-97.5 -40.5t-98.5 40.5t-41 98zM135 0v1366h291v-1366h-291z" glyph-name="Idotaccent" horiz-adv-x="561" unicode="İ"/><glyph d="M129 0v989h260v-989h-260z" glyph-name="dotlessi" horiz-adv-x="518" unicode="ı"/><glyph d="M135 0v1366h291v-1366h-291zM573 109l127 223q102 -98 218 -99q96 0 154 59.5t58 160.5v913h291v-917q0 -233 -131 -353.5t-350 -120.5q-232 1 -367 134z" glyph-name="IJ" horiz-adv-x="1556" unicode="Ĳ"/><glyph d="M258 1116q-63 0 -109.5 46t-46.5 109.5t46.5 109.5t109.5 46q66 0 111 -46t45 -109.5t-45 -109.5t-111 -46zM776.5 1116q-63.5 0 -109.5 46t-46 109.5t46 109.5t109.5 46t109.5 -46t46 -109.5t-46 -109.5t-109.5 -46zM129 0v989h260v-989h-260zM907 989v-1016 q0 -174 -89 -274t-263 -100q-61 0 -113 10l17 213q29 -6 57 -6q59 0 95 39t36 118v1016h260z" glyph-name="ij" horiz-adv-x="1034" unicode="ĳ"/><glyph d="M870 1481l-149 182l-146 -182h-159l188 295h234l192 -295h-160zM12 109l127 223q102 -98 217 -99q96 0 154.5 59.5t58.5 160.5v913h291v-917q0 -233 -131 -353.5t-350 -120.5q-232 1 -367 134z" glyph-name="Jcircumflex" horiz-adv-x="995" unicode="Ĵ"/><glyph d="M408 1139l-150 182l-145 -182h-160l188 295h234l192 -295h-159zM-76 -391l17 213q25 -6 57 -6q59 0 95 39t36 118v1016h260v-1016q0 -174 -89 -274t-263 -100q-62 0 -113 10z" glyph-name="jcircumflex" horiz-adv-x="518" unicode="ĵ"/><glyph d="M946 0l-414 547l-106 -127v-420h-291v1366h291v-610l483 610h359l-543 -641l580 -725h-359zM637 -590l-90 72q43 25 82 72t47 90q-8 -4 -31 -4q-47 0 -77.5 31.5t-30.5 82.5q0 53 36.5 91t88.5 38q59 0 102 -45t43 -121q0 -186 -170 -307z" glyph-name="Kcommaaccent" horiz-adv-x="1302" unicode="Ķ"/><glyph d="M770 0l-262 381l-119 -127v-254h-260v1366h260v-817l375 440h319l-391 -448l404 -541h-326zM524 -590l-90 72q43 25 82 72t47 90q-8 -4 -31 -4q-47 0 -77.5 31.5t-30.5 82.5q0 53 37 91t88 38q59 0 102 -45t43 -121q0 -186 -170 -307z" glyph-name="kcommaaccent" horiz-adv-x="1095" unicode="ķ"/><glyph d="M770 0l-262 381l-119 -127v-254h-260v989h260v-440l375 440h319l-391 -448l404 -541h-326z" glyph-name="kgreenlandic" horiz-adv-x="1095" unicode="ĸ"/><glyph d="M655 1481h-182l275 295h239zM135 0v1366h291v-1110h578v-256h-869z" glyph-name="Lacute" horiz-adv-x="1071" unicode="Ĺ"/><glyph d="M342 1481h-182l274 295h240zM129 0v1366h260v-1366h-260z" glyph-name="lacute" horiz-adv-x="518" unicode="ĺ"/><glyph d="M135 0v1366h291v-1110h578v-256h-869zM545 -590l-90 72q43 25 81.5 72t47.5 90q-8 -4 -31 -4q-47 0 -78 31.5t-31 82.5q0 53 37 91t88 38q59 0 102.5 -45t43.5 -121q0 -186 -170 -307z" glyph-name="Lcommaaccent" horiz-adv-x="1071" unicode="Ļ"/><glyph d="M129 0v1366h260v-1366h-260zM233 -590l-90 72q43 25 82 72t47 90q-8 -4 -30 -4q-47 0 -78 31.5t-31 82.5q0 53 37 91t88 38q59 0 102 -45t43 -121q0 -186 -170 -307z" glyph-name="lcommaaccent" horiz-adv-x="518" unicode="ļ"/><glyph d="M690 920l-88 71q43 25 82 72t47 90q-12 -4 -33 -4q-45 0 -76.5 32.5t-31.5 82.5q0 53 37 91t90 38q59 0 101 -45t42 -121q0 -186 -170 -307zM135 0v1366h291v-1110h578v-256h-869z" glyph-name="Lcaron" horiz-adv-x="1071" unicode="Ľ"/><glyph d="M573 920l-90 71q43 25 82 73t47 91q-6 -6 -32 -6q-45 0 -77 32.5t-32 84.5q0 53 37 90t90 37q59 0 101 -45t42 -121q0 -184 -168 -307zM129 0v1366h260v-1366h-260z" glyph-name="lcaron" horiz-adv-x="724" unicode="ľ"/><glyph d="M135 0v1366h291v-1110h578v-256h-869zM833.5 535q-67.5 0 -116.5 49t-49 114q0 68 49 117t116.5 49t115.5 -49t48 -117q0 -66 -48 -114.5t-115.5 -48.5z" glyph-name="Ldot" horiz-adv-x="1110" unicode="Ŀ"/><glyph d="M129 0v1366h260v-1366h-260zM651.5 336q-67.5 0 -117 49t-49.5 115q0 68 49.5 117t117 49t116.5 -49.5t49 -116.5q0 -66 -49 -115t-116.5 -49z" glyph-name="ldot" horiz-adv-x="786" unicode="ŀ"/><glyph d="M455 256h577v-256h-868v477l-148 -84v238l148 84v651h291v-483l157 90v-238l-157 -90v-389z" glyph-name="Lslash" horiz-adv-x="1099" unicode="Ł"/><glyph d="M612 950v-190l-166 -94v-666h-262v514l-168 -96v190l168 97v661h262v-512z" glyph-name="lslash" horiz-adv-x="630" unicode="ł"/><glyph d="M831 1481h-182l275 295h239zM1077 0l-651 918v-918h-291v1366h299l633 -885v885h291v-1366h-281z" glyph-name="Nacute" horiz-adv-x="1492" unicode="Ń"/><glyph d="M678 1139h-182l274 295h240zM797 0v598q0 184 -183 184q-141 0 -225 -116v-666h-260v989h260v-129q129 154 346 154q160 0 241 -84t81 -232v-698h-260z" glyph-name="nacute" unicode="ń"/><glyph d="M1077 0l-651 918v-918h-291v1366h299l633 -885v885h291v-1366h-281zM721 -590l-90 72q43 25 82 72t47 90q-8 -4 -31 -4q-47 0 -77.5 31.5t-30.5 82.5q0 53 36.5 91t87.5 38q59 0 102.5 -45t43.5 -121q0 -186 -170 -307z" glyph-name="Ncommaaccent" horiz-adv-x="1492" unicode="Ņ"/><glyph d="M797 0v598q0 184 -183 184q-141 0 -225 -116v-666h-260v989h260v-129q129 154 346 154q160 0 241 -84t81 -232v-698h-260zM567 -590l-90 72q43 25 82 72t47 90q-8 -4 -31 -4q-47 0 -77.5 31.5t-30.5 82.5q0 53 37 91t88 38q59 0 102 -45t43 -121q0 -186 -170 -307z" glyph-name="ncommaaccent" unicode="ņ"/><glyph d="M631 1481l-195 295h160l152 -185l143 185h160l-187 -295h-233zM1077 0l-651 918v-918h-291v1366h299l633 -885v885h291v-1366h-281z" glyph-name="Ncaron" horiz-adv-x="1492" unicode="Ň"/><glyph d="M477 1139l-194 295h159l152 -185l143 185h160l-186 -295h-234zM797 0v598q0 184 -183 184q-141 0 -225 -116v-666h-260v989h260v-129q129 154 346 154q160 0 241 -84t81 -232v-698h-260z" glyph-name="ncaron" unicode="ň"/><glyph d="M188 1092l-88 71q43 25 82 72t47 90q-12 -4 -32 -4q-45 0 -77 32.5t-32 82.5q0 53 37 91t90 38q59 0 101 -45t42 -123q0 -184 -170 -305zM797 0v598q0 184 -183 184q-141 0 -225 -116v-666h-260v989h260v-129q129 154 346 154q160 0 241 -84t81 -232v-698h-260z" glyph-name="napostrophe" unicode="ŉ"/><glyph d="M1067 1366h291v-1296q0 -233 -131 -352t-350 -119q-229 0 -369 133l129 223q98 -98 217 -98q82 0 137.5 44t69.5 122l-635 882v-905h-291v1366h299l633 -872v872z" glyph-name="Eng" horiz-adv-x="1492" unicode="Ŋ"/><glyph d="M1057 -27q0 -174 -89 -274t-263 -100q-59 0 -111 10l14 213q27 -6 58 -6q59 0 95 39t36 118v625q0 184 -183 184q-141 0 -225 -116v-666h-260v989h260v-129q129 154 346 154q160 0 241 -84t81 -232v-725z" glyph-name="eng" unicode="ŋ"/><glyph d="M438 1493v147h686v-147h-686zM70 682q0 307 201.5 507t510.5 200q311 0 513 -199t202 -508t-201.5 -508t-513.5 -199q-309 0 -510.5 200t-201.5 507zM1198 682q0 195 -114.5 321.5t-301 126.5t-300 -126.5t-113.5 -321.5t113.5 -322t300 -127t301 127t114.5 322z" glyph-name="Omacron" horiz-adv-x="1566" unicode="Ō"/><glyph d="M244 1151v147h686v-147h-686zM587.5 -25q-237.5 0 -379.5 150.5t-142 370t142 369t379.5 149.5t381 -149.5t143.5 -369t-143.5 -370t-381 -150.5zM588 207q117 0 185.5 83t68.5 206q0 121 -68.5 203.5t-185.5 82.5t-184.5 -83t-67.5 -203q0 -123 67.5 -206t184.5 -83z " glyph-name="omacron" horiz-adv-x="1175" unicode="ō"/><glyph d="M782 1475q-223 0 -360 180l115 94q92 -127 245 -127q150 0 244 127l115 -94q-134 -180 -359 -180zM70 682q0 307 201.5 507t510.5 200q311 0 513 -199t202 -508t-201.5 -508t-513.5 -199q-309 0 -510.5 200t-201.5 507zM1198 682q0 195 -114.5 321.5t-301 126.5 t-300 -126.5t-113.5 -321.5t113.5 -322t300 -127t301 127t114.5 322z" glyph-name="Obreve" horiz-adv-x="1566" unicode="Ŏ"/><glyph d="M588 1133q-223 0 -361 180l115 94q92 -127 246 -127q150 0 243 127l115 -94q-133 -180 -358 -180zM587.5 -25q-237.5 0 -379.5 150.5t-142 370t142 369t379.5 149.5t381 -149.5t143.5 -369t-143.5 -370t-381 -150.5zM588 207q117 0 185.5 83t68.5 206q0 121 -68.5 203.5 t-185.5 82.5t-184.5 -83t-67.5 -203q0 -123 67.5 -206t184.5 -83z" glyph-name="obreve" horiz-adv-x="1175" unicode="ŏ"/><glyph d="M698 1481h-151l178 295h209zM1004 1481h-152l178 295h209zM70 682q0 307 201.5 507t510.5 200q311 0 513 -199t202 -508t-201.5 -508t-513.5 -199q-309 0 -510.5 200t-201.5 507zM1198 682q0 195 -114.5 321.5t-301 126.5t-300 -126.5t-113.5 -321.5t113.5 -322t300 -127 t301 127t114.5 322z" glyph-name="Ohungarumlaut" horiz-adv-x="1566" unicode="Ő"/><glyph d="M504 1139h-152l178 295h209zM809 1139h-152l179 295h208zM587.5 -25q-237.5 0 -379.5 150.5t-142 370t142 369t379.5 149.5t381 -149.5t143.5 -369t-143.5 -370t-381 -150.5zM588 207q117 0 185.5 83t68.5 206q0 121 -68.5 203.5t-185.5 82.5t-184.5 -83t-67.5 -203 q0 -123 67.5 -206t184.5 -83z" glyph-name="ohungarumlaut" horiz-adv-x="1175" unicode="ő"/><glyph d="M1165 0v160q-66 -88 -179.5 -136.5t-231.5 -48.5q-299 0 -491.5 199t-192.5 508t192.5 506.5t491.5 197.5q119 0 232.5 -47t178.5 -135v162h967v-250h-674v-297h660v-250h-660v-317h674v-252h-967zM1165 893q-49 115 -146 175t-224 60q-195 0 -310.5 -124.5 t-115.5 -321.5q0 -195 115.5 -322t310.5 -127q125 0 223 62.5t147 175.5v422z" glyph-name="OE" horiz-adv-x="2220" unicode="Œ"/><glyph d="M1114 412q14 -98 89 -164t196 -66q156 0 262 97l117 -166q-154 -137 -408 -138q-246 0 -397 220q-152 -219 -385 -220q-238 0 -380 150.5t-142 370t142 369t380 149.5q229 0 387 -221q141 221 379 221q221 0 357 -150.5t136 -394.5v-57h-733zM1597 588q-6 84 -67.5 151.5 t-177.5 67.5q-111 0 -172.5 -66.5t-69.5 -152.5h487zM588 782q-113 0 -182.5 -79.5t-69.5 -206.5q0 -129 69.5 -210t182.5 -81q115 0 184.5 81t69.5 210q0 127 -69.5 206.5t-184.5 79.5z" glyph-name="oe" horiz-adv-x="1906" unicode="œ"/><glyph d="M745 1481h-182l275 295h239zM907 0l-268 489h-213v-489h-291v1366h639q211 0 335 -123t124 -317q0 -168 -87 -272.5t-212 -133.5l307 -520h-334zM936 928q0 84 -58.5 136t-146.5 52h-305v-377h305q88 0 146.5 52.5t58.5 136.5z" glyph-name="Racute" horiz-adv-x="1316" unicode="Ŕ"/><glyph d="M496 1139h-183l275 295h239zM129 0v989h260v-135q53 68 139 113t177 45v-254q-37 8 -72 8q-66 0 -139.5 -33t-104.5 -80v-653h-260z" glyph-name="racute" horiz-adv-x="737" unicode="ŕ"/><glyph d="M907 0l-268 489h-213v-489h-291v1366h639q211 0 335 -123t124 -317q0 -168 -87 -272.5t-212 -133.5l307 -520h-334zM936 928q0 84 -58.5 136t-146.5 52h-305v-377h305q88 0 146.5 52.5t58.5 136.5zM637 -590l-90 72q43 25 82 72t47 90q-8 -4 -31 -4q-47 0 -77.5 31.5 t-30.5 82.5q0 53 36.5 91t88.5 38q59 0 102 -45t43 -121q0 -186 -170 -307z" glyph-name="Rcommaaccent" horiz-adv-x="1316" unicode="Ŗ"/><glyph d="M129 0v989h260v-135q53 68 139 113t177 45v-254q-37 8 -72 8q-66 0 -139.5 -33t-104.5 -80v-653h-260zM240 -590l-90 72q43 25 81.5 72t47.5 90q-8 -4 -31 -4q-47 0 -78 31.5t-31 82.5q0 53 37 91t88 38q59 0 102.5 -45t43.5 -121q0 -186 -170 -307z" glyph-name="rcommaaccent" horiz-adv-x="737" unicode="ŗ"/><glyph d="M547 1481l-195 295h160l152 -185l143 185h160l-187 -295h-233zM907 0l-268 489h-213v-489h-291v1366h639q211 0 335 -123t124 -317q0 -168 -87 -272.5t-212 -133.5l307 -520h-334zM936 928q0 84 -58.5 136t-146.5 52h-305v-377h305q88 0 146.5 52.5t58.5 136.5z" glyph-name="Rcaron" horiz-adv-x="1316" unicode="Ř"/><glyph d="M297 1139l-195 295h160l152 -185l143 185h160l-187 -295h-233zM129 0v989h260v-135q53 68 139 113t177 45v-254q-37 8 -72 8q-66 0 -139.5 -33t-104.5 -80v-653h-260z" glyph-name="rcaron" horiz-adv-x="737" unicode="ř"/><glyph d="M688 1481h-182l274 295h240zM43 193l158 221q176 -184 434 -185q113 0 175 45t62 109q0 70 -67.5 105.5t-208.5 68.5q-70 16 -100.5 23.5t-96 28t-99.5 39t-82 51t-71.5 69.5t-42 90t-18.5 117q0 176 141.5 293.5t376.5 117.5q326 0 533 -190l-162 -213 q-162 150 -391 150q-96 0 -148.5 -38t-52.5 -101.5t63.5 -93.5t208.5 -64q63 -14 100.5 -23.5t98.5 -30t98 -40t83 -52.5t72 -69.5t43 -90t17 -116.5q0 -197 -140 -318t-406 -121q-365 1 -578 218z" glyph-name="Sacute" horiz-adv-x="1228" unicode="Ś"/><glyph d="M565 1139h-182l274 295h240zM43 129l113 182q57 -53 155.5 -94t186.5 -41q166 0 166 100q0 47 -49.5 72t-149.5 45q-72 14 -109 22.5t-99 33t-95 53t-59.5 81t-26.5 119.5q0 131 108.5 221.5t296.5 90.5q229 0 400 -135l-105 -179q-47 49 -126 82t-167 33 q-72 0 -113.5 -24.5t-41.5 -67.5t46 -64.5t142 -42.5q70 -14 109 -23t102.5 -33.5t97 -55.5t61 -86.5t27.5 -124.5q0 -139 -113.5 -228.5t-314.5 -89.5q-129 0 -246.5 41t-195.5 113z" glyph-name="sacute" horiz-adv-x="976" unicode="ś"/><glyph d="M756 1481l-150 182l-145 -182h-160l188 295h234l192 -295h-159zM43 193l158 221q176 -184 434 -185q113 0 175 45t62 109q0 70 -67.5 105.5t-208.5 68.5q-70 16 -100.5 23.5t-96 28t-99.5 39t-82 51t-71.5 69.5t-42 90t-18.5 117q0 176 141.5 293.5t376.5 117.5 q326 0 533 -190l-162 -213q-162 150 -391 150q-96 0 -148.5 -38t-52.5 -101.5t63.5 -93.5t208.5 -64q63 -14 100.5 -23.5t98.5 -30t98 -40t83 -52.5t72 -69.5t43 -90t17 -116.5q0 -197 -140 -318t-406 -121q-365 1 -578 218z" glyph-name="Scircumflex" horiz-adv-x="1228" unicode="Ŝ"/><glyph d="M633 1139l-150 182l-145 -182h-160l189 295h233l193 -295h-160zM43 129l113 182q57 -53 155.5 -94t186.5 -41q166 0 166 100q0 47 -49.5 72t-149.5 45q-72 14 -109 22.5t-99 33t-95 53t-59.5 81t-26.5 119.5q0 131 108.5 221.5t296.5 90.5q229 0 400 -135l-105 -179 q-47 49 -126 82t-167 33q-72 0 -113.5 -24.5t-41.5 -67.5t46 -64.5t142 -42.5q70 -14 109 -23t102.5 -33.5t97 -55.5t61 -86.5t27.5 -124.5q0 -139 -113.5 -228.5t-314.5 -89.5q-129 0 -246.5 41t-195.5 113z" glyph-name="scircumflex" horiz-adv-x="976" unicode="ŝ"/><glyph d="M1167 414q0 -188 -130 -308t-375 -131l-35 -79q29 20 73 20q57 0 97.5 -40t40.5 -101q0 -80 -65.5 -128t-162.5 -48q-143 0 -225 65l51 107q78 -61 166 -62q45 0 76 18.5t31 51.5q0 51 -60 51q-37 0 -65 -29l-95 54l46 125q-305 23 -492 213l158 221q176 -184 434 -185 q113 0 175 45t62 109q0 70 -67.5 105.5t-208.5 68.5q-70 16 -100.5 23.5t-96 28t-99.5 39t-82 51t-71.5 69.5t-42 90t-18.5 117q0 176 141.5 293.5t376.5 117.5q326 0 533 -190l-162 -213q-162 150 -391 150q-96 0 -148.5 -38t-52.5 -101.5t63.5 -93.5t208.5 -64 q63 -14 100.5 -23.5t98.5 -30t98 -40t83 -52.5t72 -69.5t43 -90t17 -116.5z" glyph-name="Scedilla" horiz-adv-x="1228" unicode="Ş"/><glyph d="M913 293q0 -131 -99 -217t-275 -99l-35 -81q29 20 74 20q57 0 97 -40t40 -101q0 -80 -65.5 -128t-162.5 -48q-143 0 -225 65l51 107q76 -61 166 -62q45 0 76 18.5t31 51.5q0 51 -60 51q-37 0 -65 -29l-94 54l45 125q-231 20 -369 149l113 182q57 -53 155.5 -94t186.5 -41 q166 0 166 100q0 47 -49.5 72t-149.5 45q-72 14 -109 22.5t-99 33t-95 53t-59.5 81t-26.5 119.5q0 131 108.5 221.5t296.5 90.5q229 0 400 -135l-105 -179q-47 49 -126 82t-167 33q-72 0 -113.5 -24.5t-41.5 -67.5t46 -64.5t142 -42.5q70 -14 109 -23t102.5 -33.5t97 -55.5 t61 -86t27.5 -125z" glyph-name="scedilla" horiz-adv-x="976" unicode="ş"/><glyph d="M489 1481l-194 295h160l151 -185l144 185h159l-186 -295h-234zM43 193l158 221q176 -184 434 -185q113 0 175 45t62 109q0 70 -67.5 105.5t-208.5 68.5q-70 16 -100.5 23.5t-96 28t-99.5 39t-82 51t-71.5 69.5t-42 90t-18.5 117q0 176 141.5 293.5t376.5 117.5 q326 0 533 -190l-162 -213q-162 150 -391 150q-96 0 -148.5 -38t-52.5 -101.5t63.5 -93.5t208.5 -64q63 -14 100.5 -23.5t98.5 -30t98 -40t83 -52.5t72 -69.5t43 -90t17 -116.5q0 -197 -140 -318t-406 -121q-365 1 -578 218z" glyph-name="Scaron" horiz-adv-x="1228" unicode="Š"/><glyph d="M367 1139l-195 295h160l151 -185l144 185h159l-186 -295h-233zM43 129l113 182q57 -53 155.5 -94t186.5 -41q166 0 166 100q0 47 -49.5 72t-149.5 45q-72 14 -109 22.5t-99 33t-95 53t-59.5 81t-26.5 119.5q0 131 108.5 221.5t296.5 90.5q229 0 400 -135l-105 -179 q-47 49 -126 82t-167 33q-72 0 -113.5 -24.5t-41.5 -67.5t46 -64.5t142 -42.5q70 -14 109 -23t102.5 -33.5t97 -55.5t61 -86.5t27.5 -124.5q0 -139 -113.5 -228.5t-314.5 -89.5q-129 0 -246.5 41t-195.5 113z" glyph-name="scaron" horiz-adv-x="976" unicode="š"/><glyph d="M451 0v1110h-400v256h1090v-256h-398v-1110h-292zM571 -590l-90 72q43 25 82 72t47 90q-8 -4 -30 -4q-47 0 -78 31.5t-31 82.5q0 53 37 91t88 38q59 0 102 -45t43 -121q0 -186 -170 -307z" glyph-name="Tcommaaccent" horiz-adv-x="1191" unicode="Ţ"/><glyph d="M461 -25q-137 0 -209 70t-72 201v516h-164v227h164v271h262v-271h201v-227h-201v-447q0 -47 25 -77.5t65 -30.5q61 0 91 29l55 -197q-72 -64 -217 -64zM322 -590l-91 72q43 25 82 72t47 90q-8 -4 -30 -4q-47 0 -78 31.5t-31 82.5q0 53 37 91t88 38q59 0 102.5 -45 t43.5 -121q0 -186 -170 -307z" glyph-name="tcommaaccent" horiz-adv-x="692" unicode="ţ"/><glyph d="M481 1481l-194 295h159l152 -185l143 185h160l-186 -295h-234zM451 0v1110h-400v256h1090v-256h-398v-1110h-292z" glyph-name="Tcaron" horiz-adv-x="1191" unicode="Ť"/><glyph d="M653 1092l-90 71q43 25 82 72t47 90q-8 -4 -30 -4q-47 0 -78 31.5t-31 83.5q0 53 37 91t90 38q59 0 101 -45t42 -123q0 -184 -170 -305zM461 -25q-137 0 -209 70t-72 201v516h-164v227h164v271h262v-271h201v-227h-201v-447q0 -47 25 -77.5t65 -30.5q61 0 91 29l55 -197 q-72 -64 -217 -64z" glyph-name="tcaron" horiz-adv-x="778" unicode="ť"/><glyph d="M1141 1110h-398v-424h275v-147h-275v-539h-292v539h-273v147h273v424h-400v256h1090v-256z" glyph-name="Tbar" horiz-adv-x="1191" unicode="Ŧ"/><glyph d="M623 236l55 -197q-72 -63 -217 -64q-137 0 -209 70t-72 201v182h-164v147h164v187h-164v227h164v271h262v-271h201v-227h-201v-187h140v-147h-140v-113q0 -47 25 -77.5t65 -30.5q62 0 91 29z" glyph-name="tbar" horiz-adv-x="692" unicode="ŧ"/><glyph d="M707 1561q-51 55 -82 55q-74 0 -74 -127h-137q0 131 57 202.5t164 71.5q78 0 153 -84q53 -53 84 -53q74 0 74 125h137q0 -131 -56 -202.5t-163 -71.5q-81 0 -157 84zM135 545v821h295v-811q0 -147 81 -234.5t237 -87.5q152 0 232.5 87.5t80.5 234.5v811h295v-819 q0 -264 -153.5 -418t-454.5 -154q-303 0 -458 154t-155 416z" glyph-name="Utilde" horiz-adv-x="1490" unicode="Ũ"/><glyph d="M551 1219q-51 55 -82 55q-74 0 -74 -127h-137q0 131 57.5 202.5t163.5 71.5q78 0 154 -84q53 -53 84 -53q74 0 74 125h137q0 -131 -56.5 -202.5t-162.5 -71.5q-82 0 -158 84zM797 0v125q-133 -150 -348 -150q-160 0 -240 82t-80 230v702h260v-600q0 -182 182 -182 q137 0 226 112v670h260v-989h-260z" glyph-name="utilde" unicode="ũ"/><glyph d="M403 1493v147h687v-147h-687zM135 545v821h295v-811q0 -147 81 -234.5t237 -87.5q152 0 232.5 87.5t80.5 234.5v811h295v-819q0 -264 -153.5 -418t-454.5 -154q-303 0 -458 154t-155 416z" glyph-name="Umacron" horiz-adv-x="1490" unicode="Ū"/><glyph d="M248 1151v147h686v-147h-686zM797 0v125q-133 -150 -348 -150q-160 0 -240 82t-80 230v702h260v-600q0 -182 182 -182q137 0 226 112v670h260v-989h-260z" glyph-name="umacron" unicode="ū"/><glyph d="M748 1475q-223 0 -361 180l115 94q92 -127 246 -127q150 0 243 127l115 -94q-133 -180 -358 -180zM135 545v821h295v-811q0 -147 81 -234.5t237 -87.5q152 0 232.5 87.5t80.5 234.5v811h295v-819q0 -264 -153.5 -418t-454.5 -154q-303 0 -458 154t-155 416z" glyph-name="Ubreve" horiz-adv-x="1490" unicode="Ŭ"/><glyph d="M592 1133q-223 0 -361 180l115 94q92 -127 246 -127q150 0 244 127l114 -94q-133 -180 -358 -180zM797 0v125q-133 -150 -348 -150q-160 0 -240 82t-80 230v702h260v-600q0 -182 182 -182q137 0 226 112v670h260v-989h-260z" glyph-name="ubreve" unicode="ŭ"/><glyph d="M535 1644.5q0 88.5 63.5 153t151.5 64.5t150.5 -64.5t62.5 -152.5q0 -90 -62.5 -152.5t-150.5 -62.5t-151.5 63t-63.5 151.5zM844 1645q0 41 -28 68.5t-66.5 27.5t-67.5 -29t-29 -67.5t29 -67.5t67.5 -29t66.5 29t28 68zM135 545v821h295v-811q0 -147 81 -234.5 t237 -87.5q152 0 232.5 87.5t80.5 234.5v811h295v-819q0 -264 -153.5 -418t-454.5 -154q-303 0 -458 154t-155 416z" glyph-name="Uring" horiz-adv-x="1490" unicode="Ů"/><glyph d="M379 1302.5q0 88.5 63.5 153t151.5 64.5t150.5 -64.5t62.5 -152.5q0 -90 -62.5 -153t-150.5 -63t-151.5 63.5t-63.5 152zM688 1303q0 41 -27.5 68.5t-66.5 27.5t-67.5 -29t-28.5 -67.5t28.5 -67.5t67.5 -29t66.5 29t27.5 68zM797 0v125q-133 -150 -348 -150 q-160 0 -240 82t-80 230v702h260v-600q0 -182 182 -182q137 0 226 112v670h260v-989h-260z" glyph-name="uring" unicode="ů"/><glyph d="M664 1481h-152l178 295h209zM969 1481h-152l178 295h209zM135 545v821h295v-811q0 -147 81 -234.5t237 -87.5q152 0 232.5 87.5t80.5 234.5v811h295v-819q0 -264 -153.5 -418t-454.5 -154q-303 0 -458 154t-155 416z" glyph-name="Uhungarumlaut" horiz-adv-x="1490" unicode="Ű"/><glyph d="M510 1139h-152l179 295h208zM815 1139h-151l178 295h209zM797 0v125q-133 -150 -348 -150q-160 0 -240 82t-80 230v702h260v-600q0 -182 182 -182q137 0 226 112v670h260v-989h-260z" glyph-name="uhungarumlaut" unicode="ű"/><glyph d="M135 545v821h295v-811q0 -147 81 -234.5t237 -87.5q152 0 232.5 87.5t80.5 234.5v811h295v-819q0 -410 -336 -529q-205 -74 -205 -174q0 -29 20.5 -46t49.5 -17q31 0 57 14l51 -139q-68 -37 -180 -37q-94 0 -163.5 41t-69.5 123q0 119 174 192h-6q-303 0 -458 154 t-155 416z" glyph-name="Uogonek" horiz-adv-x="1490" unicode="Ų"/><glyph d="M1057 0q-180 -53 -180 -156q0 -29 20.5 -46t48.5 -17q31 0 60 14l49 -139q-66 -37 -181 -37q-94 0 -162.5 41t-68.5 123q0 131 221 217h-67v125q-133 -150 -348 -150q-160 0 -240 82t-80 230v702h260v-600q0 -182 182 -182q137 0 226 112v670h260v-989z" glyph-name="uogonek" unicode="ų"/><glyph d="M1090 1481l-150 182l-145 -182h-160l188 295h234l192 -295h-159zM1180 0l-240 938l-238 -938h-309l-391 1366h326l239 -987l260 987h228l258 -987l237 987h328l-389 -1366h-309z" glyph-name="Wcircumflex" horiz-adv-x="1880" unicode="Ŵ"/><glyph d="M938 1139l-150 182l-145 -182h-160l189 295h233l193 -295h-160zM997 0l-209 674l-208 -674h-279l-301 989h270l185 -665l217 665h231l217 -665l185 665h270l-301 -989h-277z" glyph-name="wcircumflex" horiz-adv-x="1574" unicode="ŵ"/><glyph d="M813 1481l-149 182l-146 -182h-160l189 295h233l193 -295h-160zM516 0v559l-526 807h332l340 -549l335 549h332l-522 -807v-559h-291z" glyph-name="Ycircumflex" horiz-adv-x="1320" unicode="Ŷ"/><glyph d="M674 1139l-150 182l-145 -182h-160l189 295h233l193 -295h-160zM133 -154q37 -16 82 -16q104 0 137 72l37 84l-401 1003h278l258 -688l258 688h281l-465 -1151q-51 -131 -143.5 -183t-231.5 -56q-72 0 -129 14z" glyph-name="ycircumflex" horiz-adv-x="1050" unicode="ŷ"/><glyph d="M446 1477q-59 0 -99 39.5t-40 99.5q0 57 41 97t98.5 40t97.5 -40t40 -97q0 -59 -40.5 -99t-97.5 -40zM878.5 1477q-57.5 0 -98.5 39.5t-41 99.5q0 57 41 97t98.5 40t98.5 -40t41 -97q0 -59 -41 -99t-98.5 -40zM516 0v559l-526 807h332l340 -549l335 549h332l-522 -807 v-559h-291z" glyph-name="Ydieresis" horiz-adv-x="1320" unicode="Ÿ"/><glyph d="M692 1481h-182l274 295h240zM86 0v236l645 874h-645v256h1026v-233l-645 -877h659v-256h-1040z" glyph-name="Zacute" horiz-adv-x="1212" unicode="Ź"/><glyph d="M575 1139h-182l275 295h239zM86 0v195l446 567h-446v227h799v-188l-453 -574h461v-227h-807z" glyph-name="zacute" horiz-adv-x="980" unicode="ź"/><glyph d="M469 1613.5q0 57.5 41 98.5t98.5 41t97 -41t39.5 -98.5t-39.5 -98t-97 -40.5t-98.5 40.5t-41 98zM86 0v236l645 874h-645v256h1026v-233l-645 -877h659v-256h-1040z" glyph-name="Zdotaccent" horiz-adv-x="1212" unicode="Ż"/><glyph d="M352 1271.5q0 57.5 41 98.5t98.5 41t97.5 -41t40 -98.5t-40 -98t-97.5 -40.5t-98.5 40.5t-41 98zM86 0v195l446 567h-446v227h799v-188l-453 -574h461v-227h-807z" glyph-name="zdotaccent" horiz-adv-x="980" unicode="ż"/><glyph d="M492 1481l-195 295h160l151 -185l144 185h159l-186 -295h-233zM86 0v236l645 874h-645v256h1026v-233l-645 -877h659v-256h-1040z" glyph-name="Zcaron" horiz-adv-x="1212" unicode="Ž"/><glyph d="M375 1139l-195 295h160l152 -185l143 185h160l-187 -295h-233zM86 0v195l446 567h-446v227h799v-188l-453 -574h461v-227h-807z" glyph-name="zcaron" horiz-adv-x="980" unicode="ž"/><glyph d="M186 0v762h-163v227h163v53q0 158 93.5 251t240.5 93q111 0 189 -40l-54 -185q-33 20 -84 21q-57 0 -89.5 -37t-32.5 -107v-1038h-263z" glyph-name="longs" horiz-adv-x="669" unicode="ſ"/><glyph d="M727 1389q307 0 517 -195t210 -512q0 -315 -202.5 -512t-491.5 -197q-330 0 -519.5 212t-189.5 587h1096q-29 160 -143.5 259t-276.5 99q-104 0 -189 -50t-135 -128l-243 131q196 306 567 306zM737 231q143 0 249 81t144 216h-757q25 -131 122 -214t242 -83z" glyph-name="uni018F" horiz-adv-x="1523" unicode="Ə"/><glyph d="M16 -330l181 817h-111v230h160l76 340q33 147 144.5 238t260.5 91q156 0 242 -88l-111 -211q-39 43 -96 43t-99 -35.5t-57 -101.5l-61 -276h231v-230h-282l-181 -817h-297z" glyph-name="florin" horiz-adv-x="929" unicode="ƒ"/><glyph d="M1067 1366h291v-1366h-281l-651 918v-846q0 -233 -131 -353t-350 -120q-70 0 -127 12l28 250q35 -10 76 -11q96 0 154.5 59.5t58.5 160.5v1296h299l633 -885v885z" glyph-name="uni019D" horiz-adv-x="1492" unicode="Ɲ"/><glyph d="M1520 1364q0 -164 -144 -272q121 -180 121 -410q0 -309 -201.5 -508t-513.5 -199q-309 0 -510.5 200t-201.5 507t201.5 507t510.5 200q330 0 533 -220q74 59 90 129q-8 -4 -29 -4q-41 0 -69.5 30t-28.5 75q0 47 32.5 80.5t80.5 33.5q53 0 91 -39.5t38 -109.5zM782.5 233 q186.5 0 301 127t114.5 322t-114.5 321.5t-301 126.5t-300 -126.5t-113.5 -321.5t113.5 -322t300 -127z" glyph-name="Ohorn" horiz-adv-x="1566" unicode="Ơ"/><glyph d="M1130 1090q0 -154 -131 -261q113 -145 113 -333q0 -219 -143.5 -370t-381 -151t-379.5 150.5t-142 370t142 369t380 149.5q205 0 342 -115q72 63 86 127q-8 -4 -29 -4q-43 0 -70.5 28.5t-27.5 76t32.5 81t79.5 33.5q53 0 91 -40.5t38 -110.5zM588 207q117 0 185.5 83 t68.5 206q0 121 -68.5 203.5t-185.5 82.5t-184.5 -83t-67.5 -203q0 -123 67.5 -206t184.5 -83z" glyph-name="ohorn" horiz-adv-x="1175" unicode="ơ"/><glyph d="M1581 1487q0 -92 -59.5 -180t-165.5 -138v-622q0 -264 -153.5 -418t-454.5 -154q-303 0 -458 154t-155 416v821h295v-811q0 -147 81 -234.5t237 -87.5q152 0 232.5 87.5t80.5 234.5v811h295v-88q94 61 110 147q-8 -6 -28 -6q-43 0 -71 30t-28 77t33 79.5t80 32.5 q53 0 91 -40.5t38 -110.5z" glyph-name="Uhorn" horiz-adv-x="1490" unicode="Ư"/><glyph d="M1225 1116q0 -80 -44 -156.5t-124 -130.5v-829h-260v125q-133 -150 -348 -150q-160 0 -240 82t-80 230v702h260v-600q0 -182 182 -182q137 0 226 112v670h260v-35q45 51 53 99q-8 -4 -29 -4q-43 0 -70.5 28.5t-27.5 75.5t33 81t80 34q55 0 92 -41t37 -111z" glyph-name="uhorn" unicode="ư"/><glyph d="M682 1481l-195 295h160l152 -185l143 185h160l-187 -295h-233zM70 682q0 317 209.5 512t517.5 195q373 0 565 -299l-242 -132q-51 76 -136 124t-187 48q-186 0 -307 -126.5t-121 -321.5t120.5 -322t307.5 -127q178 0 295 105v166h-365v250h651v-523q-231 -258 -581 -258 q-307 0 -517 197t-210 512z" glyph-name="Gcaron" horiz-adv-x="1474" unicode="Ǧ"/><glyph d="M489 1139l-194 295h160l151 -185l144 185h159l-186 -295h-234zM109 -254l116 188q111 -123 310 -122q111 0 191.5 58t80.5 191v101q-123 -156 -305 -156q-193 0 -314.5 132t-121.5 372q0 238 121.5 371t314.5 133q184 0 305 -152v127h262v-921q0 -135 -48 -231.5 t-130 -145.5t-169 -70.5t-187 -21.5q-256 0 -426 147zM807 350v320q-33 49 -95.5 80.5t-127.5 31.5q-113 0 -181.5 -73.5t-68.5 -198.5t68.5 -198.5t181.5 -73.5q63 0 126.5 32.5t96.5 79.5z" glyph-name="gcaron" horiz-adv-x="1198" unicode="ǧ"/><glyph d="M948 -8q-156 -53 -155 -148q0 -29 20.5 -46t48.5 -17q31 0 60 14l49 -139q-66 -37 -180 -37q-94 0 -163 41t-69 123q0 115 170 194q-291 18 -475 215t-184 490q0 307 201.5 507t510.5 200q311 0 513 -199t202 -508q0 -264 -151.5 -451.5t-397.5 -238.5zM369 682 q0 -195 113.5 -322t300 -127t301 127t114.5 322t-114.5 321.5t-301 126.5t-300 -126.5t-113.5 -321.5z" glyph-name="uni01EA" horiz-adv-x="1566" unicode="Ǫ"/><glyph d="M725 -8q-152 -55 -152 -148q0 -29 20.5 -46t49.5 -17q31 0 59 14l50 -139q-66 -37 -181 -37q-94 0 -162.5 41t-68.5 123q0 115 174 197q-205 25 -326.5 170t-121.5 346q0 219 142 368.5t379.5 149.5t381 -149.5t143.5 -368.5q0 -184 -104.5 -323.5t-282.5 -180.5z M336 496q0 -123 67.5 -206t184.5 -83t185.5 83t68.5 206q0 121 -68.5 203.5t-185.5 82.5t-184.5 -82.5t-67.5 -203.5z" glyph-name="uni01EB" horiz-adv-x="1175" unicode="ǫ"/><glyph d="M784 1915h-182l275 295h239zM487 1644.5q0 88.5 63.5 153t152 64.5t150.5 -64.5t62 -152.5q0 -90 -62 -152.5t-150.5 -62.5t-152 63t-63.5 151.5zM797 1645q0 41 -28 68.5t-66.5 27.5t-67.5 -29t-29 -67.5t29 -67.5t67.5 -29t66.5 29t28 68zM1092 0l-86 236h-611 l-86 -236h-319l528 1366h365l526 -1366h-317zM700 1114l-227 -627h453z" glyph-name="Aringacute" horiz-adv-x="1400" unicode="Ǻ"/><glyph d="M639 1573h-182l274 295h240zM342 1302.5q0 88.5 63.5 153t151.5 64.5t150.5 -64.5t62.5 -152.5q0 -90 -62.5 -153t-150.5 -63t-151.5 63.5t-63.5 152zM651 1303q0 41 -27.5 68.5t-66.5 27.5t-67.5 -29t-28.5 -67.5t28.5 -67.5t67.5 -29t66.5 29t27.5 68zM723 0v102 q-106 -127 -313 -127q-133 0 -238.5 87.5t-105.5 240.5q0 160 103 237.5t241 77.5q215 0 313 -120v137q0 76 -59.5 121t-157.5 45q-164 0 -289 -117l-98 174q176 156 432 156q190 0 311 -88t121 -287v-639h-260zM723 238v122q-63 86 -209 86q-80 0 -133 -39.5t-53 -109.5 q0 -68 53 -106.5t133 -38.5q146 0 209 86z" glyph-name="aringacute" horiz-adv-x="1112" unicode="ǻ"/><glyph d="M1157 1481h-182l274 295h240zM930 0v236h-492l-137 -236h-319l831 1366h1083v-250h-673v-297h659v-250h-659v-317h673v-252h-966zM930 1116l-357 -629h357v629z" glyph-name="AEacute" horiz-adv-x="1982" unicode="Ǽ"/><glyph d="M979 1139h-182l274 295h240zM1024 412q14 -96 84 -160t182 -64q152 0 244 97l117 -172q-72 -66 -176.5 -102t-202.5 -36q-256 0 -381 181q-63 -80 -173 -130.5t-239 -50.5q-176 0 -294.5 83t-118.5 241q0 156 102 240t256 84q223 0 338 -119v133q0 74 -64.5 119 t-171.5 45q-170 0 -309 -117l-98 174q176 156 438 156q260 0 346 -170q129 170 359 170q205 0 332.5 -150.5t127.5 -394.5v-57h-698zM1470 588q-4 84 -60 151.5t-165 67.5q-102 0 -159.5 -66.5t-65.5 -152.5h450zM762 358q-78 88 -232 88q-88 0 -145 -34.5t-57 -98t56 -98.5 t140 -35q94 0 166 52.5t72 113.5v12z" glyph-name="aeacute" horiz-adv-x="1781" unicode="ǽ"/><glyph d="M1167 1776l-331 -295h-183l275 295h239zM1274 1210q223 -203 223 -528q0 -309 -201.5 -508t-513.5 -199q-207 0 -376 97l-56 -72h-209l131 172q-203 203 -202.5 510t202 507t510.5 200q193 0 355 -84l47 61h209zM369 682q0 -160 80 -279l522 684q-90 43 -189 43 q-186 0 -299.5 -126.5t-113.5 -321.5zM782 233q186 0 301 127t115 322q0 180 -98 301l-529 -694q94 -56 211 -56z" glyph-name="Oslashacute" horiz-adv-x="1566" unicode="Ǿ"/><glyph d="M1004 1434l-332 -295h-183l275 295h240zM973 858q139 -145 139 -362q0 -219 -143.5 -370t-380.5 -151q-170 0 -297 82l-49 -57h-160l117 137q-133 145 -133 359q0 219 142 368.5t380 149.5q166 0 289 -78l45 53h163zM336 496q0 -92 35 -156l346 408q-53 35 -129 34 q-117 0 -184.5 -82.5t-67.5 -203.5zM588 207q117 0 185.5 83t68.5 206q0 88 -39 161l-352 -411q61 -39 137 -39z" glyph-name="oslashacute" horiz-adv-x="1175" unicode="ǿ"/><glyph d="M43 193l158 221q176 -184 434 -185q113 0 175 45t62 109q0 70 -67.5 105.5t-208.5 68.5q-70 16 -100.5 23.5t-96 28t-99.5 39t-82 51t-71.5 69.5t-42 90t-18.5 117q0 176 141.5 293.5t376.5 117.5q326 0 533 -190l-162 -213q-162 150 -391 150q-96 0 -148.5 -38 t-52.5 -101.5t63.5 -93.5t208.5 -64q63 -14 100.5 -23.5t98.5 -30t98 -40t83 -52.5t72 -69.5t43 -90t17 -116.5q0 -197 -140 -318t-406 -121q-365 1 -578 218zM580 -590l-91 72q43 25 82 72t47 90q-8 -4 -30 -4q-47 0 -78 31.5t-31 82.5q0 53 37 91t88 38q59 0 102.5 -45 t43.5 -121q0 -186 -170 -307z" glyph-name="Scommaaccent" horiz-adv-x="1228" unicode="Ș"/><glyph d="M43 129l113 182q57 -53 155.5 -94t186.5 -41q166 0 166 100q0 47 -49.5 72t-149.5 45q-72 14 -109 22.5t-99 33t-95 53t-59.5 81t-26.5 119.5q0 131 108.5 221.5t296.5 90.5q229 0 400 -135l-105 -179q-47 49 -126 82t-167 33q-72 0 -113.5 -24.5t-41.5 -67.5t46 -64.5 t142 -42.5q70 -14 109 -23t102.5 -33.5t97 -55.5t61 -86.5t27.5 -124.5q0 -139 -113.5 -228.5t-314.5 -89.5q-129 0 -246.5 41t-195.5 113zM457 -590l-90 72q43 25 81.5 72t47.5 90q-8 -4 -31 -4q-47 0 -78 31.5t-31 82.5q0 53 37 91t88 38q59 0 102.5 -45t43.5 -121 q0 -186 -170 -307z" glyph-name="scommaaccent" horiz-adv-x="976" unicode="ș"/><glyph d="M451 0v1110h-400v256h1090v-256h-398v-1110h-292zM571 -590l-90 72q43 25 82 72t47 90q-8 -4 -30 -4q-47 0 -78 31.5t-31 82.5q0 53 37 91t88 38q59 0 102 -45t43 -121q0 -186 -170 -307z" glyph-name="uni021A" horiz-adv-x="1191" unicode="Ț"/><glyph d="M461 -25q-137 0 -209 70t-72 201v516h-164v227h164v271h262v-271h201v-227h-201v-447q0 -47 25 -77.5t65 -30.5q61 0 91 29l55 -197q-72 -64 -217 -64zM322 -590l-91 72q43 25 82 72t47 90q-8 -4 -30 -4q-47 0 -78 31.5t-31 82.5q0 53 37 91t88 38q59 0 102.5 -45 t43.5 -121q0 -186 -170 -307z" glyph-name="uni021B" horiz-adv-x="692" unicode="ț"/><glyph d="M317 1493v147h687v-147h-687zM516 0v559l-526 807h332l340 -549l335 549h332l-522 -807v-559h-291z" glyph-name="uni0232" horiz-adv-x="1320" unicode="Ȳ"/><glyph d="M180 1151v147h686v-147h-686zM133 -154q37 -16 82 -16q104 0 137 72l37 84l-401 1003h278l258 -688l258 688h281l-465 -1151q-51 -131 -143.5 -183t-231.5 -56q-72 0 -129 14z" glyph-name="uni0233" horiz-adv-x="1050" unicode="ȳ"/><glyph d="M-76 -391l17 213q25 -6 57 -6q59 0 95 39t36 118v1016h260v-1016q0 -174 -89 -274t-263 -100q-62 0 -113 10z" glyph-name="uni0237" horiz-adv-x="518" unicode="ȷ"/><glyph d="M1067 494q0 -219 -144.5 -369t-367.5 -150q-221 0 -358.5 150.5t-137.5 394.5v58h736q-12 98 -88 163.5t-197 65.5q-68 0 -143.5 -26.5t-120.5 -71.5l-115 168q145 137 408 137q229 0 378.5 -143.5t149.5 -376.5zM555 182q111 0 172 66.5t72 152.5h-488 q4 -84 65.5 -151.5t178.5 -67.5z" glyph-name="uni0259" horiz-adv-x="1132" unicode="ə"/><glyph d="M735 1014q160 0 241 -84t81 -232v-698h-260v598q0 184 -183 184q-141 0 -225 -116v-693q0 -174 -89 -274t-263 -100q-61 0 -113 10l17 213q25 -6 57 -6q59 0 95 39t36 118v1016h260v-129q129 154 346 154z" glyph-name="uni0272" unicode="ɲ"/><glyph d="M549 668v385q0 115 -117 114q-86 0 -141 -67v-432h-189v888h189v-327q86 98 229 98q109 0 164 -55t55 -156v-448h-190z" glyph-name="uni02B0" horiz-adv-x="841" unicode="ʰ"/><glyph d="M229 797l-112 92q51 27 98 84t59 110q-12 -8 -38 -8q-59 0 -99.5 42t-40.5 106q0 68 47 115.5t113 47.5q76 0 130 -56t54 -152q0 -113 -57.5 -212t-153.5 -169z" glyph-name="afii57929" horiz-adv-x="522" unicode="ʼ"/><glyph d="M455 1139l-150 182l-145 -182h-160l188 295h234l192 -295h-159z" glyph-name="circumflex" horiz-adv-x="614" unicode="ˆ"/><glyph d="M195 1139l-195 295h160l151 -185l144 185h159l-186 -295h-233z" glyph-name="caron" horiz-adv-x="614" unicode="ˇ"/><glyph d="M29 1210v150h686v-150h-686z" glyph-name="uni02C9" horiz-adv-x="743" unicode="ˉ"/><glyph d="M332 1139l-332 295h240l274 -295h-182z" glyph-name="uni02CB" horiz-adv-x="514" unicode="ˋ"/><glyph d="M360 1133q-223 0 -360 180l115 94q92 -127 245 -127q150 0 244 127l115 -94q-134 -180 -359 -180z" glyph-name="breve" horiz-adv-x="718" unicode="˘"/><glyph d="M163.5 1411q57.5 0 97.5 -41t40 -98.5t-40 -98t-97.5 -40.5t-98 40.5t-40.5 98t40.5 98.5t98 41z" glyph-name="dotaccent" horiz-adv-x="325" unicode="˙"/><glyph d="M41 1302.5q0 88.5 63.5 153t151.5 64.5t150.5 -64.5t62.5 -152.5q0 -90 -62.5 -153t-150.5 -63t-151.5 63.5t-63.5 152zM350 1303q0 41 -27.5 68.5t-66.5 27.5t-67.5 -29t-28.5 -67.5t28.5 -67.5t67.5 -29t66.5 29t27.5 68z" glyph-name="ring" horiz-adv-x="509" unicode="˚"/><glyph d="M430 -344q-66 -37 -180 -37q-94 0 -163 41t-69 123q0 143 263 231l151 -14q-180 -53 -180 -156q0 -29 20.5 -46t49.5 -17q31 0 59 14z" glyph-name="ogonek" horiz-adv-x="450" unicode="˛"/><glyph d="M293 1219q-51 55 -82 55q-74 0 -74 -127h-137q0 131 57.5 202.5t163.5 71.5q78 0 154 -84q53 -53 84 -53q74 0 73 125h138q0 -131 -56.5 -202.5t-162.5 -71.5q-82 0 -158 84z" glyph-name="tilde" horiz-adv-x="669" unicode="˜"/><glyph d="M152 1139h-152l178 295h209zM457 1139h-152l178 295h209z" glyph-name="hungarumlaut" horiz-adv-x="692" unicode="˝"/><glyph d="M-182 1139l-332 295h240l276 -295h-184z" glyph-name="gravecomb" horiz-adv-x="0" unicode="̀"/><glyph d="M-332 1139h-182l274 295h242z" glyph-name="acutecomb" horiz-adv-x="0" unicode="́"/><glyph d="M-160 1139l-149 182l-146 -182h-159l188 295h233l193 -295h-160z" glyph-name="uni0302" horiz-adv-x="0" unicode="̂"/><glyph d="M-377 1219q-51 55 -82 55q-74 0 -73 -127h-138q0 131 57.5 202.5t163.5 71.5q78 0 154 -84q53 -53 84 -53q74 0 74 125h137q0 -131 -56.5 -202.5t-162.5 -71.5q-82 0 -158 84z" glyph-name="tildecomb" horiz-adv-x="0" unicode="̃"/><glyph d="M-715 1151v147h686v-147h-686z" glyph-name="uni0304" horiz-adv-x="0" unicode="̄"/><glyph d="M-358 1133q-223 0 -361 180l115 94q92 -127 246 -127q150 0 243 127l115 -94q-133 -180 -358 -180z" glyph-name="uni0306" horiz-adv-x="0" unicode="̆"/><glyph d="M-161.5 1411q57.5 0 97 -41t39.5 -98.5t-39.5 -98t-97 -40.5t-98.5 40.5t-41 98t41 98.5t98.5 41zM-301 1272z" glyph-name="uni0307" horiz-adv-x="0" unicode="̇"/><glyph d="M-649 1135q-59 0 -99 39.5t-40 99.5q0 57 40.5 97t98 40t97.5 -40t40 -97q0 -59 -40 -99t-97 -40zM-217 1135q-57 0 -98 39.5t-41 99.5q0 57 41 97t98 40t98 -40t41 -97q0 -59 -41 -99t-98 -40z" glyph-name="uni0308" horiz-adv-x="0" unicode="̈"/><glyph d="M-207 1466q90 0 151.5 -47t61.5 -143q0 -66 -43 -135h-143q51 59 51 129q0 82 -78 82q-61 0 -90 -74l-121 39q25 72 81 110.5t130 38.5z" glyph-name="hookabovecomb" horiz-adv-x="0" unicode="̉"/><glyph d="M-469 1302.5q0 88.5 63.5 153t151.5 64.5t150.5 -64.5t62.5 -152.5q0 -90 -62.5 -153t-150.5 -63t-151.5 63.5t-63.5 152zM-160 1303q0 41 -27.5 68.5t-66.5 27.5t-67.5 -29t-28.5 -67.5t28.5 -67.5t67.5 -29t66.5 29t27.5 68z" glyph-name="uni030A" horiz-adv-x="0" unicode="̊"/><glyph d="M-541 1139h-151l178 295h209zM-236 1139h-151l178 295h209z" glyph-name="uni030B" horiz-adv-x="0" unicode="̋"/><glyph d="M-420 1139l-194 295h159l152 -185l143 185h160l-186 -295h-234z" glyph-name="uni030C" horiz-adv-x="0" unicode="̌"/><glyph d="M-289 -590l-90 72q43 25 82 72t47 90q-8 -4 -31 -4q-47 0 -77.5 31.5t-30.5 82.5q0 53 37 91t88 38q59 0 102 -45t43 -121q0 -186 -170 -307z" glyph-name="uni0326" horiz-adv-x="0" unicode="̦"/><glyph d="M-453 -336l52 105q78 -59 165 -60q45 0 76 18.5t31 51.5q0 51 -59 51q-37 0 -66 -29l-94 54l61 168h129l-53 -127q35 20 74 20q57 0 97 -40t40 -101q0 -80 -65.5 -128t-161.5 -48q-144 -1 -226 65z" glyph-name="uni0327" horiz-adv-x="0" unicode="̧"/><glyph d="M-20 -344q-66 -37 -181 -37q-94 0 -162.5 41t-68.5 123q0 143 262 231l152 -14q-180 -53 -181 -156q0 -29 20.5 -46t49.5 -17q31 0 59 14z" glyph-name="uni0328" horiz-adv-x="0" unicode="̨"/><glyph d="M262.5 672q-67.5 0 -117 50t-49.5 116q0 68 49.5 117t117 49t116.5 -49.5t49 -116.5q0 -66 -49 -116t-116.5 -50zM229 -281l-112 93q51 29 98 85t59 109q-12 -8 -38 -8q-59 0 -99.5 42t-40.5 105q0 68 47 116t113 48q76 0 130 -56t54 -153q0 -113 -57.5 -212t-153.5 -169 z" glyph-name="uni037E" horiz-adv-x="524" unicode=";"/><glyph d="M18 1153l41 436h215l-143 -436h-113z" glyph-name="tonos" horiz-adv-x="292" unicode="΄"/><glyph d="M371 1153l41 436h217l-142 -436h-116zM158 1135q-59 0 -99.5 39.5t-40.5 99.5q0 57 40 97t100 40q57 0 97 -40t40 -97q0 -59 -40 -99t-97 -40zM770 1135q-57 0 -97 39.5t-40 99.5q0 57 40 97t97 40t98 -40t41 -97q0 -59 -40 -99t-99 -40z" glyph-name="dieresistonos" horiz-adv-x="927" unicode="΅"/><glyph d="M197 1153l41 436h215l-144 -436h-112zM1092 0l-86 236h-611l-86 -236h-319l528 1366h365l526 -1366h-317zM700 1114l-227 -627h453z" glyph-name="Alphatonos" horiz-adv-x="1400" unicode="Ά"/><glyph d="M-37 1153l43 436h215l-143 -436h-115zM217 0v1366h967v-250h-674v-297h659v-250h-659v-317h674v-252h-967z" glyph-name="Epsilontonos" horiz-adv-x="1275" unicode="Έ"/><glyph d="M-37 1153l43 436h215l-143 -436h-115zM1153 0v573h-643v-573h-293v1366h293v-537h643v537h293v-1366h-293z" glyph-name="Etatonos" horiz-adv-x="1581" unicode="Ή"/><glyph d="M-37 1153l43 436h215l-143 -436h-115zM217 0v1366h293v-1366h-293z" glyph-name="Iotatonos" horiz-adv-x="645" unicode="Ί"/><glyph d="M-37 1153l43 436h215l-143 -436h-115zM45 682q0 307 202 507t511 200q311 0 513 -199t202 -508t-202 -508t-513 -199q-309 0 -511 200t-202 507zM1174 682q0 195 -115 321.5t-301.5 126.5t-300 -126.5t-113.5 -321.5t113.5 -322t300 -127t301.5 127t115 322z" glyph-name="Omicrontonos" horiz-adv-x="1542" unicode="Ό"/><glyph d="M1145 1366h332l-523 -807v-559h-292v559l-519 797l-65 -203h-115l43 436h215l-74 -223h322l340 -549z" glyph-name="Upsilontonos" horiz-adv-x="1468" unicode="Ύ"/><glyph d="M-12 1153l43 436h215l-144 -436h-114zM365 256q-281 190 -281 494q0 289 199.5 464t513 175t513 -175.5t199.5 -463.5q0 -307 -276 -494h242v-256h-551v256q129 35 208.5 152.5t79.5 275.5q0 180 -106.5 312t-309 132t-309 -132t-106.5 -312q0 -158 81 -275.5t210 -152.5 v-256h-553v256h246z" glyph-name="Omegatonos" horiz-adv-x="1581" unicode="Ώ"/><glyph d="M201 1153l41 436h217l-142 -436h-116zM-14.5 1135q-59.5 0 -99.5 39.5t-40 99.5q0 57 41 97t98.5 40t98.5 -40t41 -97q0 -59 -40 -99t-99.5 -40zM600 1135q-57 0 -97 39.5t-40 99.5q0 57 40 97t97 40t98 -40t41 -97q0 -59 -40 -99t-99 -40zM129 246v743h260v-692 q0 -43 22.5 -66.5t59.5 -23.5q18 0 39 4l18 -221q-53 -14 -120 -15q-137 0 -208 69t-71 202z" glyph-name="iotadieresistonos" horiz-adv-x="546" unicode="ΐ"/><glyph d="M1092 0l-86 236h-611l-86 -236h-319l528 1366h365l526 -1366h-317zM700 1114l-227 -627h453z" glyph-name="Alpha" horiz-adv-x="1400" unicode="Α"/><glyph d="M135 0v1366h719q186 0 289.5 -101.5t103.5 -246.5q0 -125 -67.5 -209t-167.5 -104q111 -16 186.5 -112.5t75.5 -223.5q0 -160 -104.5 -264.5t-292.5 -104.5h-742zM426 817h365q74 0 116.5 42t42.5 110q0 63 -44 106t-115 43h-365v-301zM426 248h375q82 0 129 44t47 118 q0 68 -47 113.5t-129 45.5h-375v-321z" glyph-name="Beta" horiz-adv-x="1357" unicode="Β"/><glyph d="M135 0v1366h967v-256h-676v-1110h-291z" glyph-name="Gamma" horiz-adv-x="1169" unicode="Γ"/><glyph d="M-10 0l528 1366h365l526 -1366h-1419zM700 1075l-299 -819h598z" glyph-name="Delta" horiz-adv-x="1400" unicode="Δ"/><glyph d="M135 0v1366h967v-250h-676v-297h661v-250h-661v-317h676v-252h-967z" glyph-name="Epsilon" horiz-adv-x="1193" unicode="Ε"/><glyph d="M86 0v236l645 874h-645v256h1026v-233l-645 -877h659v-256h-1040z" glyph-name="Zeta" horiz-adv-x="1212" unicode="Ζ"/><glyph d="M1071 0v573h-645v-573h-291v1366h291v-537h645v537h293v-1366h-293z" glyph-name="Eta" horiz-adv-x="1497" unicode="Η"/><glyph d="M70 682q0 307 201.5 507t510.5 200q311 0 513 -199t202 -508t-201.5 -508t-513.5 -199q-309 0 -510.5 200t-201.5 507zM1198 682q0 195 -114.5 321.5t-301 126.5t-300 -126.5t-113.5 -321.5t113.5 -322t300 -127t301 127t114.5 322zM469 565v256h629v-256h-629z" glyph-name="Theta" horiz-adv-x="1566" unicode="Θ"/><glyph d="M135 0v1366h291v-1366h-291z" glyph-name="Iota" horiz-adv-x="561" unicode="Ι"/><glyph d="M946 0l-414 547l-106 -127v-420h-291v1366h291v-610l483 610h359l-543 -641l580 -725h-359z" glyph-name="Kappa" horiz-adv-x="1302" unicode="Κ"/><glyph d="M1077 0l-377 1075l-378 -1075h-332l528 1366h365l526 -1366h-332z" glyph-name="Lambda" horiz-adv-x="1400" unicode="Λ"/><glyph d="M1323 0v983l-385 -983h-127l-385 983v-983h-291v1366h408l331 -852l332 852h410v-1366h-293z" glyph-name="Mu" horiz-adv-x="1751" unicode="Μ"/><glyph d="M1077 0l-651 918v-918h-291v1366h299l633 -885v885h291v-1366h-281z" glyph-name="Nu" horiz-adv-x="1492" unicode="Ν"/><glyph d="M92 1116v250h1092v-250h-1092zM106 569v250h1065v-250h-1065zM92 0v252h1092v-252h-1092z" glyph-name="Xi" horiz-adv-x="1277" unicode="Ξ"/><glyph d="M70 682q0 307 201.5 507t510.5 200q311 0 513 -199t202 -508t-201.5 -508t-513.5 -199q-309 0 -510.5 200t-201.5 507zM1198 682q0 195 -114.5 321.5t-301 126.5t-300 -126.5t-113.5 -321.5t113.5 -322t300 -127t301 127t114.5 322z" glyph-name="Omicron" horiz-adv-x="1566" unicode="Ο"/><glyph d="M1071 0v1110h-645v-1110h-291v1366h1229v-1366h-293z" glyph-name="Pi" horiz-adv-x="1497" unicode="Π"/><glyph d="M135 0v1366h639q215 0 337 -126t122 -314q0 -186 -123 -311.5t-336 -125.5h-348v-489h-291zM936 928q0 84 -57.5 136t-143.5 52h-309v-377h309q88 0 144.5 52.5t56.5 136.5z" glyph-name="Rho" horiz-adv-x="1277" unicode="Ρ"/><glyph d="M444 256h662v-256h-1014v256l416 440l-414 414v256h1012v-256h-647l407 -412z" glyph-name="Sigma" horiz-adv-x="1200" unicode="Σ"/><glyph d="M451 0v1110h-400v256h1090v-256h-398v-1110h-292z" glyph-name="Tau" horiz-adv-x="1191" unicode="Τ"/><glyph d="M516 0v559l-526 807h332l340 -549l335 549h332l-522 -807v-559h-291z" glyph-name="Upsilon" horiz-adv-x="1320" unicode="Υ"/><glyph d="M1679 682q0 -236 -173 -377t-486 -168v-137h-291v137q-313 27 -486 168t-173 377q0 233 174 375.5t485 169.5v139h291v-139q313 -27 486 -168t173 -377zM369 682q0 -117 92 -190.5t268 -94.5v570q-176 -20 -268 -94t-92 -191zM1020 397q176 20 269 94t93 191t-93 190.5 t-269 94.5v-570z" glyph-name="Phi" horiz-adv-x="1751" unicode="Φ"/><glyph d="M1026 0l-342 500l-344 -500h-346l495 700l-464 666h346l313 -467l309 467h350l-464 -664l495 -702h-348z" glyph-name="Chi" horiz-adv-x="1368" unicode="Χ"/><glyph d="M1341 1366h297v-541q0 -236 -152.5 -384t-451.5 -179v-262h-293v260q-299 31 -452.5 180.5t-153.5 382.5v543h295v-532q0 -129 79 -208t232 -102v842h293v-842q152 23 229.5 103t77.5 207v532z" glyph-name="Psi" horiz-adv-x="1773" unicode="Ψ"/><glyph d="M350 256q-281 190 -280 494q0 289 200.5 464t511.5 175q313 0 514 -175.5t201 -463.5q0 -305 -278 -494h243v-256h-553v256q129 35 209 152.5t80 275.5q0 180 -106.5 312t-309 132t-308 -132t-105.5 -312q0 -158 79.5 -275.5t208.5 -152.5v-256h-551v256h244z" glyph-name="Omega" horiz-adv-x="1566" unicode="Ω"/><glyph d="M66 1477q-59 0 -99.5 39.5t-40.5 99.5q0 57 41 97t98.5 40t97.5 -40t40 -97q0 -59 -40 -99t-97 -40zM497.5 1477q-57.5 0 -98.5 39.5t-41 99.5q0 57 41 97t98.5 40t98.5 -40t41 -97q0 -59 -41 -99t-98.5 -40zM135 0v1366h291v-1366h-291z" glyph-name="Iotadieresis" horiz-adv-x="561" unicode="Ϊ"/><glyph d="M446 1477q-59 0 -99 39.5t-40 99.5q0 57 41 97t98.5 40t97.5 -40t40 -97q0 -59 -40.5 -99t-97.5 -40zM878.5 1477q-57.5 0 -98.5 39.5t-41 99.5q0 57 41 97t98.5 40t98.5 -40t41 -97q0 -59 -41 -99t-98.5 -40zM516 0v559l-526 807h332l340 -549l335 549h332l-522 -807 v-559h-291z" glyph-name="Upsilondieresis" horiz-adv-x="1320" unicode="Ϋ"/><glyph d="M547 1153l41 436h215l-144 -436h-112zM1208 -10q-53 -14 -118 -15q-213 0 -265 177q-49 -80 -135 -128.5t-186 -48.5q-193 0 -315.5 138.5t-122.5 380.5q0 238 122.5 379t315.5 141q186 0 303 -152v127h264v-692q0 -43 22.5 -66.5t59.5 -23.5q18 0 39 4zM809 319v349 q-33 49 -96.5 80.5t-128.5 31.5q-111 0 -180.5 -78.5t-69.5 -207.5q0 -127 69.5 -207t180.5 -80q66 0 129 31.5t96 80.5z" glyph-name="alphatonos" horiz-adv-x="1228" unicode="ά"/><glyph d="M471 1153l41 436h215l-143 -436h-113zM522 -25q-211 0 -335 82t-124 215q0 102 86.5 166t186.5 70q-102 16 -177 79.5t-75 153.5q0 127 119 200t329 71q262 0 422 -164l-127 -154q-113 113 -290 113q-82 0 -132.5 -28.5t-50.5 -76.5q0 -109 187 -108h172v-191h-172 q-205 0 -205 -108q0 -51 48 -83t140 -32q172 0 314 121l131 -168q-158 -158 -447 -158z" glyph-name="epsilontonos" horiz-adv-x="1001" unicode="έ"/><glyph d="M535 1153l40 436h216l-144 -436h-112zM797 -377v975q0 184 -183 184q-141 0 -225 -116v-666h-260v989h260v-129q129 154 346 154q160 0 241 -84t81 -232v-1075h-260z" glyph-name="etatonos" unicode="ή"/><glyph d="M201 1153l41 436h215l-144 -436h-112zM129 246v743h260v-692q0 -43 22.5 -66.5t59.5 -23.5q18 0 39 4l18 -221q-53 -14 -120 -15q-137 0 -208 69t-71 202z" glyph-name="iotatonos" horiz-adv-x="546" unicode="ί"/><glyph d="M537 1153l41 436h217l-142 -436h-116zM324 1135q-59 0 -99.5 39.5t-40.5 99.5q0 57 40 97t100 40q57 0 97 -40t40 -97q0 -59 -40 -99t-97 -40zM936 1135q-57 0 -97 39.5t-40 99.5q0 57 40 97t97 40t98 -40t41 -97q0 -59 -40 -99t-99 -40zM592 -25q-227 0 -345 127 t-118 344v543h260v-538q0 -111 53.5 -177.5t149.5 -66.5q121 0 187.5 89t66.5 234q0 225 -121 379l240 105q152 -213 151 -484q0 -244 -141 -399.5t-383 -155.5z" glyph-name="upsilondieresistonos" horiz-adv-x="1181" unicode="ΰ"/><glyph d="M1208 -10q-53 -14 -118 -15q-213 0 -265 177q-49 -80 -135 -128.5t-186 -48.5q-193 0 -315.5 138.5t-122.5 380.5q0 238 122.5 379t315.5 141q186 0 303 -152v127h264v-692q0 -43 22.5 -66.5t59.5 -23.5q18 0 39 4zM809 319v349q-33 49 -96.5 80.5t-128.5 31.5 q-111 0 -180.5 -78.5t-69.5 -207.5q0 -127 69.5 -207t180.5 -80q66 0 129 31.5t96 80.5z" glyph-name="alpha" horiz-adv-x="1228" unicode="α"/><glyph d="M389 -377h-260v1295q0 121 45 215t120 147t162 79.5t179 26.5q219 0 343 -99t124 -271q0 -123 -84 -207t-203 -104q121 -12 219.5 -104.5t98.5 -254.5q0 -156 -121 -263.5t-289 -107.5q-213 0 -334 152v-504zM389 317q90 -111 246 -110q109 0 169 51t60 137t-63.5 134.5 t-171.5 48.5h-82v231h74q98 0 154 45t56 127q0 80 -55 126t-141 46q-109 0 -177.5 -62.5t-68.5 -172.5v-601z" glyph-name="beta" horiz-adv-x="1200" unicode="β"/><glyph d="M393 -377v219q0 324 -119.5 634t-306.5 513h295q109 -125 195 -325.5t104 -362.5q78 119 133.5 316.5t55.5 371.5h262q0 -240 -100.5 -511t-256.5 -468v-387h-262z" glyph-name="gamma" horiz-adv-x="1050" unicode="γ"/><glyph d="M612 985q68 -18 108 -31.5t108.5 -42t110.5 -65.5t86 -89t65.5 -127t21.5 -165q0 -201 -138 -345.5t-372 -144.5q-246 0 -391 146.5t-145 353.5q0 137 64.5 238.5t168.5 154.5q-117 76 -117 211q0 131 108.5 221.5t297.5 90.5q227 0 395 -136l-102 -184 q-113 113 -293 113q-70 0 -113 -27t-43 -67q0 -18 10.5 -33t44 -29t51 -20.5t74.5 -22.5zM596 207q119 0 190.5 79t71.5 179q0 70 -24.5 121t-73.5 86t-95.5 55.5t-117.5 42.5q-102 -41 -156.5 -120t-54.5 -175q0 -109 70.5 -188.5t189.5 -79.5z" glyph-name="delta" horiz-adv-x="1175" unicode="δ"/><glyph d="M522 -25q-211 0 -335 82t-124 215q0 102 86.5 166t186.5 70q-102 16 -177 79.5t-75 153.5q0 127 119 200t329 71q262 0 422 -164l-127 -154q-113 113 -290 113q-82 0 -132.5 -28.5t-50.5 -76.5q0 -109 187 -108h172v-191h-172q-205 0 -205 -108q0 -51 48 -83t140 -32 q172 0 314 121l131 -168q-158 -158 -447 -158z" glyph-name="epsilon" horiz-adv-x="1001" unicode="ε"/><glyph d="M602 0q-248 0 -392 111.5t-144 320.5q0 213 136 396.5t376 310.5h-480v227h817v-188q-252 -139 -416.5 -331t-164.5 -394q0 -121 76.5 -171.5t222.5 -50.5q303 0 303 -239q0 -121 -109 -314h-276q39 53 79 134.5t40 124.5q0 27 -17.5 45t-50.5 18z" glyph-name="zeta" horiz-adv-x="995" unicode="ζ"/><glyph d="M797 -377v975q0 184 -183 184q-141 0 -225 -116v-666h-260v989h260v-129q129 154 346 154q160 0 241 -84t81 -232v-1075h-260z" glyph-name="eta" unicode="η"/><glyph d="M588 1391q166 0 286.5 -97.5t179 -255t58.5 -354.5q0 -301 -139 -505t-385 -204t-384 204t-138 505q0 303 138 505t384 202zM588 1159q-221 0 -250 -358h500q-29 358 -250 358zM588 207q223 0 250 364h-500q29 -364 250 -364z" glyph-name="theta" horiz-adv-x="1175" unicode="θ"/><glyph d="M129 246v743h260v-692q0 -43 22.5 -66.5t59.5 -23.5q18 0 39 4l18 -221q-53 -14 -120 -15q-137 0 -208 69t-71 202z" glyph-name="iota" horiz-adv-x="546" unicode="ι"/><glyph d="M770 0l-262 381l-119 -127v-254h-260v989h260v-440l375 440h319l-391 -448l404 -541h-326z" glyph-name="kappa" horiz-adv-x="1095" unicode="κ"/><glyph d="M223 1391q139 -4 231.5 -56.5t143.5 -183.5l465 -1151h-281l-258 688l-258 -688h-278l401 1001l-37 84q-33 74 -137 74q-47 0 -82 -18l-39 233q53 17 129 17z" glyph-name="lambda" horiz-adv-x="1050" unicode="λ"/><glyph d="M389 -377h-260v1366h260v-600q0 -184 184 -184q133 0 224 114v670h260v-692q0 -43 22.5 -66.5t59.5 -23.5q18 0 39 4l18 -221q-53 -14 -121 -15q-213 0 -266 177q-45 -78 -118 -127.5t-159 -49.5q-100 0 -143 58v-410z" glyph-name="mu" horiz-adv-x="1214" unicode="μ"/><glyph d="M385 0l-397 989h278l271 -729q98 150 155.5 348.5t57.5 380.5h262q0 -244 -103.5 -518t-261.5 -471h-262z" glyph-name="nu" horiz-adv-x="1050" unicode="ν"/><glyph d="M66 342q0 125 71.5 202t175.5 107q-90 16 -157.5 75.5t-67.5 158.5q0 80 55.5 150.5t141.5 103.5h-176v227h798v-227h-389q-72 -18 -116 -66.5t-44 -109.5q0 -76 65.5 -117t174.5 -41h299v-223h-299q-262 0 -262 -179q0 -172 297 -172q303 0 303 -239q0 -121 -109 -314 h-276q37 51 77 141.5t40 135.5t-68 45q-262 0 -398 88t-136 254z" glyph-name="xi" horiz-adv-x="995" unicode="ξ"/><glyph d="M587.5 -25q-237.5 0 -379.5 150.5t-142 370t142 369t379.5 149.5t381 -149.5t143.5 -369t-143.5 -370t-381 -150.5zM588 207q117 0 185.5 83t68.5 206q0 121 -68.5 203.5t-185.5 82.5t-184.5 -83t-67.5 -203q0 -123 67.5 -206t184.5 -83z" glyph-name="omicron" horiz-adv-x="1175" unicode="ο"/><glyph d="M850 0v762h-408v-762h-262v762h-164v227h1260v-227h-164v-762h-262z" glyph-name="pi" horiz-adv-x="1292" unicode="π"/><glyph d="M389 127v-504h-260v873q0 219 136 368.5t364 149.5q229 0 366.5 -149.5t137.5 -368.5q0 -242 -122 -381.5t-317 -139.5q-186 0 -305 152zM862 496q0 121 -63.5 203.5t-171.5 82.5q-111 0 -174.5 -83t-63.5 -203v-177q33 -47 97.5 -79.5t125.5 -32.5q113 0 181.5 80 t68.5 209z" glyph-name="rho" horiz-adv-x="1193" unicode="ρ"/><glyph d="M66 496q0 227 147 372.5t377 145.5q262 0 391 -178l-170 -160q-72 106 -209 106q-119 0 -193.5 -77.5t-74.5 -204.5q0 -137 81 -203t216 -66q319 0 319 -215q0 -145 -108 -338h-273q37 53 77 142.5t40 134.5t-68 45q-248 0 -400 131.5t-152 364.5z" glyph-name="sigma1" horiz-adv-x="1007" unicode="ς"/><glyph d="M588 -25q-238 0 -380 150.5t-142 370.5q0 213 144 353t392 140h533v-231h-185q139 -119 139.5 -317.5t-132.5 -332t-369 -133.5zM698 758h-96q-125 0 -195.5 -78t-70.5 -184q0 -123 67.5 -206t184.5 -83t185.5 83t68.5 199q-1 181 -144 269z" glyph-name="sigma" horiz-adv-x="1175" unicode="σ"/><glyph d="M342 246v516h-299v227h881v-227h-322v-447q0 -47 24.5 -77.5t67.5 -30.5q63 0 88 29l56 -197q-72 -63 -215 -64q-137 0 -209 70t-72 201z" glyph-name="tau" horiz-adv-x="966" unicode="τ"/><glyph d="M592 -25q-227 0 -345 127t-118 344v543h260v-538q0 -111 53.5 -177.5t149.5 -66.5q121 0 187.5 89t66.5 234q0 225 -121 379l240 105q152 -213 151 -484q0 -244 -141 -399.5t-383 -155.5z" glyph-name="upsilon" horiz-adv-x="1181" unicode="υ"/><glyph d="M1380 483q0 -233 -141 -364t-387 -142l2 -354h-262v354q-246 10 -386 148.5t-140 386.5q0 176 95 302t253 192l116 -201q-94 -39 -144 -119t-50 -174q0 -147 70.5 -226t185.5 -79v782h192q289 0 442.5 -133t153.5 -373zM854 207q115 0 185.5 70.5t70.5 205.5t-70.5 205 t-185.5 70v-551z" glyph-name="phi" horiz-adv-x="1445" unicode="φ"/><glyph d="M743 -377l-227 459l-231 -459h-285l350 703l-330 663h287l209 -420l205 420h289l-332 -663l354 -703h-289z" glyph-name="chi" horiz-adv-x="1032" unicode="χ"/><glyph d="M1122 989h262v-497q0 -225 -114.5 -355.5t-382.5 -154.5v-359h-260v359q-270 25 -384 154.5t-114 355.5v497h260v-497q0 -123 52.5 -189.5t185.5 -85.5v1149h260v-1149q131 18 183 86t52 189v497z" glyph-name="psi" horiz-adv-x="1513" unicode="ψ"/><glyph d="M1139 -25q-133 0 -210 73t-128 208q-53 -135 -128 -208t-208 -73q-190 0 -294.5 145.5t-104.5 354.5q0 352 210 539l236 -94q-176 -158 -176 -445q0 -111 42 -189.5t122 -78.5q90 0 131 80t41 209v249h260v-249q0 -127 41 -208t129 -81q82 0 124 77.5t42 190.5 q0 287 -178 445l237 94q211 -186 211 -539q0 -209 -105.5 -354.5t-293.5 -145.5z" glyph-name="omega" horiz-adv-x="1601" unicode="ω"/><glyph d="M43 1135q-59 0 -99 39.5t-40 99.5q0 57 41 97t98 40t97 -40t40 -97q0 -59 -40 -99t-97 -40zM475 1135q-57 0 -98 39.5t-41 99.5q0 57 41 97t98 40t98 -40t41 -97q0 -59 -41 -99t-98 -40zM129 246v743h260v-692q0 -43 22.5 -66.5t59.5 -23.5q18 0 39 4l18 -221 q-53 -14 -120 -15q-137 0 -208 69t-71 202z" glyph-name="iotadieresis" horiz-adv-x="546" unicode="ϊ"/><glyph d="M377 1135q-59 0 -99 39.5t-40 99.5q0 57 40.5 97t98 40t97.5 -40t40 -97q0 -59 -40 -99t-97 -40zM809 1135q-57 0 -98 39.5t-41 99.5q0 57 41 97t98 40t98 -40t41 -97q0 -59 -41 -99t-98 -40zM592 -25q-227 0 -345 127t-118 344v543h260v-538q0 -111 53.5 -177.5 t149.5 -66.5q121 0 187.5 89t66.5 234q0 225 -121 379l240 105q152 -213 151 -484q0 -244 -141 -399.5t-383 -155.5z" glyph-name="upsilondieresis" horiz-adv-x="1181" unicode="ϋ"/><glyph d="M528 1153l41 436h215l-143 -436h-113zM587.5 -25q-237.5 0 -379.5 150.5t-142 370t142 369t379.5 149.5t381 -149.5t143.5 -369t-143.5 -370t-381 -150.5zM588 207q117 0 185.5 83t68.5 206q0 121 -68.5 203.5t-185.5 82.5t-184.5 -83t-67.5 -203q0 -123 67.5 -206 t184.5 -83z" glyph-name="omicrontonos" horiz-adv-x="1175" unicode="ό"/><glyph d="M535 1153l40 436h216l-144 -436h-112zM592 -25q-227 0 -345 127t-118 344v543h260v-538q0 -111 53.5 -177.5t149.5 -66.5q121 0 187.5 89t66.5 234q0 225 -121 379l240 105q152 -213 151 -484q0 -244 -141 -399.5t-383 -155.5z" glyph-name="upsilontonos" horiz-adv-x="1181" unicode="ύ"/><glyph d="M743 1153l41 436h215l-143 -436h-113zM1139 -25q-133 0 -210 73t-128 208q-53 -135 -128 -208t-208 -73q-190 0 -294.5 145.5t-104.5 354.5q0 352 210 539l236 -94q-176 -158 -176 -445q0 -111 42 -189.5t122 -78.5q90 0 131 80t41 209v249h260v-249q0 -127 41 -208 t129 -81q82 0 124 77.5t42 190.5q0 287 -178 445l237 94q211 -186 211 -539q0 -209 -105.5 -354.5t-293.5 -145.5z" glyph-name="omegatonos" horiz-adv-x="1601" unicode="ώ"/><glyph d="M416 1477q-59 0 -99.5 39.5t-40.5 99.5q0 57 41 97t98.5 40t97.5 -40t40 -97q0 -59 -40 -99t-97 -40zM848 1477q-57 0 -98 39.5t-41 99.5q0 57 41 97t98 40t98 -40t41 -97q0 -59 -41 -99t-98 -40zM135 0v1366h967v-250h-676v-297h661v-250h-661v-317h676v-252h-967z" glyph-name="afii10023" horiz-adv-x="1193" unicode="Ё"/><glyph d="M1034 227q111 0 165 42t54 134v50q0 182 -252 182q-141 0 -258 -51v-584h-292v1110h-400v256h1090v-256h-398v-297q168 78 359 78q223 0 333.5 -112.5t110.5 -319.5v-49q0 -434 -512 -435v252z" glyph-name="afii10051" horiz-adv-x="1589" unicode="Ђ"/><glyph d="M715 1481h-228l275 295h285zM135 0v1366h967v-256h-676v-1110h-291z" glyph-name="afii10052" horiz-adv-x="1169" unicode="Ѓ"/><glyph d="M793 233q106 0 193 55.5t132 143.5l250 -121q-195 -336 -571 -336q-311 0 -519 198t-208 509t207.5 509t519.5 198q383 0 571 -334l-250 -123q-45 86 -133 142t-192 56q-152 0 -260.5 -84.5t-145.5 -226.5h647v-250h-651q29 -152 140.5 -244t269.5 -92z" glyph-name="afii10053" horiz-adv-x="1406" unicode="Є"/><glyph d="M43 193l158 221q176 -184 434 -185q113 0 175 45t62 109q0 70 -67.5 105.5t-208.5 68.5q-70 16 -100.5 23.5t-96 28t-99.5 39t-82 51t-71.5 69.5t-42 90t-18.5 117q0 176 141.5 293.5t376.5 117.5q326 0 533 -190l-162 -213q-162 150 -391 150q-96 0 -148.5 -38 t-52.5 -101.5t63.5 -93.5t208.5 -64q63 -14 100.5 -23.5t98.5 -30t98 -40t83 -52.5t72 -69.5t43 -90t17 -116.5q0 -197 -140 -318t-406 -121q-365 1 -578 218z" glyph-name="afii10054" horiz-adv-x="1228" unicode="Ѕ"/><glyph d="M135 0v1366h291v-1366h-291z" glyph-name="afii10055" horiz-adv-x="561" unicode="І"/><glyph d="M66 1477q-59 0 -99.5 39.5t-40.5 99.5q0 57 41 97t98.5 40t97.5 -40t40 -97q0 -59 -40 -99t-97 -40zM497.5 1477q-57.5 0 -98.5 39.5t-41 99.5q0 57 41 97t98.5 40t98.5 -40t41 -97q0 -59 -41 -99t-98.5 -40zM135 0v1366h291v-1366h-291z" glyph-name="afii10056" horiz-adv-x="561" unicode="Ї"/><glyph d="M12 109l127 223q102 -98 217 -99q96 0 154.5 59.5t58.5 160.5v913h291v-917q0 -233 -131 -353.5t-350 -120.5q-232 1 -367 134z" glyph-name="afii10057" horiz-adv-x="995" unicode="Ј"/><glyph d="M53 256q57 0 100.5 24.5t86.5 94t73.5 215t46.5 366.5l33 410h971v-485h346q213 0 337 -127t124 -314q0 -188 -123 -314t-338 -126h-639v1110h-434l-14 -190q-20 -246 -60.5 -421t-88.5 -275.5t-120.5 -158t-139.5 -74t-161 -16.5v281zM1364 625v-369h307q88 0 144.5 50 t56.5 134t-56.5 134.5t-144.5 50.5h-307z" glyph-name="afii10058" horiz-adv-x="2213" unicode="Љ"/><glyph d="M135 1366h291v-537h645v537h293v-537h373q201 0 317.5 -118.5t116.5 -294.5q0 -178 -116 -297t-318 -119h-666v573h-645v-573h-291v1366zM1700 256q76 0 124 44t48 115.5t-48 114.5t-124 43h-336v-317h336z" glyph-name="afii10059" horiz-adv-x="2213" unicode="Њ"/><glyph d="M1253 385q0 139 -58 194.5t-194 55.5q-141 0 -258 -51v-584h-292v1110h-400v256h1090v-256h-398v-297q168 78 359 78q229 0 336.5 -121t107.5 -385v-385h-293v385z" glyph-name="afii10060" horiz-adv-x="1652" unicode="Ћ"/><glyph d="M752 1481h-230l275 295h286zM946 0l-414 547l-106 -127v-420h-291v1366h291v-610l483 610h359l-543 -641l580 -725h-359z" glyph-name="afii10061" horiz-adv-x="1302" unicode="Ќ"/><glyph d="M659 1468q-227 0 -368 185l141 114q84 -121 227.5 -120.5t227.5 120.5l139 -114q-63 -86 -159.5 -135.5t-207.5 -49.5zM1004 1366h325l-504 -1079q-72 -156 -178 -234t-280 -78q-102 0 -177 29l64 250q39 -20 96 -21q68 0 112 30t83 99l-553 1004h334l372 -725z" glyph-name="afii10062" horiz-adv-x="1320" unicode="Ў"/><glyph d="M1323 1366v-1366h-467v-260h-256v260h-465v1366h291v-1110h604v1110h293z" glyph-name="afii10145" horiz-adv-x="1456" unicode="Џ"/><glyph d="M1092 0l-86 236h-611l-86 -236h-319l528 1366h365l526 -1366h-317zM700 1114l-227 -627h453z" glyph-name="afii10017" horiz-adv-x="1400" unicode="А"/><glyph d="M1133 1366v-250h-707v-250h354q211 0 332 -125t121 -309t-121 -308t-332 -124h-645v1366h998zM426 614v-362h315q86 0 140.5 50t54.5 130q0 82 -54.5 132t-140.5 50h-315z" glyph-name="afii10018" horiz-adv-x="1277" unicode="Б"/><glyph d="M135 0v1366h719q186 0 289.5 -101.5t103.5 -246.5q0 -125 -67.5 -209t-167.5 -104q111 -16 186.5 -112.5t75.5 -223.5q0 -160 -104.5 -264.5t-292.5 -104.5h-742zM426 817h365q74 0 116.5 42t42.5 110q0 63 -44 106t-115 43h-365v-301zM426 248h375q82 0 129 44t47 118 q0 68 -47 113.5t-129 45.5h-375v-321z" glyph-name="afii10019" horiz-adv-x="1357" unicode="В"/><glyph d="M135 0v1366h967v-256h-676v-1110h-291z" glyph-name="afii10020" horiz-adv-x="1169" unicode="Г"/><glyph d="M35 256h106q147 152 199 745l31 365h932v-1110h165v-508h-256v252h-923v-252h-254v508zM594 948q-41 -543 -160 -692h578v854h-406z" glyph-name="afii10021" horiz-adv-x="1503" unicode="Д"/><glyph d="M135 0v1366h967v-250h-676v-297h661v-250h-661v-317h676v-252h-967z" glyph-name="afii10022" horiz-adv-x="1193" unicode="Е"/><glyph d="M1599 0l-405 588h-74v-588h-293v588h-75l-406 -588h-348l524 709l-487 657h344l375 -549h73v549h293v-549h74l375 549h344l-488 -657l523 -709h-349z" glyph-name="afii10024" horiz-adv-x="1947" unicode="Ж"/><glyph d="M41 195l152 190q68 -72 181 -114t218 -42q133 0 209 48.5t76 128.5q0 162 -302 161h-241v250h241q279 0 279 152q0 78 -78 121t-201 43q-221 0 -370 -144l-146 180q86 98 228.5 157.5t316.5 59.5q242 0 391.5 -100t149.5 -270q0 -123 -88 -206t-209 -105 q119 -12 218 -99.5t99 -228.5q0 -176 -157.5 -289t-403.5 -113q-182 0 -333.5 62t-229.5 158z" glyph-name="afii10025" horiz-adv-x="1249" unicode="З"/><glyph d="M135 1366h291v-934l633 934h299v-1366h-291v967l-651 -967h-281v1366z" glyph-name="afii10026" horiz-adv-x="1492" unicode="И"/><glyph d="M748 1468q-227 0 -369 185l141 114q84 -121 227.5 -120.5t227.5 120.5l139 -114q-63 -86 -159 -135.5t-207 -49.5zM135 1366h291v-934l633 934h299v-1366h-291v967l-651 -967h-281v1366z" glyph-name="afii10027" horiz-adv-x="1492" unicode="Й"/><glyph d="M946 0l-414 547l-106 -127v-420h-291v1366h291v-610l483 610h359l-543 -641l580 -725h-359z" glyph-name="afii10028" horiz-adv-x="1302" unicode="К"/><glyph d="M53 256q57 0 100.5 24.5t86.5 94t73.5 215t46.5 366.5l33 410h971v-1366h-293v1110h-434l-14 -190q-20 -246 -60.5 -421t-88.5 -275.5t-120.5 -158t-139.5 -74t-161 -16.5v281z" glyph-name="afii10029" horiz-adv-x="1497" unicode="Л"/><glyph d="M1323 0v983l-385 -983h-127l-385 983v-983h-291v1366h408l331 -852l332 852h410v-1366h-293z" glyph-name="afii10030" horiz-adv-x="1751" unicode="М"/><glyph d="M1071 0v573h-645v-573h-291v1366h291v-537h645v537h293v-1366h-293z" glyph-name="afii10031" horiz-adv-x="1497" unicode="Н"/><glyph d="M70 682q0 307 201.5 507t510.5 200q311 0 513 -199t202 -508t-201.5 -508t-513.5 -199q-309 0 -510.5 200t-201.5 507zM1198 682q0 195 -114.5 321.5t-301 126.5t-300 -126.5t-113.5 -321.5t113.5 -322t300 -127t301 127t114.5 322z" glyph-name="afii10032" horiz-adv-x="1566" unicode="О"/><glyph d="M1071 0v1110h-645v-1110h-291v1366h1229v-1366h-293z" glyph-name="afii10033" horiz-adv-x="1497" unicode="П"/><glyph d="M135 0v1366h639q215 0 337 -126t122 -314q0 -186 -123 -311.5t-336 -125.5h-348v-489h-291zM936 928q0 84 -57.5 136t-143.5 52h-309v-377h309q88 0 144.5 52.5t56.5 136.5z" glyph-name="afii10034" horiz-adv-x="1277" unicode="Р"/><glyph d="M786 -25q-305 0 -510.5 198t-205.5 509t205.5 509t510.5 198q393 0 582 -334l-250 -123q-45 86 -134 142t-198 56q-178 0 -297.5 -128t-119.5 -320.5t119.5 -320.5t297.5 -128q111 0 199 55.5t133 143.5l250 -121q-195 -336 -582 -336z" glyph-name="afii10035" horiz-adv-x="1406" unicode="С"/><glyph d="M451 0v1110h-400v256h1090v-256h-398v-1110h-292z" glyph-name="afii10036" horiz-adv-x="1191" unicode="Т"/><glyph d="M1004 1366h325l-504 -1079q-72 -156 -178 -234t-280 -78q-102 0 -177 29l64 250q39 -20 96 -21q68 0 112 30t83 99l-553 1004h334l372 -725z" glyph-name="afii10037" horiz-adv-x="1320" unicode="У"/><glyph d="M1679 682q0 -236 -173 -377t-486 -168v-137h-291v137q-313 27 -486 168t-173 377q0 233 174 375.5t485 169.5v139h291v-139q313 -27 486 -168t173 -377zM369 682q0 -117 92 -190.5t268 -94.5v570q-176 -20 -268 -94t-92 -191zM1020 397q176 20 269 94t93 191t-93 190.5 t-269 94.5v-570z" glyph-name="afii10038" horiz-adv-x="1751" unicode="Ф"/><glyph d="M1026 0l-342 500l-344 -500h-346l495 700l-464 666h346l313 -467l309 467h350l-464 -664l495 -702h-348z" glyph-name="afii10039" horiz-adv-x="1368" unicode="Х"/><glyph d="M1231 0h-1096v1366h291v-1110h604v1110h293v-1110h164v-508h-256v252z" glyph-name="afii10040" horiz-adv-x="1521" unicode="Ц"/><glyph d="M391 965q0 -137 58.5 -192.5t193.5 -55.5q141 0 260 51v598h291v-1366h-291v539q-172 -78 -360 -78q-229 0 -336 119.5t-107 384.5v401h291v-401z" glyph-name="afii10041" horiz-adv-x="1329" unicode="Ч"/><glyph d="M1878 1366v-1366h-1743v1366h291v-1110h434v1110h293v-1110h432v1110h293z" glyph-name="afii10042" horiz-adv-x="2013" unicode="Ш"/><glyph d="M1878 1366v-1110h166v-508h-256v252h-1653v1366h291v-1110h434v1110h293v-1110h432v1110h293z" glyph-name="afii10043" horiz-adv-x="2076" unicode="Щ"/><glyph d="M451 0v1110h-400v256h692v-485h347q213 0 336.5 -127t123.5 -314q0 -188 -122.5 -314t-337.5 -126h-639zM743 625v-369h308q88 0 144 50t56 134t-56 134.5t-144 50.5h-308z" glyph-name="afii10044" horiz-adv-x="1593" unicode="Ъ"/><glyph d="M426 1366v-485h348q213 0 336 -127t123 -314q0 -188 -122 -314t-337 -126h-639v1366h291zM1348 0v1366h292v-1366h-292zM426 625v-369h309q88 0 144.5 50t56.5 134t-56.5 134.5t-144.5 50.5h-309z" glyph-name="afii10045" horiz-adv-x="1775" unicode="Ы"/><glyph d="M426 1366v-485h348q213 0 336 -127t123 -314q0 -188 -122 -314t-337 -126h-639v1366h291zM426 625v-369h309q88 0 144.5 50t56.5 134t-56.5 134.5t-144.5 50.5h-309z" glyph-name="afii10046" horiz-adv-x="1277" unicode="Ь"/><glyph d="M608 1389q313 0 520 -198t207 -509t-206.5 -509t-520.5 -198q-379 0 -569 336l250 121q45 -88 132 -143.5t193 -55.5q156 0 267.5 92.5t142.5 243.5h-653v250h647q-35 139 -144.5 225t-259.5 86q-104 0 -192 -56t-133 -142l-250 123q188 334 569 334z" glyph-name="afii10047" horiz-adv-x="1406" unicode="Э"/><glyph d="M1352 1389q311 0 511.5 -199t200.5 -508t-200.5 -508t-511.5 -199q-281 0 -475.5 166t-229.5 432h-221v-573h-291v1366h291v-537h227q47 250 238 405t461 155zM1351.5 233q186.5 0 301 127t114.5 322t-114.5 321.5t-300.5 126.5q-188 0 -302 -126.5t-114 -321.5 t114.5 -322t301 -127z" glyph-name="afii10048" horiz-adv-x="2136" unicode="Ю"/><glyph d="M76 0l307 520q-125 29 -212 133.5t-87 272.5q0 195 124 317.5t335 122.5h639v-1366h-291v485h-211l-270 -485h-334zM891 741v369h-305q-90 0 -147.5 -50t-57.5 -134t57.5 -134.5t147.5 -50.5h305z" glyph-name="afii10049" horiz-adv-x="1316" unicode="Я"/><glyph d="M723 0v102q-106 -127 -313 -127q-133 0 -238.5 87.5t-105.5 240.5q0 160 103 237.5t241 77.5q215 0 313 -120v137q0 76 -59.5 121t-157.5 45q-164 0 -289 -117l-98 174q176 156 432 156q190 0 311 -88t121 -287v-639h-260zM723 238v122q-63 86 -209 86q-80 0 -133 -39.5 t-53 -109.5q0 -68 53 -106.5t133 -38.5q146 0 209 86z" glyph-name="afii10065" horiz-adv-x="1112" unicode="а"/><glyph d="M66 598q0 330 146 518.5t482 239.5l291 45v-238l-268 -43q-213 -33 -323.5 -119t-137.5 -229q63 92 167.5 140.5t219.5 48.5q205 0 336 -135.5t131 -333.5q0 -217 -141.5 -367t-380.5 -150q-246 0 -384 168t-138 455zM842 500q0 117 -68.5 199.5t-185.5 82.5t-184.5 -82 t-67.5 -200q0 -125 67.5 -209t184.5 -84t185.5 84t68.5 209z" glyph-name="afii10066" horiz-adv-x="1175" unicode="б"/><glyph d="M129 0v989h602q160 0 244 -72.5t84 -181.5q0 -86 -47 -145.5t-121 -79.5q82 -18 135 -86t53 -156q0 -119 -86 -193.5t-252 -74.5h-612zM795 694q0 39 -26 63.5t-71 24.5h-309v-174h309q45 0 71 24.5t26 61.5zM813 303q0 41 -27.5 69.5t-76.5 28.5h-320v-194h320 q49 0 76.5 26.5t27.5 69.5z" glyph-name="afii10067" horiz-adv-x="1144" unicode="в"/><glyph d="M893 762h-504v-762h-260v989h764v-227z" glyph-name="afii10068" horiz-adv-x="929" unicode="г"/><glyph d="M37 227h92q90 147 123 545l20 217h787v-762h108v-479h-227v252h-676v-252h-227v479zM473 674q-23 -319 -100 -447h426v535h-320z" glyph-name="afii10069" horiz-adv-x="1202" unicode="д"/><glyph d="M66 496q0 219 144 368.5t368 149.5q221 0 358 -150.5t137 -394.5v-57h-735q12 -98 88 -164t197 -66q162 0 264 99l114 -168q-150 -137 -407 -138q-229 0 -378.5 144t-149.5 377zM578 807q-111 0 -172.5 -66.5t-71.5 -152.5h487q-6 84 -66 151.5t-177 67.5z" glyph-name="afii10070" horiz-adv-x="1132" unicode="е"/><glyph d="M1221 0l-265 412h-61v-412h-260v412h-62l-262 -412h-313l352 512l-340 477h305l260 -401h60v401h260v-401h59l260 401h306l-340 -477l352 -512h-311z" glyph-name="afii10072" horiz-adv-x="1529" unicode="ж"/><glyph d="M35 133l131 168q141 -121 313 -121q92 0 140.5 32t48.5 83q0 109 -205 108h-174v191h174q186 0 186 108q0 47 -50 76t-132 29q-180 0 -291 -113l-127 154q158 164 420 164q211 2 330 -71t121 -200q0 -90 -76 -153.5t-178 -79.5q100 -6 186 -69.5t86 -166.5 q0 -133 -123 -215t-334 -82q-288 0 -446 158z" glyph-name="afii10073" horiz-adv-x="1001" unicode="з"/><glyph d="M129 0v989h260v-610l408 610h262v-989h-260v633l-420 -633h-250z" glyph-name="afii10074" horiz-adv-x="1187" unicode="и"/><glyph d="M594 1126q-227 0 -369 185l142 114q84 -121 227 -120.5t227 120.5l140 -114q-63 -86 -159.5 -135.5t-207.5 -49.5zM129 0v989h260v-610l408 610h262v-989h-260v633l-420 -633h-250z" glyph-name="afii10075" horiz-adv-x="1187" unicode="й"/><glyph d="M770 0l-262 381l-119 -127v-254h-260v989h260v-440l375 440h319l-391 -448l404 -541h-326z" glyph-name="afii10076" horiz-adv-x="1095" unicode="к"/><glyph d="M37 227q80 0 131 112t76 417l16 233h799v-989h-260v762h-318l-6 -70q-18 -272 -75.5 -433t-144.5 -222.5t-218 -61.5v252z" glyph-name="afii10077" horiz-adv-x="1187" unicode="л"/><glyph d="M1071 0v670l-283 -670h-118l-283 670v-670h-258v989h338l262 -616l258 616h340v-989h-256z" glyph-name="afii10078" horiz-adv-x="1456" unicode="м"/><glyph d="M129 0v989h260v-366h410v366h260v-989h-260v395h-410v-395h-260z" glyph-name="afii10079" horiz-adv-x="1187" unicode="н"/><glyph d="M587.5 -25q-237.5 0 -379.5 150.5t-142 370t142 369t379.5 149.5t381 -149.5t143.5 -369t-143.5 -370t-381 -150.5zM588 207q117 0 185.5 83t68.5 206q0 121 -68.5 203.5t-185.5 82.5t-184.5 -83t-67.5 -203q0 -123 67.5 -206t184.5 -83z" glyph-name="afii10080" horiz-adv-x="1175" unicode="о"/><glyph d="M799 0v762h-410v-762h-260v989h930v-989h-260z" glyph-name="afii10081" horiz-adv-x="1187" unicode="п"/><glyph d="M389 -377h-260v1366h260v-125q117 150 305 150q195 0 317 -138.5t122 -380t-122 -381t-317 -139.5q-186 0 -305 152v-504zM862 496q0 127 -68.5 206.5t-181.5 79.5q-63 0 -126.5 -32.5t-96.5 -79.5v-351q33 -47 97.5 -79.5t125.5 -32.5q113 0 181.5 80t68.5 209z" glyph-name="afii10082" horiz-adv-x="1198" unicode="р"/><glyph d="M66 496q0 227 147 372.5t377 145.5q262 0 391 -178l-170 -160q-72 106 -209 106q-119 0 -193.5 -78.5t-74.5 -207.5t74.5 -209t193.5 -80q133 0 209 106l170 -157q-129 -180 -391 -181q-229 0 -376.5 146t-147.5 375z" glyph-name="afii10083" horiz-adv-x="1021" unicode="с"/><glyph d="M311 0v762h-276v227h815v-227h-277v-762h-262z" glyph-name="afii10084" horiz-adv-x="884" unicode="т"/><glyph d="M133 -154q37 -16 82 -16q104 0 137 72l37 84l-401 1003h278l258 -688l258 688h281l-465 -1151q-51 -131 -143.5 -183t-231.5 -56q-72 0 -129 14z" glyph-name="afii10085" horiz-adv-x="1050" unicode="у"/><glyph d="M1380 496q0 -233 -141 -369.5t-385 -151.5v-352h-262v352q-246 14 -386 149.5t-140 371t141 370.5t385 148v352h262v-352q244 -12 385 -147t141 -371zM336 496q0 -139 72.5 -219t187.5 -80v596q-115 0 -187.5 -80t-72.5 -217zM850 197q115 0 187.5 79.5t72.5 219.5 q0 137 -72.5 217t-187.5 80v-596z" glyph-name="afii10086" horiz-adv-x="1445" unicode="ф"/><glyph d="M741 0l-225 334l-227 -334h-289l350 508l-330 481h291l205 -305l203 305h291l-332 -481l354 -508h-291z" glyph-name="afii10087" horiz-adv-x="1032" unicode="х"/><glyph d="M920 0h-791v989h260v-762h389v762h260v-762h109v-479h-227v252z" glyph-name="afii10088" horiz-adv-x="1181" unicode="ц"/><glyph d="M358 989v-264q0 -100 51.5 -142t157.5 -42q121 0 199 39v409h262v-989h-262v371q-127 -61 -289 -62q-201 0 -290 83t-89 243v354h260z" glyph-name="afii10089" horiz-adv-x="1155" unicode="ч"/><glyph d="M1556 989v-989h-1427v989h260v-762h324v762h260v-762h321v762h262z" glyph-name="afii10090" horiz-adv-x="1685" unicode="ш"/><glyph d="M1556 989v-762h123v-479h-227v252h-1323v989h260v-762h324v762h260v-762h321v762h262z" glyph-name="afii10091" horiz-adv-x="1712" unicode="щ"/><glyph d="M311 0v762h-276v227h538v-313h332q168 0 259 -99.5t91 -238.5q0 -137 -93 -237.5t-257 -100.5h-594zM573 459v-240h293q59 0 91 34t32 85q0 53 -31.5 87t-91.5 34h-293z" glyph-name="afii10092" horiz-adv-x="1316" unicode="ъ"/><glyph d="M389 989v-313h332q170 0 260 -99.5t90 -238.5q0 -137 -93 -237.5t-257 -100.5h-592v989h260zM1200 0v989h262v-989h-262zM389 459v-240h293q59 0 91 34t32 85q0 53 -32 87t-91 34h-293z" glyph-name="afii10093" horiz-adv-x="1589" unicode="ы"/><glyph d="M389 989v-313h332q170 0 260 -99.5t90 -238.5q0 -137 -93 -237.5t-257 -100.5h-592v989h260zM389 459v-240h293q59 0 91 34t32 85q0 53 -32 87t-91 34h-293z" glyph-name="afii10094" horiz-adv-x="1132" unicode="ь"/><glyph d="M449 1014q229 0 377.5 -143.5t148.5 -374.5q0 -233 -149.5 -377t-376.5 -144q-258 0 -408 138l113 168q102 -98 264 -99q119 0 194.5 63.5t87.5 151.5h-450v201h450q-12 84 -87.5 146.5t-194.5 62.5q-154 0 -250 -100l-115 167q146 140 396 140z" glyph-name="afii10095" horiz-adv-x="1040" unicode="э"/><glyph d="M1067 1014q238 0 381 -149.5t143 -369t-143 -370t-381 -150.5q-207 0 -343 118t-169 302h-166v-395h-260v989h260v-366h170q39 172 174 281.5t334 109.5zM1067 207q119 0 186.5 83t67.5 206q0 121 -67.5 203.5t-186.5 82.5q-117 0 -184.5 -83t-67.5 -203 q0 -123 67.5 -206t184.5 -83z" glyph-name="afii10096" horiz-adv-x="1656" unicode="ю"/><glyph d="M84 0l229 358q-92 25 -156.5 104t-64.5 204q0 137 92 230t252 93h600v-989h-262v344h-203l-192 -344h-295zM774 553v229h-293q-55 0 -89 -32.5t-34 -82t33 -82t90 -32.5h293z" glyph-name="afii10097" horiz-adv-x="1161" unicode="я"/><glyph d="M362 1135q-59 0 -99 39.5t-40 99.5q0 57 41 97t98.5 40t97.5 -40t40 -97q0 -59 -40.5 -99t-97.5 -40zM794.5 1135q-57.5 0 -98.5 39.5t-41 99.5q0 57 41 97t98.5 40t98.5 -40t41 -97q0 -59 -41 -99t-98.5 -40zM66 496q0 219 144 368.5t368 149.5q221 0 358 -150.5 t137 -394.5v-57h-735q12 -98 88 -164t197 -66q162 0 264 99l114 -168q-150 -137 -407 -138q-229 0 -378.5 144t-149.5 377zM578 807q-111 0 -172.5 -66.5t-71.5 -152.5h487q-6 84 -66 151.5t-177 67.5z" glyph-name="afii10071" horiz-adv-x="1132" unicode="ё"/><glyph d="M600 -391l16 213q29 -6 58 -6q59 0 96 39t37 118v625q0 184 -184 184q-141 0 -226 -116v-666h-260v1081h-121v150h121v135h260v-135h299v-150h-299v-221q129 154 346 154q160 0 242 -84t82 -232v-725q0 -174 -90 -274t-264 -100q-62 0 -113 10z" glyph-name="afii10099" horiz-adv-x="1196" unicode="ђ"/><glyph d="M600 1139h-227l274 295h285zM893 762h-504v-762h-260v989h764v-227z" glyph-name="afii10100" horiz-adv-x="929" unicode="ѓ"/><glyph d="M623 182q162 0 264 99l114 -168q-150 -137 -407 -138q-229 0 -378.5 143.5t-149.5 377.5q0 231 149.5 374.5t378.5 143.5q248 0 393 -140l-115 -167q-96 100 -249 100q-119 0 -195 -62.5t-88 -146.5h451v-201h-451q12 -88 88 -151.5t195 -63.5z" glyph-name="afii10101" horiz-adv-x="1040" unicode="є"/><glyph d="M43 129l113 182q57 -53 155.5 -94t186.5 -41q166 0 166 100q0 47 -49.5 72t-149.5 45q-72 14 -109 22.5t-99 33t-95 53t-59.5 81t-26.5 119.5q0 131 108.5 221.5t296.5 90.5q229 0 400 -135l-105 -179q-47 49 -126 82t-167 33q-72 0 -113.5 -24.5t-41.5 -67.5t46 -64.5 t142 -42.5q70 -14 109 -23t102.5 -33.5t97 -55.5t61 -86.5t27.5 -124.5q0 -139 -113.5 -228.5t-314.5 -89.5q-129 0 -246.5 41t-195.5 113z" glyph-name="afii10102" horiz-adv-x="976" unicode="ѕ"/><glyph d="M258 1116q-63 0 -109.5 46t-46.5 109.5t46.5 109.5t109.5 46q66 0 111 -46t45 -109.5t-45 -109.5t-111 -46zM129 0v989h260v-989h-260z" glyph-name="afii10103" horiz-adv-x="518" unicode="і"/><glyph d="M43 1135q-59 0 -99 39.5t-40 99.5q0 57 41 97t98 40t97 -40t40 -97q0 -59 -40 -99t-97 -40zM475 1135q-57 0 -98 39.5t-41 99.5q0 57 41 97t98 40t98 -40t41 -97q0 -59 -41 -99t-98 -40zM129 0v989h260v-989h-260z" glyph-name="afii10104" horiz-adv-x="518" unicode="ї"/><glyph d="M258 1116q-63 0 -109.5 46t-46.5 109.5t46.5 109.5t109.5 46q66 0 111 -46t45 -109.5t-45 -109.5t-111 -46zM389 989v-1016q0 -174 -89 -274t-263 -100q-61 0 -113 10l17 213q25 -6 57 -6q59 0 95 39t36 118v1016h260z" glyph-name="afii10105" horiz-adv-x="518" unicode="ј"/><glyph d="M37 227q80 0 131 112t76 417l16 233h799v-313h332q170 0 260 -99.5t90 -238.5q0 -137 -93.5 -237.5t-256.5 -100.5h-592v762h-318l-6 -70q-18 -272 -75.5 -433t-144.5 -222.5t-218 -61.5v252zM1059 459v-240h293q59 0 91 34t32 85q0 53 -32 87t-91 34h-293z" glyph-name="afii10106" horiz-adv-x="1802" unicode="љ"/><glyph d="M129 0v989h260v-366h410v366h260v-319h332q170 0 260 -98.5t90 -237.5q0 -135 -93.5 -234.5t-256.5 -99.5h-592v395h-410v-395h-260zM1059 451v-232h293q61 0 92 32t31 83t-32 84t-91 33h-293z" glyph-name="afii10107" horiz-adv-x="1802" unicode="њ"/><glyph d="M745 1014q160 0 241 -82t81 -230v-702h-260v602q0 180 -184 180q-137 0 -226 -116v-666h-262v1081h-119v150h119v135h262v-135h299v-150h-299v-221q53 63 144 108.5t204 45.5z" glyph-name="afii10108" horiz-adv-x="1196" unicode="ћ"/><glyph d="M657 1139h-227l275 295h284zM770 0l-262 381l-119 -127v-254h-260v989h260v-440l375 440h319l-391 -448l404 -541h-326z" glyph-name="afii10109" horiz-adv-x="1095" unicode="ќ"/><glyph d="M524 1126q-227 0 -368 185l141 114q84 -121 227.5 -120.5t227.5 120.5l139 -114q-63 -86 -159.5 -135.5t-207.5 -49.5zM133 -154q37 -16 82 -16q104 0 137 72l37 84l-401 1003h278l258 -688l258 688h281l-465 -1151q-51 -131 -143.5 -183t-231.5 -56q-72 0 -129 14z" glyph-name="afii10110" horiz-adv-x="1050" unicode="ў"/><glyph d="M1038 989v-989h-342v-258h-227v258h-340v989h260v-762h389v762h260z" glyph-name="afii10193" horiz-adv-x="1167" unicode="џ"/><glyph d="M426 0h-291v1366h711v252h256v-508h-676v-1110z" glyph-name="afii10050" horiz-adv-x="1169" unicode="Ґ"/><glyph d="M389 0h-260v989h537v258h227v-485h-504v-762z" glyph-name="afii10098" horiz-adv-x="929" unicode="ґ"/><glyph d="M1102 1110h-676v-324h356v-221h-356v-565h-291v565h-119v221h119v580h967v-256z" glyph-name="uni0492" horiz-adv-x="1169" unicode="Ғ"/><glyph d="M893 762h-504v-180h242v-172h-242v-410h-260v410h-113v172h113v407h764v-227z" glyph-name="uni0493" horiz-adv-x="929" unicode="ғ"/><glyph d="M1102 256h250v-508h-256v252h-150l-414 547l-106 -127v-420h-291v1366h291v-610l483 610h359l-543 -641z" glyph-name="uni049A" horiz-adv-x="1370" unicode="Қ"/><glyph d="M930 227h237v-479h-227v252h-170l-262 381l-119 -127v-254h-260v989h260v-440l375 440h319l-391 -448z" glyph-name="uni049B" horiz-adv-x="1183" unicode="қ"/><glyph d="M1196 256h240v-508h-256v252h-154l-342 500l-344 -500h-346l495 700l-464 666h346l313 -467l309 467h350l-464 -664z" glyph-name="uni04B2" horiz-adv-x="1454" unicode="Ҳ"/><glyph d="M874 227h236v-479h-227v252h-142l-225 334l-227 -334h-289l350 508l-330 481h291l205 -305l203 305h291l-332 -481z" glyph-name="uni04B3" horiz-adv-x="1128" unicode="ҳ"/><glyph d="M782 1389q311 0 513 -199t202 -508t-201.5 -508t-513.5 -199q-309 0 -510.5 200t-201.5 507t201.5 507t510.5 200zM782.5 1137q-151.5 0 -257 -87t-138.5 -231h793q-35 143 -140.5 230.5t-257 87.5zM782.5 227q157.5 0 265 94.5t138.5 247.5h-805q31 -154 137.5 -248 t264 -94z" glyph-name="uni04E8" horiz-adv-x="1566" unicode="Ө"/><glyph d="M587.5 1014q237.5 0 381 -149.5t143.5 -369t-143.5 -370t-381 -150.5t-379.5 150.5t-142 370t142 369t379.5 149.5zM588 797q-96 0 -158.5 -57.5t-83.5 -151.5h485q-20 94 -83.5 151.5t-159.5 57.5zM587.5 193q98.5 0 162 60t84.5 159h-490q18 -98 81.5 -158.5t162 -60.5 z" glyph-name="uni04E9" horiz-adv-x="1175" unicode="ө"/><glyph d="M537 1613.5q0 57.5 40.5 98.5t98 41t97.5 -41t40 -98.5t-40 -98t-97.5 -40.5t-98 40.5t-40.5 98zM135 0v1366h719q186 0 289.5 -101.5t103.5 -246.5q0 -125 -67.5 -209t-167.5 -104q111 -16 186.5 -112.5t75.5 -223.5q0 -160 -104.5 -264.5t-292.5 -104.5h-742zM426 817 h365q74 0 116.5 42t42.5 110q0 63 -44 106t-115 43h-365v-301zM426 248h375q82 0 129 44t47 118q0 68 -47 113.5t-129 45.5h-375v-321z" glyph-name="uni1E02" horiz-adv-x="1357" unicode="Ḃ"/><glyph d="M473 1613.5q0 57.5 41 98.5t98.5 41t97.5 -41t40 -98.5t-40 -98t-97.5 -40.5t-98.5 40.5t-41 98zM129 0v1366h260v-504q117 152 305 152q193 0 316 -141.5t123 -378.5q0 -242 -123 -380.5t-316 -138.5q-184 0 -305 152v-127h-260zM389 317q33 -47 96.5 -78.5t126.5 -31.5 q113 0 182.5 79t69.5 208t-69.5 208.5t-182.5 79.5q-63 0 -126.5 -32.5t-96.5 -81.5v-351z" glyph-name="uni1E03" horiz-adv-x="1200" unicode="ḃ"/><glyph d="M596 1613.5q0 57.5 41 98.5t98.5 41t97 -41t39.5 -98.5t-39.5 -98t-97 -40.5t-98.5 40.5t-41 98zM135 0v1366h539q322 0 523.5 -188.5t201.5 -495.5t-201 -494.5t-524 -187.5h-539zM426 256h248q197 0 312.5 123t115.5 303q0 188 -112.5 308t-315.5 120h-248v-854z" glyph-name="uni1E0A" horiz-adv-x="1470" unicode="Ḋ"/><glyph d="M465 1613.5q0 57.5 41 98.5t98.5 41t97 -41t39.5 -98.5t-39.5 -98t-97 -40.5t-98.5 40.5t-41 98zM809 0v127q-121 -152 -305 -152q-193 0 -315.5 138.5t-122.5 380.5q0 238 122.5 379t315.5 141q188 0 305 -152v504h262v-1366h-262zM809 319v351q-33 49 -96.5 80.5 t-128.5 31.5q-111 0 -180.5 -79.5t-69.5 -208.5q0 -127 69.5 -207t180.5 -80q66 0 129 31.5t96 80.5z" glyph-name="uni1E0B" horiz-adv-x="1200" unicode="ḋ"/><glyph d="M487 1613.5q0 57.5 41 98.5t98.5 41t97.5 -41t40 -98.5t-40 -98t-97.5 -40.5t-98.5 40.5t-41 98zM135 0v1366h967v-250h-676v-297h661v-250h-661v-569h-291z" glyph-name="uni1E1E" horiz-adv-x="1169" unicode="Ḟ"/><glyph d="M334 1613.5q0 57.5 41 98.5t98 41t97 -41t40 -98.5t-40 -98t-97 -40.5t-98 40.5t-41 98zM186 0v762h-163v227h163v53q0 158 93.5 251t240.5 93q111 0 189 -40l-54 -185q-33 20 -84 21q-57 0 -89.5 -37t-32.5 -107v-49h200v-227h-200v-762h-263z" glyph-name="uni1E1F" horiz-adv-x="669" unicode="ḟ"/><glyph d="M610 1613.5q0 57.5 41 98.5t98.5 41t97.5 -41t40 -98.5t-40 -98t-97.5 -40.5t-98.5 40.5t-41 98zM1071 0v573h-645v-573h-291v1366h291v-537h645v537h293v-1366h-293z" glyph-name="uni1E22" horiz-adv-x="1497" unicode="Ḣ"/><glyph d="M455 1613.5q0 57.5 41 98.5t98 41t97 -41t40 -98.5t-40 -98t-97 -40.5t-98 40.5t-41 98zM799 0v602q0 98 -47 139t-138 41q-137 0 -225 -116v-666h-260v1366h260v-506q53 63 144.5 108.5t203.5 45.5q160 0 241 -82t81 -230v-702h-260z" glyph-name="uni1E23" horiz-adv-x="1187" unicode="ḣ"/><glyph d="M522 1613.5q0 57.5 41 98.5t98.5 41t97.5 -41t40 -98.5t-40 -98t-97.5 -40.5t-98.5 40.5t-41 98zM135 0v1366h639q215 0 337 -126t122 -314q0 -186 -123 -311.5t-336 -125.5h-348v-489h-291zM936 928q0 84 -57.5 136t-143.5 52h-309v-377h309q88 0 144.5 52.5t56.5 136.5 z" glyph-name="uni1E56" horiz-adv-x="1277" unicode="Ṗ"/><glyph d="M520 1271.5q0 57.5 41 98.5t98.5 41t97.5 -41t40 -98.5t-40 -98t-97.5 -40.5t-98.5 40.5t-41 98zM389 -377h-260v1366h260v-125q117 150 305 150q195 0 317 -138.5t122 -380t-122 -381t-317 -139.5q-186 0 -305 152v-504zM862 496q0 127 -68.5 206.5t-181.5 79.5 q-63 0 -126.5 -32.5t-96.5 -79.5v-351q33 -47 97.5 -79.5t125.5 -32.5q113 0 181.5 80t68.5 209z" glyph-name="uni1E57" horiz-adv-x="1198" unicode="ṗ"/><glyph d="M465 1613.5q0 57.5 41 98.5t98.5 41t97 -41t39.5 -98.5t-39.5 -98t-97 -40.5t-98.5 40.5t-41 98zM43 193l158 221q176 -184 434 -185q113 0 175 45t62 109q0 70 -67.5 105.5t-208.5 68.5q-70 16 -100.5 23.5t-96 28t-99.5 39t-82 51t-71.5 69.5t-42 90t-18.5 117 q0 176 141.5 293.5t376.5 117.5q326 0 533 -190l-162 -213q-162 150 -391 150q-96 0 -148.5 -38t-52.5 -101.5t63.5 -93.5t208.5 -64q63 -14 100.5 -23.5t98.5 -30t98 -40t83 -52.5t72 -69.5t43 -90t17 -116.5q0 -197 -140 -318t-406 -121q-365 1 -578 218z" glyph-name="uni1E60" horiz-adv-x="1228" unicode="Ṡ"/><glyph d="M342 1271.5q0 57.5 41 98.5t98.5 41t97 -41t39.5 -98.5t-39.5 -98t-97 -40.5t-98.5 40.5t-41 98zM43 129l113 182q57 -53 155.5 -94t186.5 -41q166 0 166 100q0 47 -49.5 72t-149.5 45q-72 14 -109 22.5t-99 33t-95 53t-59.5 81t-26.5 119.5q0 131 108.5 221.5 t296.5 90.5q229 0 400 -135l-105 -179q-47 49 -126 82t-167 33q-72 0 -113.5 -24.5t-41.5 -67.5t46 -64.5t142 -42.5q70 -14 109 -23t102.5 -33.5t97 -55.5t61 -86.5t27.5 -124.5q0 -139 -113.5 -228.5t-314.5 -89.5q-129 0 -246.5 41t-195.5 113z" glyph-name="uni1E61" horiz-adv-x="976" unicode="ṡ"/><glyph d="M459 1613.5q0 57.5 41 98.5t98 41t97 -41t40 -98.5t-40 -98t-97 -40.5t-98 40.5t-41 98zM451 0v1110h-400v256h1090v-256h-398v-1110h-292z" glyph-name="uni1E6A" horiz-adv-x="1191" unicode="Ṫ"/><glyph d="M174 1613.5q0 57.5 41 98.5t98.5 41t97.5 -41t40 -98.5t-40 -98t-97.5 -40.5t-98.5 40.5t-41 98zM461 -25q-137 0 -209 70t-72 201v516h-164v227h164v271h262v-271h201v-227h-201v-447q0 -47 25 -77.5t65 -30.5q61 0 91 29l55 -197q-72 -64 -217 -64z" glyph-name="uni1E6B" horiz-adv-x="692" unicode="ṫ"/><glyph d="M850 1481l-332 295h240l274 -295h-182zM1180 0l-240 938l-238 -938h-309l-391 1366h326l239 -987l260 987h228l258 -987l237 987h328l-389 -1366h-309z" glyph-name="Wgrave" horiz-adv-x="1880" unicode="Ẁ"/><glyph d="M698 1139l-331 295h239l275 -295h-183zM997 0l-209 674l-208 -674h-279l-301 989h270l185 -665l217 665h231l217 -665l185 665h270l-301 -989h-277z" glyph-name="wgrave" horiz-adv-x="1574" unicode="ẁ"/><glyph d="M1024 1481h-182l274 295h240zM1180 0l-240 938l-238 -938h-309l-391 1366h326l239 -987l260 987h228l258 -987l237 987h328l-389 -1366h-309z" glyph-name="Wacute" horiz-adv-x="1880" unicode="Ẃ"/><glyph d="M872 1139h-182l275 295h239zM997 0l-209 674l-208 -674h-279l-301 989h270l185 -665l217 665h231l217 -665l185 665h270l-301 -989h-277z" glyph-name="wacute" horiz-adv-x="1574" unicode="ẃ"/><glyph d="M725 1477q-59 0 -99 39.5t-40 99.5q0 57 41 97t98 40t97 -40t40 -97q0 -59 -40 -99t-97 -40zM1157 1477q-57 0 -98 39.5t-41 99.5q0 57 41 97t98 40t98 -40t41 -97q0 -59 -41 -99t-98 -40zM1180 0l-240 938l-238 -938h-309l-391 1366h326l239 -987l260 987h228l258 -987 l237 987h328l-389 -1366h-309z" glyph-name="Wdieresis" horiz-adv-x="1880" unicode="Ẅ"/><glyph d="M571 1135q-59 0 -99 39.5t-40 99.5q0 57 41 97t98.5 40t97.5 -40t40 -97q0 -59 -40.5 -99t-97.5 -40zM1003.5 1135q-57.5 0 -98.5 39.5t-41 99.5q0 57 41 97t98.5 40t98.5 -40t41 -97q0 -59 -41 -99t-98.5 -40zM997 0l-209 674l-208 -674h-279l-301 989h270l185 -665 l217 665h231l217 -665l185 665h270l-301 -989h-277z" glyph-name="wdieresis" horiz-adv-x="1574" unicode="ẅ"/><glyph d="M983 827q188 -20 304 -122.5t116 -286.5q0 -193 -144.5 -318t-359.5 -125q-268 0 -395 136l147 211q109 -88 248 -89q98 0 158.5 49.5t60.5 137.5q0 100 -88 142t-262 42h-111v219l246 279q-68 29 -151 28q-154 0 -238 -87t-84 -234v-809h-295v819q0 260 157 415t460 155 q365 0 524 -230z" glyph-name="uni1E9E" horiz-adv-x="1447" unicode="ẞ"/><glyph d="M1092 0l-86 236h-611l-86 -236h-319l528 1366h365l526 -1366h-317zM700 1114l-227 -627h453zM559 -243.5q0 57.5 41 98.5t98.5 41t97.5 -41t40 -98.5t-40 -98.5t-97.5 -41t-98.5 41t-41 98.5z" glyph-name="uni1EA0" horiz-adv-x="1400" unicode="Ạ"/><glyph d="M723 0v102q-106 -127 -313 -127q-133 0 -238.5 87.5t-105.5 240.5q0 160 103 237.5t241 77.5q215 0 313 -120v137q0 76 -59.5 121t-157.5 45q-164 0 -289 -117l-98 174q176 156 432 156q190 0 311 -88t121 -287v-639h-260zM723 238v122q-63 86 -209 86q-80 0 -133 -39.5 t-53 -109.5q0 -68 53 -106.5t133 -38.5q146 0 209 86zM416 -243.5q0 57.5 41 98.5t98 41t97 -41t40 -98.5t-40 -98.5t-97 -41t-98 41t-41 98.5z" glyph-name="uni1EA1" horiz-adv-x="1112" unicode="ạ"/><glyph d="M473 1659q25 72 81 110.5t130 38.5q90 0 151.5 -47t61.5 -143q0 -66 -43 -135h-143q51 59 51 129q0 82 -78 82q-61 0 -90 -74zM1092 0l-86 236h-611l-86 -236h-319l528 1366h365l526 -1366h-317zM700 1114l-227 -627h453z" glyph-name="uni1EA2" horiz-adv-x="1400" unicode="Ả"/><glyph d="M328 1317q25 72 81 110.5t130 38.5q90 0 151.5 -47t61.5 -143q0 -66 -43 -135h-144q51 59 51 129q0 82 -77 82q-61 0 -90 -74zM723 0v102q-106 -127 -313 -127q-133 0 -238.5 87.5t-105.5 240.5q0 160 103 237.5t241 77.5q215 0 313 -120v137q0 76 -59.5 121t-157.5 45 q-164 0 -289 -117l-98 174q176 156 432 156q190 0 311 -88t121 -287v-639h-260zM723 238v122q-63 86 -209 86q-80 0 -133 -39.5t-53 -109.5q0 -68 53 -106.5t133 -38.5q146 0 209 86z" glyph-name="uni1EA3" horiz-adv-x="1112" unicode="ả"/><glyph d="M1130 1597h-182l275 222h239zM850 1444l-150 137l-145 -137h-160l189 221h233l193 -221h-160zM1092 0l-86 236h-611l-86 -236h-319l528 1366h365l526 -1366h-317zM700 1114l-227 -627h453z" glyph-name="uni1EA4" horiz-adv-x="1400" unicode="Ấ"/><glyph d="M985 1343h-182l274 295h240zM705 1139l-150 182l-145 -182h-160l188 295h234l192 -295h-159zM723 0v102q-106 -127 -313 -127q-133 0 -238.5 87.5t-105.5 240.5q0 160 103 237.5t241 77.5q215 0 313 -120v137q0 76 -59.5 121t-157.5 45q-164 0 -289 -117l-98 174 q176 156 432 156q190 0 311 -88t121 -287v-639h-260zM723 238v122q-63 86 -209 86q-80 0 -133 -39.5t-53 -109.5q0 -68 53 -106.5t133 -38.5q146 0 209 86z" glyph-name="uni1EA5" horiz-adv-x="1112" unicode="ấ"/><glyph d="M281 1597l-332 222h239l275 -222h-182zM850 1444l-150 137l-145 -137h-160l189 221h233l193 -221h-160zM1092 0l-86 236h-611l-86 -236h-319l528 1366h365l526 -1366h-317zM700 1114l-227 -627h453z" glyph-name="uni1EA6" horiz-adv-x="1400" unicode="Ầ"/><glyph d="M135 1343l-332 295h240l274 -295h-182zM705 1139l-150 182l-145 -182h-160l188 295h234l192 -295h-159zM723 0v102q-106 -127 -313 -127q-133 0 -238.5 87.5t-105.5 240.5q0 160 103 237.5t241 77.5q215 0 313 -120v137q0 76 -59.5 121t-157.5 45q-164 0 -289 -117 l-98 174q176 156 432 156q190 0 311 -88t121 -287v-639h-260zM723 238v122q-63 86 -209 86q-80 0 -133 -39.5t-53 -109.5q0 -68 53 -106.5t133 -38.5q146 0 209 86z" glyph-name="uni1EA7" horiz-adv-x="1112" unicode="ầ"/><glyph d="M711 1729q51 113 211 112q90 0 151.5 -36t61.5 -107q0 -47 -43 -101h-144q51 43 51 97q0 61 -77 61q-61 0 -91 -55zM850 1444l-150 137l-145 -137h-160l189 221h233l193 -221h-160zM1092 0l-86 236h-611l-86 -236h-319l528 1366h365l526 -1366h-317zM700 1114l-227 -627 h453z" glyph-name="uni1EA8" horiz-adv-x="1400" unicode="Ẩ"/><glyph d="M565 1520q25 72 81 110.5t130 38.5q90 0 151.5 -47t61.5 -143q0 -66 -43 -136h-143q51 59 51 130q0 82 -78 81q-61 0 -90 -73zM705 1139l-150 182l-145 -182h-160l188 295h234l192 -295h-159zM723 0v102q-106 -127 -313 -127q-133 0 -238.5 87.5t-105.5 240.5 q0 160 103 237.5t241 77.5q215 0 313 -120v137q0 76 -59.5 121t-157.5 45q-164 0 -289 -117l-98 174q176 156 432 156q190 0 311 -88t121 -287v-639h-260zM723 238v122q-63 86 -209 86q-80 0 -133 -39.5t-53 -109.5q0 -68 53 -106.5t133 -38.5q146 0 209 86z" glyph-name="uni1EA9" horiz-adv-x="1112" unicode="ẩ"/><glyph d="M659 1751q-49 41 -81 41q-74 0 -74 -94h-137q0 98 57 151.5t164 53.5q80 0 153 -62q51 -41 84 -41q74 0 74 94h137q0 -98 -56 -151t-163 -53q-84 0 -158 61zM850 1444l-150 137l-145 -137h-160l189 221h233l193 -221h-160zM1092 0l-86 236h-611l-86 -236h-319l528 1366 h365l526 -1366h-317zM700 1114l-227 -627h453z" glyph-name="uni1EAA" horiz-adv-x="1400" unicode="Ẫ"/><glyph d="M514 1550q-51 55 -82 56q-74 0 -74 -127h-137q0 131 57.5 202.5t163.5 71.5q78 0 154 -84q53 -53 84 -53q74 0 74 125h137q0 -131 -56.5 -203t-162.5 -72q-82 0 -158 84zM705 1139l-150 182l-145 -182h-160l188 295h234l192 -295h-159zM723 0v102q-106 -127 -313 -127 q-133 0 -238.5 87.5t-105.5 240.5q0 160 103 237.5t241 77.5q215 0 313 -120v137q0 76 -59.5 121t-157.5 45q-164 0 -289 -117l-98 174q176 156 432 156q190 0 311 -88t121 -287v-639h-260zM723 238v122q-63 86 -209 86q-80 0 -133 -39.5t-53 -109.5q0 -68 53 -106.5 t133 -38.5q146 0 209 86z" glyph-name="uni1EAB" horiz-adv-x="1112" unicode="ẫ"/><glyph d="M850 1481l-150 182l-145 -182h-160l189 295h233l193 -295h-160zM1092 0l-86 236h-611l-86 -236h-319l528 1366h365l526 -1366h-317zM700 1114l-227 -627h453zM559 -243.5q0 57.5 41 98.5t98.5 41t97.5 -41t40 -98.5t-40 -98.5t-97.5 -41t-98.5 41t-41 98.5z" glyph-name="uni1EAC" horiz-adv-x="1400" unicode="Ậ"/><glyph d="M705 1139l-150 182l-145 -182h-160l188 295h234l192 -295h-159zM723 0v102q-106 -127 -313 -127q-133 0 -238.5 87.5t-105.5 240.5q0 160 103 237.5t241 77.5q215 0 313 -120v137q0 76 -59.5 121t-157.5 45q-164 0 -289 -117l-98 174q176 156 432 156q190 0 311 -88 t121 -287v-639h-260zM723 238v122q-63 86 -209 86q-80 0 -133 -39.5t-53 -109.5q0 -68 53 -106.5t133 -38.5q146 0 209 86zM416 -243.5q0 57.5 41 98.5t98 41t97 -41t40 -98.5t-40 -98.5t-97 -41t-98 41t-41 98.5z" glyph-name="uni1EAD" horiz-adv-x="1112" unicode="ậ"/><glyph d="M784 1653h-182l275 221h239zM700 1440q-225 0 -360 135l115 72q92 -96 245.5 -96.5t243.5 96.5l115 -72q-132 -135 -359 -135zM1092 0l-86 236h-611l-86 -236h-319l528 1366h365l526 -1366h-317zM700 1114l-227 -627h453z" glyph-name="uni1EAE" horiz-adv-x="1400" unicode="Ắ"/><glyph d="M639 1419h-182l274 295h240zM555 1133q-223 0 -360 180l114 94q92 -127 246 -127q150 0 244 127l114 -94q-133 -180 -358 -180zM723 0v102q-106 -127 -313 -127q-133 0 -238.5 87.5t-105.5 240.5q0 160 103 237.5t241 77.5q215 0 313 -120v137q0 76 -59.5 121t-157.5 45 q-164 0 -289 -117l-98 174q176 156 432 156q190 0 311 -88t121 -287v-639h-260zM723 238v122q-63 86 -209 86q-80 0 -133 -39.5t-53 -109.5q0 -68 53 -106.5t133 -38.5q146 0 209 86z" glyph-name="uni1EAF" horiz-adv-x="1112" unicode="ắ"/><glyph d="M610 1653l-331 221h239l275 -221h-183zM700 1440q-225 0 -360 135l115 72q92 -96 245.5 -96.5t243.5 96.5l115 -72q-132 -135 -359 -135zM1092 0l-86 236h-611l-86 -236h-319l528 1366h365l526 -1366h-317zM700 1114l-227 -627h453z" glyph-name="uni1EB0" horiz-adv-x="1400" unicode="Ằ"/><glyph d="M465 1419l-332 295h240l274 -295h-182zM555 1133q-223 0 -360 180l114 94q92 -127 246 -127q150 0 244 127l114 -94q-133 -180 -358 -180zM723 0v102q-106 -127 -313 -127q-133 0 -238.5 87.5t-105.5 240.5q0 160 103 237.5t241 77.5q215 0 313 -120v137q0 76 -59.5 121 t-157.5 45q-164 0 -289 -117l-98 174q176 156 432 156q190 0 311 -88t121 -287v-639h-260zM723 238v122q-63 86 -209 86q-80 0 -133 -39.5t-53 -109.5q0 -68 53 -106.5t133 -38.5q146 0 209 86z" glyph-name="uni1EB1" horiz-adv-x="1112" unicode="ằ"/><glyph d="M473 1786q51 113 211 112q90 0 151.5 -35.5t61.5 -107.5q0 -47 -43 -100h-143q51 43 51 96q0 61 -78 61q-61 0 -90 -55zM700 1440q-225 0 -360 135l115 72q92 -96 245.5 -96.5t243.5 96.5l115 -72q-132 -135 -359 -135zM1092 0l-86 236h-611l-86 -236h-319l528 1366h365 l526 -1366h-317zM700 1114l-227 -627h453z" glyph-name="uni1EB2" horiz-adv-x="1400" unicode="Ẳ"/><glyph d="M328 1597q25 72 81 111t130 39q90 0 151.5 -47t61.5 -144q0 -66 -43 -135h-144q51 59 51 129q0 82 -77 82q-61 0 -90 -73zM555 1133q-223 0 -360 180l114 94q92 -127 246 -127q150 0 244 127l114 -94q-133 -180 -358 -180zM723 0v102q-106 -127 -313 -127 q-133 0 -238.5 87.5t-105.5 240.5q0 160 103 237.5t241 77.5q215 0 313 -120v137q0 76 -59.5 121t-157.5 45q-164 0 -289 -117l-98 174q176 156 432 156q190 0 311 -88t121 -287v-639h-260zM723 238v122q-63 86 -209 86q-80 0 -133 -39.5t-53 -109.5q0 -68 53 -106.5 t133 -38.5q146 0 209 86z" glyph-name="uni1EB3" horiz-adv-x="1112" unicode="ẳ"/><glyph d="M659 1712q-49 41 -81 41q-74 0 -74 -94h-137q0 98 57 151.5t164 53.5q80 0 153 -62q51 -41 84 -41q74 0 74 94h137q0 -98 -56 -151t-163 -53q-84 0 -158 61zM700 1440q-225 0 -360 135l115 72q92 -96 245.5 -96.5t243.5 96.5l115 -72q-132 -135 -359 -135zM1092 0 l-86 236h-611l-86 -236h-319l528 1366h365l526 -1366h-317zM700 1114l-227 -627h453z" glyph-name="uni1EB4" horiz-adv-x="1400" unicode="Ẵ"/><glyph d="M514 1499q-51 55 -82 55q-74 0 -74 -127h-137q0 131 57.5 203t163.5 72q78 0 154 -84q53 -53 84 -53q74 0 74 125h137q0 -131 -56.5 -203t-162.5 -72q-82 0 -158 84zM555 1133q-223 0 -360 180l114 94q92 -127 246 -127q150 0 244 127l114 -94q-133 -180 -358 -180z M723 0v102q-106 -127 -313 -127q-133 0 -238.5 87.5t-105.5 240.5q0 160 103 237.5t241 77.5q215 0 313 -120v137q0 76 -59.5 121t-157.5 45q-164 0 -289 -117l-98 174q176 156 432 156q190 0 311 -88t121 -287v-639h-260zM723 238v122q-63 86 -209 86q-80 0 -133 -39.5 t-53 -109.5q0 -68 53 -106.5t133 -38.5q146 0 209 86z" glyph-name="uni1EB5" horiz-adv-x="1112" unicode="ẵ"/><glyph d="M700 1475q-223 0 -360 180l115 94q92 -127 245 -127q150 0 244 127l115 -94q-134 -180 -359 -180zM1092 0l-86 236h-611l-86 -236h-319l528 1366h365l526 -1366h-317zM700 1114l-227 -627h453zM559 -243.5q0 57.5 41 98.5t98.5 41t97.5 -41t40 -98.5t-40 -98.5t-97.5 -41 t-98.5 41t-41 98.5z" glyph-name="uni1EB6" horiz-adv-x="1400" unicode="Ặ"/><glyph d="M555 1133q-223 0 -360 180l114 94q92 -127 246 -127q150 0 244 127l114 -94q-133 -180 -358 -180zM723 0v102q-106 -127 -313 -127q-133 0 -238.5 87.5t-105.5 240.5q0 160 103 237.5t241 77.5q215 0 313 -120v137q0 76 -59.5 121t-157.5 45q-164 0 -289 -117l-98 174 q176 156 432 156q190 0 311 -88t121 -287v-639h-260zM723 238v122q-63 86 -209 86q-80 0 -133 -39.5t-53 -109.5q0 -68 53 -106.5t133 -38.5q146 0 209 86zM416 -243.5q0 57.5 41 98.5t98 41t97 -41t40 -98.5t-40 -98.5t-97 -41t-98 41t-41 98.5z" glyph-name="uni1EB7" horiz-adv-x="1112" unicode="ặ"/><glyph d="M135 0v1366h967v-250h-676v-297h661v-250h-661v-317h676v-252h-967zM492 -243.5q0 57.5 40.5 98.5t98 41t97.5 -41t40 -98.5t-40 -98.5t-97.5 -41t-98 41t-40.5 98.5z" glyph-name="uni1EB8" horiz-adv-x="1193" unicode="Ẹ"/><glyph d="M66 496q0 219 144 368.5t368 149.5q221 0 358 -150.5t137 -394.5v-57h-735q12 -98 88 -164t197 -66q162 0 264 99l114 -168q-150 -137 -407 -138q-229 0 -378.5 144t-149.5 377zM578 807q-111 0 -172.5 -66.5t-71.5 -152.5h487q-6 84 -66 151.5t-177 67.5zM438 -243.5 q0 57.5 41 98.5t98.5 41t97.5 -41t40 -98.5t-40 -98.5t-97.5 -41t-98.5 41t-41 98.5z" glyph-name="uni1EB9" horiz-adv-x="1132" unicode="ẹ"/><glyph d="M406 1659q25 72 81 110.5t129 38.5q90 0 151.5 -47t61.5 -143q0 -66 -43 -135h-143q51 59 51 129q0 82 -78 82q-61 0 -90 -74zM135 0v1366h967v-250h-676v-297h661v-250h-661v-317h676v-252h-967z" glyph-name="uni1EBA" horiz-adv-x="1193" unicode="Ẻ"/><glyph d="M352 1317q25 72 81 110.5t130 38.5q90 0 151.5 -47t61.5 -143q0 -66 -43 -135h-143q51 59 51 129q0 82 -78 82q-61 0 -90 -74zM66 496q0 219 144 368.5t368 149.5q221 0 358 -150.5t137 -394.5v-57h-735q12 -98 88 -164t197 -66q162 0 264 99l114 -168 q-150 -137 -407 -138q-229 0 -378.5 144t-149.5 377zM578 807q-111 0 -172.5 -66.5t-71.5 -152.5h487q-6 84 -66 151.5t-177 67.5z" glyph-name="uni1EBB" horiz-adv-x="1132" unicode="ẻ"/><glyph d="M590 1561q-51 55 -82 55q-74 0 -74 -127h-137q0 131 57.5 202.5t163.5 71.5q78 0 154 -84q53 -53 84 -53q74 0 73 125h138q0 -131 -56.5 -202.5t-162.5 -71.5q-82 0 -158 84zM135 0v1366h967v-250h-676v-297h661v-250h-661v-317h676v-252h-967z" glyph-name="uni1EBC" horiz-adv-x="1193" unicode="Ẽ"/><glyph d="M537 1219q-51 55 -82 55q-74 0 -74 -127h-137q0 131 57 202.5t164 71.5q78 0 153 -84q53 -53 84 -53q74 0 74 125h137q0 -131 -56 -202.5t-163 -71.5q-81 0 -157 84zM66 496q0 219 144 368.5t368 149.5q221 0 358 -150.5t137 -394.5v-57h-735q12 -98 88 -164t197 -66 q162 0 264 99l114 -168q-150 -137 -407 -138q-229 0 -378.5 144t-149.5 377zM578 807q-111 0 -172.5 -66.5t-71.5 -152.5h487q-6 84 -66 151.5t-177 67.5z" glyph-name="uni1EBD" horiz-adv-x="1132" unicode="ẽ"/><glyph d="M1061 1597h-182l274 222h240zM782 1444l-149 137l-146 -137h-159l188 221h234l192 -221h-160zM135 0v1366h967v-250h-676v-297h661v-250h-661v-317h676v-252h-967z" glyph-name="uni1EBE" horiz-adv-x="1193" unicode="Ế"/><glyph d="M1008 1343h-183l275 295h239zM729 1139l-149 182l-146 -182h-160l189 295h233l193 -295h-160zM66 496q0 219 144 368.5t368 149.5q221 0 358 -150.5t137 -394.5v-57h-735q12 -98 88 -164t197 -66q162 0 264 99l114 -168q-150 -137 -407 -138q-229 0 -378.5 144 t-149.5 377zM578 807q-111 0 -172.5 -66.5t-71.5 -152.5h487q-6 84 -66 151.5t-177 67.5z" glyph-name="uni1EBF" horiz-adv-x="1132" unicode="ế"/><glyph d="M213 1597l-332 222h240l274 -222h-182zM782 1444l-149 137l-146 -137h-159l188 221h234l192 -221h-160zM135 0v1366h967v-250h-676v-297h661v-250h-661v-317h676v-252h-967z" glyph-name="uni1EC0" horiz-adv-x="1193" unicode="Ề"/><glyph d="M160 1343l-332 295h240l274 -295h-182zM729 1139l-149 182l-146 -182h-160l189 295h233l193 -295h-160zM66 496q0 219 144 368.5t368 149.5q221 0 358 -150.5t137 -394.5v-57h-735q12 -98 88 -164t197 -66q162 0 264 99l114 -168q-150 -137 -407 -138q-229 0 -378.5 144 t-149.5 377zM578 807q-111 0 -172.5 -66.5t-71.5 -152.5h487q-6 84 -66 151.5t-177 67.5z" glyph-name="uni1EC1" horiz-adv-x="1132" unicode="ề"/><glyph d="M643 1729q51 113 211 112q90 0 151.5 -36t61.5 -107q0 -47 -43 -101h-143q51 43 51 97q0 61 -78 61q-63 0 -90 -55zM782 1444l-149 137l-146 -137h-159l188 221h234l192 -221h-160zM135 0v1366h967v-250h-676v-297h661v-250h-661v-317h676v-252h-967z" glyph-name="uni1EC2" horiz-adv-x="1193" unicode="Ể"/><glyph d="M590 1520q25 72 81 110.5t130 38.5q90 0 151.5 -47t61.5 -143q0 -66 -43 -136h-144q51 59 52 130q0 82 -78 81q-61 0 -90 -73zM729 1139l-149 182l-146 -182h-160l189 295h233l193 -295h-160zM66 496q0 219 144 368.5t368 149.5q221 0 358 -150.5t137 -394.5v-57h-735 q12 -98 88 -164t197 -66q162 0 264 99l114 -168q-150 -137 -407 -138q-229 0 -378.5 144t-149.5 377zM578 807q-111 0 -172.5 -66.5t-71.5 -152.5h487q-6 84 -66 151.5t-177 67.5z" glyph-name="uni1EC3" horiz-adv-x="1132" unicode="ể"/><glyph d="M590 1751q-49 41 -82 41q-74 0 -74 -94h-137q0 98 57.5 151.5t163.5 53.5q80 0 154 -62q51 -41 84 -41q74 0 73 94h138q0 -98 -56.5 -151t-162.5 -53q-84 0 -158 61zM782 1444l-149 137l-146 -137h-159l188 221h234l192 -221h-160zM135 0v1366h967v-250h-676v-297h661 v-250h-661v-317h676v-252h-967z" glyph-name="uni1EC4" horiz-adv-x="1193" unicode="Ễ"/><glyph d="M537 1550q-51 55 -82 56q-74 0 -74 -127h-137q0 131 57 202.5t164 71.5q78 0 153 -84q53 -53 84 -53q74 0 74 125h137q0 -131 -56 -203t-163 -72q-81 0 -157 84zM729 1139l-149 182l-146 -182h-160l189 295h233l193 -295h-160zM66 496q0 219 144 368.5t368 149.5 q221 0 358 -150.5t137 -394.5v-57h-735q12 -98 88 -164t197 -66q162 0 264 99l114 -168q-150 -137 -407 -138q-229 0 -378.5 144t-149.5 377zM578 807q-111 0 -172.5 -66.5t-71.5 -152.5h487q-6 84 -66 151.5t-177 67.5z" glyph-name="uni1EC5" horiz-adv-x="1132" unicode="ễ"/><glyph d="M782 1481l-149 182l-146 -182h-159l188 295h234l192 -295h-160zM135 0v1366h967v-250h-676v-297h661v-250h-661v-317h676v-252h-967zM492 -243.5q0 57.5 40.5 98.5t98 41t97.5 -41t40 -98.5t-40 -98.5t-97.5 -41t-98 41t-40.5 98.5z" glyph-name="uni1EC6" horiz-adv-x="1193" unicode="Ệ"/><glyph d="M729 1139l-149 182l-146 -182h-160l189 295h233l193 -295h-160zM66 496q0 219 144 368.5t368 149.5q221 0 358 -150.5t137 -394.5v-57h-735q12 -98 88 -164t197 -66q162 0 264 99l114 -168q-150 -137 -407 -138q-229 0 -378.5 144t-149.5 377zM578 807 q-111 0 -172.5 -66.5t-71.5 -152.5h487q-6 84 -66 151.5t-177 67.5zM438 -243.5q0 57.5 41 98.5t98.5 41t97.5 -41t40 -98.5t-40 -98.5t-97.5 -41t-98.5 41t-41 98.5z" glyph-name="uni1EC7" horiz-adv-x="1132" unicode="ệ"/><glyph d="M55 1659q25 72 81.5 110.5t129.5 38.5q90 0 151.5 -47t61.5 -143q0 -66 -43 -135h-143q51 59 51 129q0 82 -78 82q-61 0 -90 -74zM135 0v1366h291v-1366h-291z" glyph-name="uni1EC8" horiz-adv-x="561" unicode="Ỉ"/><glyph d="M33 1317q25 72 81 110.5t130 38.5q90 0 151.5 -47t61.5 -143q0 -66 -43 -135h-144q51 59 52 129q0 82 -78 82q-61 0 -90 -74zM129 0v989h260v-989h-260z" glyph-name="uni1EC9" horiz-adv-x="518" unicode="ỉ"/><glyph d="M135 0v1366h291v-1366h-291zM143 -243.5q0 57.5 41 98.5t98.5 41t97.5 -41t40 -98.5t-40 -98.5t-97.5 -41t-98.5 41t-41 98.5z" glyph-name="uni1ECA" horiz-adv-x="561" unicode="Ị"/><glyph d="M258 1116q-63 0 -109.5 46t-46.5 109.5t46.5 109.5t109.5 46q66 0 111 -46t45 -109.5t-45 -109.5t-111 -46zM129 0v989h260v-989h-260zM119 -243.5q0 57.5 41 98.5t98 41t97 -41t40 -98.5t-40 -98.5t-97 -41t-98 41t-41 98.5z" glyph-name="uni1ECB" horiz-adv-x="518" unicode="ị"/><glyph d="M70 682q0 307 201.5 507t510.5 200q311 0 513 -199t202 -508t-201.5 -508t-513.5 -199q-309 0 -510.5 200t-201.5 507zM1198 682q0 195 -114.5 321.5t-301 126.5t-300 -126.5t-113.5 -321.5t113.5 -322t300 -127t301 127t114.5 322zM643 -243.5q0 57.5 41 98.5t98.5 41 t97.5 -41t40 -98.5t-40 -98.5t-97.5 -41t-98.5 41t-41 98.5z" glyph-name="uni1ECC" horiz-adv-x="1566" unicode="Ọ"/><glyph d="M587.5 -25q-237.5 0 -379.5 150.5t-142 370t142 369t379.5 149.5t381 -149.5t143.5 -369t-143.5 -370t-381 -150.5zM588 207q117 0 185.5 83t68.5 206q0 121 -68.5 203.5t-185.5 82.5t-184.5 -83t-67.5 -203q0 -123 67.5 -206t184.5 -83zM449 -243.5q0 57.5 40.5 98.5 t98 41t97.5 -41t40 -98.5t-40 -98.5t-97.5 -41t-98 41t-40.5 98.5z" glyph-name="uni1ECD" horiz-adv-x="1175" unicode="ọ"/><glyph d="M555 1659q25 72 81 110.5t130 38.5q90 0 151.5 -47t61.5 -143q0 -66 -43 -135h-143q51 59 51 129q0 82 -78 82q-61 0 -90 -74zM70 682q0 307 201.5 507t510.5 200q311 0 513 -199t202 -508t-201.5 -508t-513.5 -199q-309 0 -510.5 200t-201.5 507zM1198 682 q0 195 -114.5 321.5t-301 126.5t-300 -126.5t-113.5 -321.5t113.5 -322t300 -127t301 127t114.5 322z" glyph-name="uni1ECE" horiz-adv-x="1566" unicode="Ỏ"/><glyph d="M360 1317q25 72 81.5 110.5t129.5 38.5q90 0 151.5 -47t61.5 -143q0 -66 -43 -135h-143q51 59 51 129q0 82 -78 82q-61 0 -90 -74zM587.5 -25q-237.5 0 -379.5 150.5t-142 370t142 369t379.5 149.5t381 -149.5t143.5 -369t-143.5 -370t-381 -150.5zM588 207 q117 0 185.5 83t68.5 206q0 121 -68.5 203.5t-185.5 82.5t-184.5 -83t-67.5 -203q0 -123 67.5 -206t184.5 -83z" glyph-name="uni1ECF" horiz-adv-x="1175" unicode="ỏ"/><glyph d="M1212 1597h-182l275 222h239zM932 1444l-150 137l-145 -137h-160l189 221h233l193 -221h-160zM70 682q0 307 201.5 507t510.5 200q311 0 513 -199t202 -508t-201.5 -508t-513.5 -199q-309 0 -510.5 200t-201.5 507zM1198 682q0 195 -114.5 321.5t-301 126.5t-300 -126.5 t-113.5 -321.5t113.5 -322t300 -127t301 127t114.5 322z" glyph-name="uni1ED0" horiz-adv-x="1566" unicode="Ố"/><glyph d="M1018 1343h-182l274 295h240zM737 1139l-149 182l-146 -182h-159l188 295h234l192 -295h-160zM587.5 -25q-237.5 0 -379.5 150.5t-142 370t142 369t379.5 149.5t381 -149.5t143.5 -369t-143.5 -370t-381 -150.5zM588 207q117 0 185.5 83t68.5 206q0 121 -68.5 203.5 t-185.5 82.5t-184.5 -83t-67.5 -203q0 -123 67.5 -206t184.5 -83z" glyph-name="uni1ED1" horiz-adv-x="1175" unicode="ố"/><glyph d="M362 1597l-331 222h239l275 -222h-183zM932 1444l-150 137l-145 -137h-160l189 221h233l193 -221h-160zM70 682q0 307 201.5 507t510.5 200q311 0 513 -199t202 -508t-201.5 -508t-513.5 -199q-309 0 -510.5 200t-201.5 507zM1198 682q0 195 -114.5 321.5t-301 126.5 t-300 -126.5t-113.5 -321.5t113.5 -322t300 -127t301 127t114.5 322z" glyph-name="uni1ED2" horiz-adv-x="1566" unicode="Ồ"/><glyph d="M168 1343l-332 295h240l274 -295h-182zM737 1139l-149 182l-146 -182h-159l188 295h234l192 -295h-160zM587.5 -25q-237.5 0 -379.5 150.5t-142 370t142 369t379.5 149.5t381 -149.5t143.5 -369t-143.5 -370t-381 -150.5zM588 207q117 0 185.5 83t68.5 206 q0 121 -68.5 203.5t-185.5 82.5t-184.5 -83t-67.5 -203q0 -123 67.5 -206t184.5 -83z" glyph-name="uni1ED3" horiz-adv-x="1175" unicode="ồ"/><glyph d="M793 1729q51 113 211 112q90 0 151.5 -36t61.5 -107q0 -47 -43 -101h-144q51 43 51 97q0 61 -77 61q-61 0 -91 -55zM932 1444l-150 137l-145 -137h-160l189 221h233l193 -221h-160zM70 682q0 307 201.5 507t510.5 200q311 0 513 -199t202 -508t-201.5 -508t-513.5 -199 q-309 0 -510.5 200t-201.5 507zM1198 682q0 195 -114.5 321.5t-301 126.5t-300 -126.5t-113.5 -321.5t113.5 -322t300 -127t301 127t114.5 322z" glyph-name="uni1ED4" horiz-adv-x="1566" unicode="Ổ"/><glyph d="M598 1520q25 72 81 110.5t130 38.5q90 0 151.5 -47t61.5 -143q0 -66 -43 -136h-143q51 59 51 130q0 82 -78 81q-61 0 -90 -73zM737 1139l-149 182l-146 -182h-159l188 295h234l192 -295h-160zM587.5 -25q-237.5 0 -379.5 150.5t-142 370t142 369t379.5 149.5t381 -149.5 t143.5 -369t-143.5 -370t-381 -150.5zM588 207q117 0 185.5 83t68.5 206q0 121 -68.5 203.5t-185.5 82.5t-184.5 -83t-67.5 -203q0 -123 67.5 -206t184.5 -83z" glyph-name="uni1ED5" horiz-adv-x="1175" unicode="ổ"/><glyph d="M741 1751q-49 41 -82 41q-74 0 -73 -94h-137q0 98 57 151.5t164 53.5q80 0 153 -62q51 -41 84 -41q74 0 74 94h137q0 -98 -56 -151t-163 -53q-84 0 -158 61zM932 1444l-150 137l-145 -137h-160l189 221h233l193 -221h-160zM70 682q0 307 201.5 507t510.5 200 q311 0 513 -199t202 -508t-201.5 -508t-513.5 -199q-309 0 -510.5 200t-201.5 507zM1198 682q0 195 -114.5 321.5t-301 126.5t-300 -126.5t-113.5 -321.5t113.5 -322t300 -127t301 127t114.5 322z" glyph-name="uni1ED6" horiz-adv-x="1566" unicode="Ỗ"/><glyph d="M547 1550q-51 55 -82 56q-74 0 -74 -127h-137q0 131 57.5 202.5t163.5 71.5q78 0 154 -84q53 -53 84 -53q74 0 73 125h138q0 -131 -56.5 -203t-162.5 -72q-82 0 -158 84zM737 1139l-149 182l-146 -182h-159l188 295h234l192 -295h-160zM587.5 -25q-237.5 0 -379.5 150.5 t-142 370t142 369t379.5 149.5t381 -149.5t143.5 -369t-143.5 -370t-381 -150.5zM588 207q117 0 185.5 83t68.5 206q0 121 -68.5 203.5t-185.5 82.5t-184.5 -83t-67.5 -203q0 -123 67.5 -206t184.5 -83z" glyph-name="uni1ED7" horiz-adv-x="1175" unicode="ỗ"/><glyph d="M932 1481l-150 182l-145 -182h-160l189 295h233l193 -295h-160zM70 682q0 307 201.5 507t510.5 200q311 0 513 -199t202 -508t-201.5 -508t-513.5 -199q-309 0 -510.5 200t-201.5 507zM1198 682q0 195 -114.5 321.5t-301 126.5t-300 -126.5t-113.5 -321.5t113.5 -322 t300 -127t301 127t114.5 322zM643 -243.5q0 57.5 41 98.5t98.5 41t97.5 -41t40 -98.5t-40 -98.5t-97.5 -41t-98.5 41t-41 98.5z" glyph-name="uni1ED8" horiz-adv-x="1566" unicode="Ộ"/><glyph d="M737 1139l-149 182l-146 -182h-159l188 295h234l192 -295h-160zM587.5 -25q-237.5 0 -379.5 150.5t-142 370t142 369t379.5 149.5t381 -149.5t143.5 -369t-143.5 -370t-381 -150.5zM588 207q117 0 185.5 83t68.5 206q0 121 -68.5 203.5t-185.5 82.5t-184.5 -83 t-67.5 -203q0 -123 67.5 -206t184.5 -83zM449 -243.5q0 57.5 40.5 98.5t98 41t97.5 -41t40 -98.5t-40 -98.5t-97.5 -41t-98 41t-40.5 98.5z" glyph-name="uni1ED9" horiz-adv-x="1175" unicode="ộ"/><glyph d="M1198 1776l-332 -295h-182l274 295h240zM1520 1364q0 -164 -144 -272q121 -180 121 -410q0 -309 -201.5 -508t-513.5 -199q-309 0 -510.5 200t-201.5 507t201.5 507t510.5 200q330 0 533 -220q74 59 90 129q-8 -4 -29 -4q-41 0 -69.5 30t-28.5 75q0 47 32.5 80.5 t80.5 33.5q53 0 91 -39.5t38 -109.5zM782.5 233q186.5 0 301 127t114.5 322t-114.5 321.5t-301 126.5t-300 -126.5t-113.5 -321.5t113.5 -322t300 -127z" glyph-name="uni1EDA" horiz-adv-x="1566" unicode="Ớ"/><glyph d="M1004 1434l-332 -295h-183l275 295h240zM1130 1090q0 -154 -131 -261q113 -145 113 -333q0 -219 -143.5 -370t-381 -151t-379.5 150.5t-142 370t142 369t380 149.5q205 0 342 -115q72 63 86 127q-8 -4 -29 -4q-43 0 -70.5 28.5t-27.5 76t32.5 81t79.5 33.5q53 0 91 -40.5 t38 -110.5zM588 207q117 0 185.5 83t68.5 206q0 121 -68.5 203.5t-185.5 82.5t-184.5 -83t-67.5 -203q0 -123 67.5 -206t184.5 -83z" glyph-name="uni1EDB" horiz-adv-x="1175" unicode="ớ"/><glyph d="M874 1481h-182l-332 295h240zM1520 1364q0 -164 -144 -272q121 -180 121 -410q0 -309 -201.5 -508t-513.5 -199q-309 0 -510.5 200t-201.5 507t201.5 507t510.5 200q330 0 533 -220q74 59 90 129q-8 -4 -29 -4q-41 0 -69.5 30t-28.5 75q0 47 32.5 80.5t80.5 33.5 q53 0 91 -39.5t38 -109.5zM782.5 233q186.5 0 301 127t114.5 322t-114.5 321.5t-301 126.5t-300 -126.5t-113.5 -321.5t113.5 -322t300 -127z" glyph-name="uni1EDC" horiz-adv-x="1566" unicode="Ờ"/><glyph d="M680 1139h-182l-332 295h240zM1130 1090q0 -154 -131 -261q113 -145 113 -333q0 -219 -143.5 -370t-381 -151t-379.5 150.5t-142 370t142 369t380 149.5q205 0 342 -115q72 63 86 127q-8 -4 -29 -4q-43 0 -70.5 28.5t-27.5 76t32.5 81t79.5 33.5q53 0 91 -40.5t38 -110.5 zM588 207q117 0 185.5 83t68.5 206q0 121 -68.5 203.5t-185.5 82.5t-184.5 -83t-67.5 -203q0 -123 67.5 -206t184.5 -83z" glyph-name="uni1EDD" horiz-adv-x="1175" unicode="ờ"/><glyph d="M766 1694q-61 0 -90 -74l-121 39q25 72 81 110.5t130 38.5q90 0 151.5 -47t61.5 -143q0 -66 -43 -135h-143q51 59 51 129q0 82 -78 82zM1520 1364q0 -164 -144 -272q121 -180 121 -410q0 -309 -201.5 -508t-513.5 -199q-309 0 -510.5 200t-201.5 507t201.5 507t510.5 200 q330 0 533 -220q74 59 90 129q-8 -4 -29 -4q-41 0 -69.5 30t-28.5 75q0 47 32.5 80.5t80.5 33.5q53 0 91 -39.5t38 -109.5zM782.5 233q186.5 0 301 127t114.5 322t-114.5 321.5t-301 126.5t-300 -126.5t-113.5 -321.5t113.5 -322t300 -127z" glyph-name="uni1EDE" horiz-adv-x="1566" unicode="Ở"/><glyph d="M571 1352q-61 0 -90 -74l-121 39q25 72 81.5 110.5t129.5 38.5q90 0 151.5 -47t61.5 -143q0 -66 -43 -135h-143q51 59 51 129q0 82 -78 82zM1130 1090q0 -154 -131 -261q113 -145 113 -333q0 -219 -143.5 -370t-381 -151t-379.5 150.5t-142 370t142 369t380 149.5 q205 0 342 -115q72 63 86 127q-8 -4 -29 -4q-43 0 -70.5 28.5t-27.5 76t32.5 81t79.5 33.5q53 0 91 -40.5t38 -110.5zM588 207q117 0 185.5 83t68.5 206q0 121 -68.5 203.5t-185.5 82.5t-184.5 -83t-67.5 -203q0 -123 67.5 -206t184.5 -83z" glyph-name="uni1EDF" horiz-adv-x="1175" unicode="ở"/><glyph d="M659 1616q-74 0 -73 -127h-137q0 131 57 202.5t164 71.5q78 0 153 -84q53 -53 84 -53q74 0 74 125h137q0 -131 -56 -202.5t-163 -71.5q-82 0 -158 84q-51 55 -82 55zM1520 1364q0 -164 -144 -272q121 -180 121 -410q0 -309 -201.5 -508t-513.5 -199q-309 0 -510.5 200 t-201.5 507t201.5 507t510.5 200q330 0 533 -220q74 59 90 129q-8 -4 -29 -4q-41 0 -69.5 30t-28.5 75q0 47 32.5 80.5t80.5 33.5q53 0 91 -39.5t38 -109.5zM782.5 233q186.5 0 301 127t114.5 322t-114.5 321.5t-301 126.5t-300 -126.5t-113.5 -321.5t113.5 -322t300 -127z " glyph-name="uni1EE0" horiz-adv-x="1566" unicode="Ỡ"/><glyph d="M465 1274q-74 0 -74 -127h-137q0 131 57.5 202.5t163.5 71.5q78 0 154 -84q53 -53 84 -53q74 0 73 125h138q0 -131 -56.5 -202.5t-162.5 -71.5q-82 0 -158 84q-51 55 -82 55zM1130 1090q0 -154 -131 -261q113 -145 113 -333q0 -219 -143.5 -370t-381 -151t-379.5 150.5 t-142 370t142 369t380 149.5q205 0 342 -115q72 63 86 127q-8 -4 -29 -4q-43 0 -70.5 28.5t-27.5 76t32.5 81t79.5 33.5q53 0 91 -40.5t38 -110.5zM588 207q117 0 185.5 83t68.5 206q0 121 -68.5 203.5t-185.5 82.5t-184.5 -83t-67.5 -203q0 -123 67.5 -206t184.5 -83z" glyph-name="uni1EE1" horiz-adv-x="1175" unicode="ỡ"/><glyph d="M1520 1364q0 -164 -144 -272q121 -180 121 -410q0 -309 -201.5 -508t-513.5 -199q-309 0 -510.5 200t-201.5 507t201.5 507t510.5 200q330 0 533 -220q74 59 90 129q-8 -4 -29 -4q-41 0 -69.5 30t-28.5 75q0 47 32.5 80.5t80.5 33.5q53 0 91 -39.5t38 -109.5zM782.5 233 q186.5 0 301 127t114.5 322t-114.5 321.5t-301 126.5t-300 -126.5t-113.5 -321.5t113.5 -322t300 -127zM782.5 -104q57.5 0 97.5 -41t40 -98.5t-40 -98.5t-97.5 -41t-98.5 41t-41 98.5t41 98.5t98.5 41z" glyph-name="uni1EE2" horiz-adv-x="1566" unicode="Ợ"/><glyph d="M1130 1090q0 -154 -131 -261q113 -145 113 -333q0 -219 -143.5 -370t-381 -151t-379.5 150.5t-142 370t142 369t380 149.5q205 0 342 -115q72 63 86 127q-8 -4 -29 -4q-43 0 -70.5 28.5t-27.5 76t32.5 81t79.5 33.5q53 0 91 -40.5t38 -110.5zM588 207q117 0 185.5 83 t68.5 206q0 121 -68.5 203.5t-185.5 82.5t-184.5 -83t-67.5 -203q0 -123 67.5 -206t184.5 -83zM587.5 -104q57.5 0 97.5 -41t40 -98.5t-40 -98.5t-97.5 -41t-98 41t-40.5 98.5t40.5 98.5t98 41z" glyph-name="uni1EE3" horiz-adv-x="1175" unicode="ợ"/><glyph d="M135 545v821h295v-811q0 -147 81 -234.5t237 -87.5q152 0 232.5 87.5t80.5 234.5v811h295v-819q0 -264 -153.5 -418t-454.5 -154q-303 0 -458 154t-155 416zM608 -243.5q0 57.5 41 98.5t98.5 41t97.5 -41t40 -98.5t-40 -98.5t-97.5 -41t-98.5 41t-41 98.5z" glyph-name="uni1EE4" horiz-adv-x="1490" unicode="Ụ"/><glyph d="M797 0v125q-133 -150 -348 -150q-160 0 -240 82t-80 230v702h260v-600q0 -182 182 -182q137 0 226 112v670h260v-989h-260zM453 -243.5q0 57.5 41 98.5t98 41t97 -41t40 -98.5t-40 -98.5t-97 -41t-98 41t-41 98.5z" glyph-name="uni1EE5" unicode="ụ"/><glyph d="M520 1659q25 72 81 110.5t130 38.5q90 0 151.5 -47t61.5 -143q0 -66 -43 -135h-143q51 59 51 129q0 82 -78 82q-61 0 -90 -74zM135 545v821h295v-811q0 -147 81 -234.5t237 -87.5q152 0 232.5 87.5t80.5 234.5v811h295v-819q0 -264 -153.5 -418t-454.5 -154 q-303 0 -458 154t-155 416z" glyph-name="uni1EE6" horiz-adv-x="1490" unicode="Ủ"/><glyph d="M367 1317q25 72 81 110.5t130 38.5q90 0 151.5 -47t61.5 -143q0 -66 -43 -135h-144q51 59 51 129q0 82 -77 82q-61 0 -91 -74zM797 0v125q-133 -150 -348 -150q-160 0 -240 82t-80 230v702h260v-600q0 -182 182 -182q137 0 226 112v670h260v-989h-260z" glyph-name="uni1EE7" unicode="ủ"/><glyph d="M1163 1776l-332 -295h-182l275 295h239zM1581 1487q0 -92 -59.5 -180t-165.5 -138v-622q0 -264 -153.5 -418t-454.5 -154q-303 0 -458 154t-155 416v821h295v-811q0 -147 81 -234.5t237 -87.5q152 0 232.5 87.5t80.5 234.5v811h295v-88q94 61 110 147q-8 -6 -28 -6 q-43 0 -71 30t-28 77t33 79.5t80 32.5q53 0 91 -40.5t38 -110.5z" glyph-name="uni1EE8" horiz-adv-x="1490" unicode="Ứ"/><glyph d="M1008 1434l-332 -295h-182l274 295h240zM1225 1116q0 -80 -44 -156.5t-124 -130.5v-829h-260v125q-133 -150 -348 -150q-160 0 -240 82t-80 230v702h260v-600q0 -182 182 -182q137 0 226 112v670h260v-35q45 51 53 99q-8 -4 -29 -4q-43 0 -70.5 28.5t-27.5 75.5t33 81 t80 34q55 0 92 -41t37 -111z" glyph-name="uni1EE9" unicode="ứ"/><glyph d="M840 1481h-183l-331 295h239zM1581 1487q0 -92 -59.5 -180t-165.5 -138v-622q0 -264 -153.5 -418t-454.5 -154q-303 0 -458 154t-155 416v821h295v-811q0 -147 81 -234.5t237 -87.5q152 0 232.5 87.5t80.5 234.5v811h295v-88q94 61 110 147q-8 -6 -28 -6q-43 0 -71 30 t-28 77t33 79.5t80 32.5q53 0 91 -40.5t38 -110.5z" glyph-name="uni1EEA" horiz-adv-x="1490" unicode="Ừ"/><glyph d="M684 1139h-182l-332 295h240zM1225 1116q0 -80 -44 -156.5t-124 -130.5v-829h-260v125q-133 -150 -348 -150q-160 0 -240 82t-80 230v702h260v-600q0 -182 182 -182q137 0 226 112v670h260v-35q45 51 53 99q-8 -4 -29 -4q-43 0 -70.5 28.5t-27.5 75.5t33 81t80 34 q55 0 92 -41t37 -111z" glyph-name="uni1EEB" unicode="ừ"/><glyph d="M731 1694q-61 0 -90 -74l-121 39q25 72 81 110.5t130 38.5q90 0 151.5 -47t61.5 -143q0 -66 -43 -135h-143q51 59 51 129q0 82 -78 82zM1581 1487q0 -92 -59.5 -180t-165.5 -138v-622q0 -264 -153.5 -418t-454.5 -154q-303 0 -458 154t-155 416v821h295v-811 q0 -147 81 -234.5t237 -87.5q152 0 232.5 87.5t80.5 234.5v811h295v-88q94 61 110 147q-8 -6 -28 -6q-43 0 -71 30t-28 77t33 79.5t80 32.5q53 0 91 -40.5t38 -110.5z" glyph-name="uni1EEC" horiz-adv-x="1490" unicode="Ử"/><glyph d="M578 1352q-61 0 -91 -74l-120 39q25 72 81 110.5t130 38.5q90 0 151.5 -47t61.5 -143q0 -66 -43 -135h-144q51 59 51 129q1 82 -77 82zM1225 1116q0 -80 -44 -156.5t-124 -130.5v-829h-260v125q-133 -150 -348 -150q-160 0 -240 82t-80 230v702h260v-600q0 -182 182 -182 q137 0 226 112v670h260v-35q45 51 53 99q-8 -4 -29 -4q-43 0 -70.5 28.5t-27.5 75.5t33 81t80 34q55 0 92 -41t37 -111z" glyph-name="uni1EED" unicode="ử"/><glyph d="M625 1616q-74 0 -74 -127h-137q0 131 57 202.5t164 71.5q78 0 153 -84q53 -53 84 -53q74 0 74 125h137q0 -131 -56 -202.5t-163 -71.5q-82 0 -157 84q-51 55 -82 55zM1581 1487q0 -92 -59.5 -180t-165.5 -138v-622q0 -264 -153.5 -418t-454.5 -154q-303 0 -458 154 t-155 416v821h295v-811q0 -147 81 -234.5t237 -87.5q152 0 232.5 87.5t80.5 234.5v811h295v-88q94 61 110 147q-8 -6 -28 -6q-43 0 -71 30t-28 77t33 79.5t80 32.5q53 0 91 -40.5t38 -110.5z" glyph-name="uni1EEE" horiz-adv-x="1490" unicode="Ữ"/><glyph d="M469 1274q-74 0 -74 -127h-137q0 131 57.5 202.5t163.5 71.5q78 0 154 -84q53 -53 84 -53q74 0 74 125h137q0 -131 -56.5 -202.5t-162.5 -71.5q-82 0 -158 84q-51 55 -82 55zM1225 1116q0 -80 -44 -156.5t-124 -130.5v-829h-260v125q-133 -150 -348 -150q-160 0 -240 82 t-80 230v702h260v-600q0 -182 182 -182q137 0 226 112v670h260v-35q45 51 53 99q-8 -4 -29 -4q-43 0 -70.5 28.5t-27.5 75.5t33 81t80 34q55 0 92 -41t37 -111z" glyph-name="uni1EEF" unicode="ữ"/><glyph d="M1581 1487q0 -92 -59.5 -180t-165.5 -138v-622q0 -264 -153.5 -418t-454.5 -154q-303 0 -458 154t-155 416v821h295v-811q0 -147 81 -234.5t237 -87.5q152 0 232.5 87.5t80.5 234.5v811h295v-88q94 61 110 147q-8 -6 -28 -6q-43 0 -71 30t-28 77t33 79.5t80 32.5 q53 0 91 -40.5t38 -110.5zM747.5 -104q57.5 0 97.5 -41t40 -98.5t-40 -98.5t-97.5 -41t-98.5 41t-41 98.5t41 98.5t98.5 41z" glyph-name="uni1EF0" horiz-adv-x="1490" unicode="Ự"/><glyph d="M1225 1116q0 -80 -44 -156.5t-124 -130.5v-829h-260v125q-133 -150 -348 -150q-160 0 -240 82t-80 230v702h260v-600q0 -182 182 -182q137 0 226 112v670h260v-35q45 51 53 99q-8 -4 -29 -4q-43 0 -70.5 28.5t-27.5 75.5t33 81t80 34q55 0 92 -41t37 -111zM592 -104 q57 0 97 -41t40 -98.5t-40 -98.5t-97 -41t-98 41t-41 98.5t41 98.5t98 41z" glyph-name="uni1EF1" unicode="ự"/><glyph d="M571 1481l-331 295h239l275 -295h-183zM516 0v559l-526 807h332l340 -549l335 549h332l-522 -807v-559h-291z" glyph-name="Ygrave" horiz-adv-x="1320" unicode="Ỳ"/><glyph d="M434 1139l-332 295h240l274 -295h-182zM133 -154q37 -16 82 -16q104 0 137 72l37 84l-401 1003h278l258 -688l258 688h281l-465 -1151q-51 -131 -143.5 -183t-231.5 -56q-72 0 -129 14z" glyph-name="ygrave" horiz-adv-x="1050" unicode="ỳ"/><glyph d="M516 0v559l-526 807h332l340 -549l335 549h332l-522 -807v-559h-291zM522 -243.5q0 57.5 41 98.5t98.5 41t97.5 -41t40 -98.5t-40 -98.5t-97.5 -41t-98.5 41t-41 98.5z" glyph-name="uni1EF4" horiz-adv-x="1320" unicode="Ỵ"/><glyph d="M133 -154q37 -16 82 -16q104 0 137 72l37 84l-401 1003h278l258 -688l258 688h281l-465 -1151q-51 -131 -143.5 -183t-231.5 -56q-72 0 -129 14zM385 -549q0 57 41 98t98.5 41t97.5 -41t40 -98t-40 -98t-97.5 -41t-98.5 41t-41 98z" glyph-name="uni1EF5" horiz-adv-x="1050" unicode="ỵ"/><glyph d="M436 1659q25 72 81 110.5t130 38.5q90 0 151.5 -47t61.5 -143q0 -66 -43 -135h-143q51 59 51 129q0 82 -78 82q-61 0 -90 -74zM516 0v559l-526 807h332l340 -549l335 549h332l-522 -807v-559h-291z" glyph-name="uni1EF6" horiz-adv-x="1320" unicode="Ỷ"/><glyph d="M297 1317q25 72 81 110.5t130 38.5q90 0 151.5 -47t61.5 -143q0 -66 -43 -135h-143q51 59 51 129q0 82 -78 82q-61 0 -90 -74zM133 -154q37 -16 82 -16q104 0 137 72l37 84l-401 1003h278l258 -688l258 688h281l-465 -1151q-51 -131 -143.5 -183t-231.5 -56 q-72 0 -129 14z" glyph-name="uni1EF7" horiz-adv-x="1050" unicode="ỷ"/><glyph d="M621 1561q-51 55 -82 55q-74 0 -74 -127h-137q0 131 57 202.5t164 71.5q78 0 153 -84q53 -53 84 -53q74 0 74 125h137q0 -131 -56 -202.5t-163 -71.5q-81 0 -157 84zM516 0v559l-526 807h332l340 -549l335 549h332l-522 -807v-559h-291z" glyph-name="uni1EF8" horiz-adv-x="1320" unicode="Ỹ"/><glyph d="M483 1219q-51 55 -82 55q-74 0 -73 -127h-138q0 131 57.5 202.5t164.5 71.5q78 0 153 -84q53 -53 84 -53q74 0 74 125h137q0 -131 -56 -202.5t-163 -71.5q-82 0 -158 84zM133 -154q37 -16 82 -16q104 0 137 72l37 84l-401 1003h278l258 -688l258 688h281l-465 -1151 q-51 -131 -143.5 -183t-231.5 -56q-72 0 -129 14z" glyph-name="uni1EF9" horiz-adv-x="1050" unicode="ỹ"/><glyph glyph-name="uni2000" horiz-adv-x="1024" unicode=" "/><glyph glyph-name="uni2001" horiz-adv-x="2048" unicode=" "/><glyph glyph-name="uni2002" horiz-adv-x="1024" unicode=" "/><glyph glyph-name="uni2003" horiz-adv-x="2048" unicode=" "/><glyph glyph-name="uni2004" horiz-adv-x="681" unicode=" "/><glyph glyph-name="uni2005" horiz-adv-x="512" unicode=" "/><glyph glyph-name="uni2006" horiz-adv-x="342" unicode=" "/><glyph glyph-name="uni2007" horiz-adv-x="1275" unicode=" "/><glyph glyph-name="uni2008" horiz-adv-x="524" unicode=" "/><glyph glyph-name="uni2009" horiz-adv-x="256" unicode=" "/><glyph glyph-name="uni200A" horiz-adv-x="114" unicode=" "/><glyph d="M61 385v221h1092v-221h-1092z" glyph-name="endash" horiz-adv-x="1214" unicode="–"/><glyph d="M61 385v221h1584v-221h-1584z" glyph-name="emdash" horiz-adv-x="1705" unicode="—"/><glyph d="M61 385v221h1092v-221h-1092z" glyph-name="afii00208" horiz-adv-x="1214" unicode="―"/><glyph d="M291 1386l112 -90q-51 -27 -98 -84t-61 -110q10 6 41 6q59 0 99 -41t40 -106.5t-48 -113.5t-114 -48q-76 0 -130 56t-54 153q0 113 57.5 211.5t155.5 166.5z" glyph-name="quoteleft" horiz-adv-x="522" unicode="‘"/><glyph d="M229 797l-112 92q51 27 98 84t59 110q-12 -8 -38 -8q-59 0 -99.5 42t-40.5 106q0 68 47 115.5t113 47.5q76 0 130 -56t54 -152q0 -113 -57.5 -212t-153.5 -169z" glyph-name="quoteright" horiz-adv-x="522" unicode="’"/><glyph d="M229 -281l-112 93q51 27 98 83t59 109q-18 -6 -38 -6q-59 0 -99.5 41t-40.5 106q0 68 47 116t113 48q76 0 130 -56t54 -153q0 -113 -57.5 -212t-153.5 -169z" glyph-name="quotesinglbase" horiz-adv-x="524" unicode="‚"/><glyph d="M266 1386q66 0 114 -48t48 -115q0 -63 -41 -105.5t-100 -42.5q-27 0 -39 8q14 -53 60 -110.5t98 -83.5l-111 -92q-98 70 -155.5 169t-57.5 212q0 96 54 152t130 56z" glyph-name="quotereversed" horiz-adv-x="522" unicode="‛"/><glyph d="M293 1386l113 -90q-51 -27 -98.5 -84t-61.5 -110q8 6 41 6q59 0 99 -41t40 -106.5t-48 -113.5t-114 -48q-76 0 -129 56t-53 153q0 113 56.5 211.5t154.5 166.5zM709 1386l114 -90q-51 -27 -99 -84t-60 -110q8 6 41 6q57 0 97 -41t40 -106.5t-47 -113.5t-115 -48 q-76 0 -128 56t-52 153q0 113 56.5 211.5t152.5 166.5z" glyph-name="quotedblleft" horiz-adv-x="940" unicode="“"/><glyph d="M229 797l-112 92q51 27 98 84t59 110q-12 -8 -38 -8q-59 0 -99.5 42t-40.5 106q0 68 47 115.5t113 47.5q76 0 130 -56t54 -152q0 -113 -57.5 -212t-153.5 -169zM645 797l-113 92q51 27 98.5 84t61.5 110q-16 -8 -41 -8q-59 0 -99 42t-40 106q0 68 48 115.5t114 47.5 q76 0 129 -56t53 -152q0 -113 -56.5 -212t-154.5 -169z" glyph-name="quotedblright" horiz-adv-x="940" unicode="”"/><glyph d="M229 -281l-112 93q51 27 98 83t59 109q-18 -6 -38 -6q-59 0 -99.5 41t-40.5 106q0 68 47 116t113 48q76 0 130 -56t54 -153q0 -113 -57.5 -212t-153.5 -169zM645 -281l-113 93q51 27 98.5 83t61.5 109q-25 -6 -41 -6q-59 0 -99 41t-40 106q0 68 48 116t114 48 q76 0 129 -56t53 -153q0 -113 -56.5 -212t-154.5 -169z" glyph-name="quotedblbase" horiz-adv-x="940" unicode="„"/><glyph d="M344 1077l8 -407h-139l10 407l-182 -8v127l182 -6l-10 196h139l-8 -196l182 6v-127z" glyph-name="dagger" horiz-adv-x="567" unicode="†"/><glyph d="M526 1069l-182 8v-397l182 8v-127l-182 6l8 -198h-139l8 198l-180 -6v127l180 -8v397l-180 -8v127l180 -6l-8 196h139l-8 -196l182 6v-127z" glyph-name="daggerdbl" horiz-adv-x="567" unicode="‡"/><glyph d="M368.5 254q-100.5 0 -172 70.5t-71.5 171.5q0 102 70.5 172.5t173 70.5t173 -70.5t70.5 -172.5q0 -100 -71.5 -171t-172 -71z" glyph-name="bullet" horiz-adv-x="733" unicode="•"/><glyph d="M260.5 -20q-67.5 0 -116 49t-48.5 114q0 68 48.5 117t116 49t116.5 -49t49 -117q0 -66 -49 -114.5t-116.5 -48.5zM784.5 -20q-67.5 0 -115.5 49t-48 114q0 68 48 117t115.5 49t116.5 -49t49 -117q0 -66 -49 -114.5t-116.5 -48.5zM1308.5 -20q-67.5 0 -115.5 49t-48 114 q0 68 48 117t115.5 49t117 -49t49.5 -117q0 -66 -49.5 -114.5t-117 -48.5z" glyph-name="ellipsis" horiz-adv-x="1572" unicode="…"/><glyph d="M748 1042q0 -145 -96.5 -240t-252.5 -95q-154 0 -250 95t-96 240q0 147 96.5 245.5t249.5 98.5q156 0 252.5 -98.5t96.5 -245.5zM1139 1366h155l-874 -1366h-154zM238 1042q0 -88 45 -140t116.5 -52t116.5 52t45 140q0 92 -45 145.5t-116.5 53.5t-116.5 -53.5t-45 -145.5 zM1151 657q154 0 251 -98t97 -246q0 -145 -97 -241.5t-251 -96.5t-250 96.5t-96 241.5q0 147 96 245.5t250 98.5zM1896.5 657q153.5 0 251 -98t97.5 -246q0 -145 -97.5 -241.5t-251 -96.5t-250 96.5t-96.5 241.5q0 147 96.5 245.5t250 98.5zM1896.5 119q71.5 0 117.5 53 t46 141q0 92 -46 145.5t-117.5 53.5t-116.5 -53t-45 -146q0 -90 45 -142t116.5 -52zM1151 119q72 0 118 53t46 141q0 92 -46 145.5t-118 53.5t-117 -53t-45 -146q0 -90 45 -142t117 -52z" glyph-name="perthousand" horiz-adv-x="2297" unicode="‰"/><glyph d="M68 791q100 471 114 509q37 86 131 86q59 0 100.5 -40.5t41.5 -100.5q0 -31 -11 -51q-6 -16 -73.5 -128t-132.5 -214l-64 -104z" glyph-name="minute" horiz-adv-x="487" unicode="′"/><glyph d="M68 791q100 471 114 509q37 86 131 86q59 0 100.5 -40.5t41.5 -100.5q0 -31 -11 -51q-6 -16 -73.5 -128t-132.5 -214l-64 -104zM459 791q98 471 114 509q14 39 51.5 62.5t80.5 23.5q57 0 98 -40.5t41 -100.5q0 -29 -8 -51l-273 -446z" glyph-name="second" horiz-adv-x="878" unicode="″"/><glyph d="M389 129l-328 369l328 362h240l-328 -362l328 -369h-240z" glyph-name="guilsinglleft" horiz-adv-x="690" unicode="‹"/><glyph d="M301 129h-240l328 369l-328 362h240l328 -362z" glyph-name="guilsinglright" horiz-adv-x="690" unicode="›"/><glyph d="M467 1386q209 0 330 -108.5t121 -284.5q0 -145 -99.5 -249.5t-230.5 -157.5l-10 -142h-232l-43 572h264l-8 -225q102 68 103 180q0 78 -56.5 123t-148.5 45q-170 0 -281 -127l-158 176q170 198 449 198zM462.5 309q67.5 0 117 -49t49.5 -116.5t-49.5 -117t-117 -49.5 t-116.5 49.5t-49 117t49 116.5t116.5 49z" glyph-name="uni203D" horiz-adv-x="956" unicode="‽"/><glyph d="M29 1151v147h686v-147h-686z" glyph-name="uni203E" horiz-adv-x="743" unicode="‾"/><glyph d="M-197 0h-155l872 1366h158z" glyph-name="fraction" horiz-adv-x="325" unicode="⁄"/><glyph d="M408 848q-172 0 -263.5 124t-91.5 300q0 174 90 298t265 124q170 0 261 -124t91 -298t-91 -299t-261 -125zM408 1536q-156 0 -156 -264q0 -266 156 -266q154 0 153 266q1 264 -153 264z" glyph-name="uni2070" horiz-adv-x="813" unicode="⁰"/><glyph d="M655 1038v-176h-194v176h-402v133l322 510h274v-489h109v-154h-109zM461 1516l-207 -324h207v324z" glyph-name="uni2074" horiz-adv-x="813" unicode="⁴"/><glyph d="M399 848q-217 0 -329 125l106 129q84 -96 223 -96q70 0 110 34.5t40 85.5q0 55 -38 89t-105 34q-102 0 -175 -71l-137 45v458h594v-157h-397v-199q72 68 186 68q113 0 189.5 -68t76.5 -192q0 -127 -93 -206t-251 -79z" glyph-name="uni2075" horiz-adv-x="813" unicode="⁵"/><glyph d="M430 848q-186 0 -279.5 117.5t-93.5 304.5q0 195 108.5 309.5t297.5 114.5q147 0 250 -80l-84 -139q-70 61 -166 61q-94 0 -151.5 -62.5t-57.5 -152.5v-18q84 102 211 102q121 0 206 -74t85 -198.5t-91.5 -204.5t-234.5 -80zM410 1251q-92 0 -154 -71q6 -74 46 -124 t118 -50q61 0 100 36.5t39 81.5q0 63 -44 95t-105 32z" glyph-name="uni2076" horiz-adv-x="813" unicode="⁶"/><glyph d="M395 862h-217l307 662h-432v157h645v-135z" glyph-name="uni2077" horiz-adv-x="759" unicode="⁷"/><glyph d="M406 848q-145 0 -246 55t-101 172q0 72 55.5 130.5t139.5 78.5q-80 18 -130 68.5t-50 122.5q0 111 98 165t234 54q137 0 235 -54.5t98 -164.5q0 -70 -50 -121t-128 -70q82 -20 137.5 -78.5t55.5 -130.5q0 -117 -100.5 -172t-247.5 -55zM406 1542q-61 0 -99.5 -24.5 t-38.5 -69.5q0 -76 138 -102q139 25 139 102q0 45 -38 69.5t-101 24.5zM406 1214q-45 -6 -98.5 -35.5t-53.5 -82.5q0 -47 42 -73t109.5 -26t110.5 26t43 73q0 53 -54 83.5t-99 34.5z" glyph-name="uni2078" horiz-adv-x="813" unicode="⁸"/><glyph d="M385 1694q186 0 278.5 -118t92.5 -306q0 -193 -107.5 -307.5t-294.5 -114.5q-152 0 -252 80l86 139q63 -61 166 -61q90 0 147.5 61t57.5 154v18q-80 -102 -209 -102q-121 0 -207 72.5t-86 199.5q0 123 91.5 204t236.5 81zM403 1288q98 0 154 76q-4 72 -43 122t-117 50 q-63 0 -102 -36t-39 -83q0 -63 44 -96t103 -33z" glyph-name="uni2079" horiz-adv-x="813" unicode="⁹"/><glyph d="M256 729q-94 92 -151.5 242.5t-57.5 300t57.5 299t151.5 244.5l117 -48q-125 -236 -125 -495q0 -264 125 -496z" glyph-name="uni207D" horiz-adv-x="393" unicode="⁽"/><glyph d="M150 729l-117 47q125 231 125 495.5t-125 495.5l117 48q94 -94 151 -244t57 -299.5t-57 -300t-151 -242.5z" glyph-name="uni207E" horiz-adv-x="393" unicode="⁾"/><glyph d="M551 668v381q0 119 -117 118q-86 0 -141 -67v-432h-191v643h191v-82q86 98 229 98q113 0 165 -58.5t52 -154.5v-446h-188z" glyph-name="uni207F" horiz-adv-x="843" unicode="ⁿ"/><glyph d="M408 -313q-172 0 -263.5 123.5t-91.5 300.5q0 174 90 297.5t265 123.5q170 0 261 -123.5t91 -297.5t-91 -299t-261 -125zM408 375q-156 0 -156 -264q0 -266 156 -267q154 0 153 267q1 264 -153 264z" glyph-name="uni2080" horiz-adv-x="813" unicode="₀"/><glyph d="M264 -299v567l-139 -141l-111 119l279 274h170v-819h-199z" glyph-name="uni2081" horiz-adv-x="585" unicode="₁"/><glyph d="M94 -299v143q268 188 355.5 269.5t87.5 148.5q0 55 -39 84t-101 29q-68 0 -129 -31t-94 -72l-102 125q121 135 329 135q145 0 237.5 -67.5t92.5 -188.5q0 -96 -83 -191t-269 -226h358v-158h-643z" glyph-name="uni2082" horiz-adv-x="813" unicode="₂"/><glyph d="M403 -313q-227 0 -337 129l96 129q94 -100 233 -101q72 0 112 27t40 70q0 100 -180 100q-80 0 -93 -2v156q18 -2 91 -2q168 0 167 92q0 90 -149 90q-125 0 -215 -90l-92 116q121 131 327 131q154 0 240 -60t86 -163q0 -72 -53 -123t-129 -63q72 -6 134 -58.5t62 -136.5 q0 -109 -93 -175t-247 -66z" glyph-name="uni2083" horiz-adv-x="813" unicode="₃"/><glyph d="M655 -123v-176h-194v176h-402v133l322 510h274v-489h109v-154h-109zM461 354l-207 -323h207v323z" glyph-name="uni2084" horiz-adv-x="813" unicode="₄"/><glyph d="M399 -313q-217 0 -329 125l106 129q84 -96 223 -97q70 0 110 35t40 86q0 55 -38 89t-105 34q-102 0 -175 -72l-137 45v459h594v-158h-397v-198q72 68 186 67q113 0 189.5 -67.5t76.5 -192.5q0 -127 -93 -205.5t-251 -78.5z" glyph-name="uni2085" horiz-adv-x="813" unicode="₅"/><glyph d="M430 -313q-186 0 -279.5 116.5t-93.5 305.5q0 195 108.5 309t297.5 114q141 0 250 -79l-84 -140q-70 61 -166 62q-94 0 -151.5 -62.5t-57.5 -152.5v-19q84 102 211 103q121 0 206 -74t85 -199t-91.5 -204.5t-234.5 -79.5zM410 90q-92 0 -154 -72q6 -74 46 -124t118 -50 q61 0 100 37t39 82q0 63 -44 95t-105 32z" glyph-name="uni2086" horiz-adv-x="813" unicode="₆"/><glyph d="M395 -299h-217l307 661h-432v158h645v-135z" glyph-name="uni2087" horiz-adv-x="759" unicode="₇"/><glyph d="M406 -313q-145 0 -246 55t-101 172q0 72 55.5 130t139.5 79q-80 18 -130 68.5t-50 121.5q0 111 98 165t234 54q137 0 235 -54t98 -165q0 -72 -50 -121t-128 -69q82 -20 137.5 -78.5t55.5 -130.5q0 -117 -100.5 -172t-247.5 -55zM406 381q-61 0 -99.5 -24.5t-38.5 -69.5 q0 -76 138 -103q139 25 139 103q0 45 -38 69.5t-101 24.5zM406 53q-45 -6 -98.5 -35.5t-53.5 -83.5q0 -47 42 -72.5t109.5 -25.5t110.5 25.5t43 72.5q0 53 -54 84t-99 35z" glyph-name="uni2088" horiz-adv-x="813" unicode="₈"/><glyph d="M385 532q186 0 278.5 -117.5t92.5 -305.5q0 -193 -107.5 -307.5t-294.5 -114.5q-152 0 -252 80l86 139q63 -61 166 -62q90 0 147.5 61.5t57.5 153.5v19q-80 -102 -209 -103q-121 0 -207 73t-86 200q0 123 91.5 203.5t236.5 80.5zM403 127q98 0 154 76q-4 72 -43 122 t-117 50q-63 0 -102 -36t-39 -83q0 -63 44 -96t103 -33z" glyph-name="uni2089" horiz-adv-x="813" unicode="₉"/><glyph d="M256 -432q-94 92 -151.5 242.5t-57.5 300t57.5 299t151.5 243.5l117 -47q-125 -236 -125 -495q0 -264 125 -496z" glyph-name="uni208D" horiz-adv-x="393" unicode="₍"/><glyph d="M150 -432l-117 47q125 231 125 495.5t-125 495.5l117 47q94 -94 151 -243.5t57 -299t-57 -300t-151 -242.5z" glyph-name="uni208E" horiz-adv-x="393" unicode="₎"/><glyph d="M883 242q174 37 250 190l249 -121q-190 -336 -579 -336h-8l-62 -180h-147l65 195q-68 12 -129 37l-78 -232h-147l98 295q-145 94 -227 248t-82 344q0 311 206 509t511 198h22l62 184h147l-65 -201q72 -16 125 -43l82 244h147l-104 -320q94 -78 163 -198l-249 -123l-13 24 zM737 1126q-156 -25 -255 -147.5t-99 -296.5q0 -178 106 -305zM1008 1069q-53 37 -123 53l-277 -841q61 -33 125 -41z" glyph-name="colonmonetary" horiz-adv-x="1425" unicode="₡"/><glyph d="M1118 1110h-674v-289h660v-256h-660v-192h316v-150h-316v-223h-292v223h-136v150h136v993h966v-256z" glyph-name="franc" horiz-adv-x="1187" unicode="₣"/><glyph d="M987 307l115 -231q-98 -102 -301 -103q-92 0 -221 54q-98 37 -150 36q-96 0 -237 -77l-99 198q223 109 223 256v2h-270v133h234q-14 27 -70 107h-164v135h80q-35 74 -35 146q0 186 151.5 304.5t346.5 118.5q346 0 475 -247l-231 -135q-27 66 -83.5 105.5t-125.5 39.5 q-92 0 -153.5 -53.5t-61.5 -139.5q0 -72 39 -139h356v-135h-275q31 -51 39 -107h236v-133h-240q-29 -104 -123 -157q43 14 103 14q61 0 143 -35q70 -31 123 -31q123 0 176 74z" glyph-name="lira" horiz-adv-x="1126" unicode="₤"/></font>
</defs>
</svg>
